  0
SECTION
  2
HEADER
  9
$ACADVER
  1
AC1009
  9
$DWGCODEPAGE
  3
ansi_949
  9
$INSBASE
 10
0.0
 20
0.0
 30
0.0
  9
$EXTMIN
 10
-454.0
 20
325.0892024999999
 30
0.0
  9
$EXTMAX
 10
2724.696071386747
 20
2693.703518329317
 30
0.0
  9
$LIMMIN
 10
0.0
 20
0.0
  9
$LIMMAX
 10
12.0
 20
9.0
  9
$ORTHOMODE
 70
     0
  9
$REGENMODE
 70
     1
  9
$FILLMODE
 70
     1
  9
$QTEXTMODE
 70
     0
  9
$MIRRTEXT
 70
     1
  9
$DRAGMODE
 70
     2
  9
$LTSCALE
 40
1.0
  9
$OSMODE
 70
    37
  9
$ATTMODE
 70
     1
  9
$TEXTSIZE
 40
0.2
  9
$TRACEWID
 40
0.05
  9
$TEXTSTYLE
  7
STANDARD
  9
$CLAYER
  8
0
  9
$CELTYPE
  6
BYLAYER
  9
$CECOLOR
 62
   256
  9
$DIMSCALE
 40
1.0
  9
$DIMASZ
 40
0.18
  9
$DIMEXO
 40
0.0625
  9
$DIMDLI
 40
0.38
  9
$DIMRND
 40
0.0
  9
$DIMDLE
 40
0.0
  9
$DIMEXE
 40
0.18
  9
$DIMTP
 40
0.0
  9
$DIMTM
 40
0.0
  9
$DIMTXT
 40
0.18
  9
$DIMCEN
 40
0.09
  9
$DIMTSZ
 40
0.0
  9
$DIMTOL
 70
     0
  9
$DIMLIM
 70
     0
  9
$DIMTIH
 70
     1
  9
$DIMTOH
 70
     1
  9
$DIMSE1
 70
     0
  9
$DIMSE2
 70
     0
  9
$DIMTAD
 70
     0
  9
$DIMZIN
 70
     0
  9
$DIMBLK
  1

  9
$DIMASO
 70
     1
  9
$DIMSHO
 70
     1
  9
$DIMPOST
  1

  9
$DIMAPOST
  1

  9
$DIMALT
 70
     0
  9
$DIMALTD
 70
     2
  9
$DIMALTF
 40
25.4
  9
$DIMLFAC
 40
1.0
  9
$DIMTOFL
 70
     0
  9
$DIMTVP
 40
0.0
  9
$DIMTIX
 70
     0
  9
$DIMSOXD
 70
     0
  9
$DIMSAH
 70
     0
  9
$DIMBLK1
  1

  9
$DIMBLK2
  1

  9
$DIMSTYLE
  2
STANDARD
  9
$DIMCLRD
 70
     0
  9
$DIMCLRE
 70
     0
  9
$DIMCLRT
 70
     0
  9
$DIMTFAC
 40
1.0
  9
$DIMGAP
 40
0.09
  9
$LUNITS
 70
     2
  9
$LUPREC
 70
     3
  9
$SKETCHINC
 40
0.1
  9
$FILLETRAD
 40
0.5
  9
$AUNITS
 70
     0
  9
$AUPREC
 70
     0
  9
$MENU
  1
.
  9
$ELEVATION
 40
0.0
  9
$PELEVATION
 40
0.0
  9
$THICKNESS
 40
0.0
  9
$LIMCHECK
 70
     0
  9
$CHAMFERA
 40
0.0
  9
$CHAMFERB
 40
0.0
  9
$SKPOLY
 70
     0
  9
$TDCREATE
 40
2457497.144046111
  9
$TDUPDATE
 40
2457497.144065151
  9
$TDINDWG
 40
0.0000000116
  9
$TDUSRTIMER
 40
0.0000000116
  9
$USRTIMER
 70
     1
  9
$ANGBASE
 50
0.0
  9
$ANGDIR
 70
     0
  9
$PDMODE
 70
     0
  9
$PDSIZE
 40
0.0
  9
$PLINEWID
 40
0.0
  9
$COORDS
 70
     1
  9
$SPLFRAME
 70
     0
  9
$SPLINETYPE
 70
     6
  9
$SPLINESEGS
 70
     8
  9
$ATTDIA
 70
     0
  9
$ATTREQ
 70
     1
  9
$HANDLING
 70
     1
  9
$HANDSEED
  5
4E2
  9
$SURFTAB1
 70
     6
  9
$SURFTAB2
 70
     6
  9
$SURFTYPE
 70
     6
  9
$SURFU
 70
     6
  9
$SURFV
 70
     6
  9
$UCSNAME
  2

  9
$UCSORG
 10
0.0
 20
0.0
 30
0.0
  9
$UCSXDIR
 10
1.0
 20
0.0
 30
0.0
  9
$UCSYDIR
 10
0.0
 20
1.0
 30
0.0
  9
$PUCSNAME
  2

  9
$PUCSORG
 10
0.0
 20
0.0
 30
0.0
  9
$PUCSXDIR
 10
1.0
 20
0.0
 30
0.0
  9
$PUCSYDIR
 10
0.0
 20
1.0
 30
0.0
  9
$USERI1
 70
     0
  9
$USERI2
 70
     0
  9
$USERI3
 70
     0
  9
$USERI4
 70
     0
  9
$USERI5
 70
     0
  9
$USERR1
 40
0.0
  9
$USERR2
 40
0.0
  9
$USERR3
 40
0.0
  9
$USERR4
 40
0.0
  9
$USERR5
 40
0.0
  9
$WORLDVIEW
 70
     1
  9
$SHADEDGE
 70
     3
  9
$SHADEDIF
 70
    70
  9
$TILEMODE
 70
     1
  9
$MAXACTVP
 70
    64
  9
$PLIMCHECK
 70
     0
  9
$PEXTMIN
 10
1.000000000000000E+20
 20
1.000000000000000E+20
 30
1.000000000000000E+20
  9
$PEXTMAX
 10
-1.000000000000000E+20
 20
-1.000000000000000E+20
 30
-1.000000000000000E+20
  9
$PLIMMIN
 10
0.0
 20
0.0
  9
$PLIMMAX
 10
12.0
 20
9.0
  9
$UNITMODE
 70
     0
  9
$VISRETAIN
 70
     1
  9
$PLINEGEN
 70
     0
  9
$PSLTSCALE
 70
     1
  0
ENDSEC
  0
SECTION
  2
TABLES
  0
TABLE
  2
VPORT
 70
     1
  0
VPORT
  2
*ACTIVE
 70
     0
 10
0.0
 20
0.0
 11
1.0
 21
1.0
 12
1135.348035693374
 22
1509.396360414658
 13
0.0
 23
0.0
 14
0.5
 24
0.5
 15
0.5
 25
0.5
 16
0.0
 26
0.0
 36
1.0
 17
0.0
 27
0.0
 37
0.0
 40
2415.986602145903
 41
1.342006611267904
 42
50.0
 43
0.0
 44
0.0
 50
0.0
 51
0.0
 71
     0
 72
   100
 73
     1
 74
     3
 75
     0
 76
     0
 77
     0
 78
     0
  0
ENDTAB
  0
TABLE
  2
LTYPE
 70
     1
  0
LTYPE
  2
CONTINUOUS
 70
     0
  3
Solid line
 72
    65
 73
     0
 40
0.0
  0
ENDTAB
  0
TABLE
  2
LAYER
 70
     5
  0
LAYER
  2
0
 70
     0
 62
     7
  6
CONTINUOUS
  0
LAYER
  2
기본값
 70
     0
 62
     7
  6
CONTINUOUS
  0
LAYER
  2
MAKE2D_VISIBLE_LINES
 70
     0
 62
     7
  6
CONTINUOUS
  0
LAYER
  2
LAYER1
 70
     0
 62
     2
  6
CONTINUOUS
  0
LAYER
  2
DEFPOINTS
 70
     0
 62
     7
  6
CONTINUOUS
  0
ENDTAB
  0
TABLE
  2
STYLE
 70
     1
  0
STYLE
  2
STANDARD
 70
     0
 40
0.0
 41
1.0
 50
0.0
 71
     0
 42
0.2
  3
txt
  4

  0
ENDTAB
  0
TABLE
  2
VIEW
 70
     0
  0
ENDTAB
  0
TABLE
  2
UCS
 70
     0
  0
ENDTAB
  0
TABLE
  2
APPID
 70
     1
  0
APPID
  2
ACAD
 70
     0
  0
ENDTAB
  0
TABLE
  2
DIMSTYLE
 70
     1
  0
DIMSTYLE
  2
STANDARD
 70
     0
  3

  4

  5

  6

  7

 40
1.0
 41
0.18
 42
0.0625
 43
0.38
 44
0.18
 45
0.0
 46
0.0
 47
0.0
 48
0.0
140
0.18
141
0.09
142
0.0
143
25.4
144
1.0
145
0.0
146
1.0
147
0.09
 71
     0
 72
     0
 73
     1
 74
     1
 75
     0
 76
     0
 77
     0
 78
     0
170
     0
171
     2
172
     0
173
     0
174
     0
175
     0
176
     0
177
     0
178
     0
  0
ENDTAB
  0
ENDSEC
  0
SECTION
  2
BLOCKS
  0
BLOCK
  8
0
  2
$MODEL_SPACE
 70
     0
 10
0.0
 20
0.0
 30
0.0
  3
$MODEL_SPACE
  1

  0
ENDBLK
  5
21
  8
0
  0
BLOCK
 67
     1
  8
0
  2
$PAPER_SPACE
 70
     0
 10
0.0
 20
0.0
 30
0.0
  3
$PAPER_SPACE
  1

  0
ENDBLK
  5
1D
 67
     1
  8
0
  0
BLOCK
  8
0
  2
FABLAB
 70
     0
 10
0.0
 20
0.0
 30
0.0
  3
FABLAB
  1

  0
POLYLINE
  5
D2
  8
기본값
 62
     0
 66
     1
 10
0.0
 20
0.0
 30
0.0
  0
VERTEX
  5
D3
  8
기본값
 62
     0
 10
33.70869277777778
 20
10.70564138888888
 30
0.0
  0
VERTEX
  5
D4
  8
기본값
 62
     0
 10
29.58295666666666
 20
13.08301083333333
 30
0.0
  0
VERTEX
  5
D5
  8
기본값
 62
     0
 10
29.58295666666666
 20
17.77954138888889
 30
0.0
  0
VERTEX
  5
D6
  8
기본값
 62
     0
 10
30.00734833333333
 20
17.98203583333333
 30
0.0
  0
VERTEX
  5
D7
  8
기본값
 62
     0
 10
30.05998604886902
 20
18.01351987213003
 30
0.0
  0
VERTEX
  5
D8
  8
기본값
 62
     0
 10
30.11188359236823
 20
18.04590514891519
 30
0.0
  0
VERTEX
  5
D9
  8
기본값
 62
     0
 10
30.16304041073163
 20
18.07918339646896
 30
0.0
  0
VERTEX
  5
DA
  8
기본값
 62
     0
 10
30.21345595085991
 20
18.11334634757148
 30
0.0
  0
VERTEX
  5
DB
  8
기본값
 62
     0
 10
30.26312965965376
 20
18.14838573500289
 30
0.0
  0
VERTEX
  5
DC
  8
기본값
 62
     0
 10
30.31206098401387
 20
18.18429329154332
 30
0.0
  0
VERTEX
  5
DD
  8
기본값
 62
     0
 10
30.36024937084091
 20
18.22106074997292
 30
0.0
  0
VERTEX
  5
DE
  8
기본값
 62
     0
 10
30.40769426703558
 20
18.25867984307183
 30
0.0
  0
VERTEX
  5
DF
  8
기본값
 62
     0
 10
30.45439511949856
 20
18.29714230362018
 30
0.0
  0
VERTEX
  5
E0
  8
기본값
 62
     0
 10
30.50035137513054
 20
18.33643986439811
 30
0.0
  0
VERTEX
  5
E1
  8
기본값
 62
     0
 10
30.5455624808322
 20
18.37656425818576
 30
0.0
  0
VERTEX
  5
E2
  8
기본값
 62
     0
 10
30.59002788350423
 20
18.41750721776327
 30
0.0
  0
VERTEX
  5
E3
  8
기본값
 62
     0
 10
30.63374703004731
 20
18.45926047591077
 30
0.0
  0
VERTEX
  5
E4
  8
기본값
 62
     0
 10
30.67671936736213
 20
18.50181576540841
 30
0.0
  0
VERTEX
  5
E5
  8
기본값
 62
     0
 10
30.71894434234937
 20
18.54516481903632
 30
0.0
  0
VERTEX
  5
E6
  8
기본값
 62
     0
 10
30.76042140190972
 20
18.58929936957465
 30
0.0
  0
VERTEX
  5
E7
  8
기본값
 62
     0
 10
30.80114999294386
 20
18.63421114980353
 30
0.0
  0
VERTEX
  5
E8
  8
기본값
 62
     0
 10
30.8411295623525
 20
18.6798918925031
 30
0.0
  0
VERTEX
  5
E9
  8
기본값
 62
     0
 10
30.91883942389594
 20
18.77352719643487
 30
0.0
  0
VERTEX
  5
EA
  8
기본값
 62
     0
 10
30.99354656174553
 20
18.87013914361106
 30
0.0
  0
VERTEX
  5
EB
  8
기본값
 62
     0
 10
31.06524655110677
 20
18.96966159627279
 30
0.0
  0
VERTEX
  5
EC
  8
기본값
 62
     0
 10
31.13393496718513
 20
19.07202841666115
 30
0.0
  0
VERTEX
  5
ED
  8
기본값
 62
     0
 10
31.19960738518609
 20
19.17717346701728
 30
0.0
  0
VERTEX
  5
EE
  8
기본값
 62
     0
 10
31.26225938031515
 20
19.28503060958226
 30
0.0
  0
VERTEX
  5
EF
  8
기본값
 62
     0
 10
31.32188652777778
 20
19.39553370659722
 30
0.0
  0
VERTEX
  5
F0
  8
기본값
 62
     0
 10
31.37848440277947
 20
19.50861662030326
 30
0.0
  0
VERTEX
  5
F1
  8
기본값
 62
     0
 10
31.43204858052572
 20
19.62421321294148
 30
0.0
  0
VERTEX
  5
F2
  8
기본값
 62
     0
 10
31.48257463622199
 20
19.74225734675301
 30
0.0
  0
VERTEX
  5
F3
  8
기본값
 62
     0
 10
31.53005814507379
 20
19.86268288397894
 30
0.0
  0
VERTEX
  5
F4
  8
기본값
 62
     0
 10
31.57449468228658
 20
19.98542368686039
 30
0.0
  0
VERTEX
  5
F5
  8
기본값
 62
     0
 10
31.61587982306586
 20
20.11041361763847
 30
0.0
  0
VERTEX
  5
F6
  8
기본값
 62
     0
 10
31.65420914261712
 20
20.23758653855429
 30
0.0
  0
VERTEX
  5
F7
  8
기본값
 62
     0
 10
31.68947821614583
 20
20.36687631184896
 30
0.0
  0
VERTEX
  5
F8
  8
기본값
 62
     0
 10
31.72168261885749
 20
20.49821679976357
 30
0.0
  0
VERTEX
  5
F9
  8
기본값
 62
     0
 10
31.75081792595757
 20
20.63154186453925
 30
0.0
  0
VERTEX
  5
FA
  8
기본값
 62
     0
 10
31.77687971265157
 20
20.7667853684171
 30
0.0
  0
VERTEX
  5
FB
  8
기본값
 62
     0
 10
31.79986355414496
 20
20.90388117363823
 30
0.0
  0
VERTEX
  5
FC
  8
기본값
 62
     0
 10
31.81976502564324
 20
21.04276314244376
 30
0.0
  0
VERTEX
  5
FD
  8
기본값
 62
     0
 10
31.83657970235189
 20
21.18336513707478
 30
0.0
  0
VERTEX
  5
FE
  8
기본값
 62
     0
 10
31.85030315947639
 20
21.32562101977242
 30
0.0
  0
VERTEX
  5
FF
  8
기본값
 62
     0
 10
31.86093097222222
 20
21.46946465277777
 30
0.0
  0
VERTEX
  5
100
  8
기본값
 62
     0
 10
31.86845871579488
 20
21.61482989833195
 30
0.0
  0
VERTEX
  5
101
  8
기본값
 62
     0
 10
31.87288196539985
 20
21.76165061867607
 30
0.0
  0
VERTEX
  5
102
  8
기본값
 62
     0
 10
31.87419629624261
 20
21.90986067605124
 30
0.0
  0
VERTEX
  5
103
  8
기본값
 62
     0
 10
31.87239728352864
 20
22.05939393269856
 30
0.0
  0
VERTEX
  5
104
  8
기본값
 62
     0
 10
31.86748050246345
 20
22.21018425085915
 30
0.0
  0
VERTEX
  5
105
  8
기본값
 62
     0
 10
31.8594415282525
 20
22.36216549277411
 30
0.0
  0
VERTEX
  5
106
  8
기본값
 62
     0
 10
31.84827593610127
 20
22.51527152068455
 30
0.0
  0
VERTEX
  5
107
  8
기본값
 62
     0
 10
31.83397930121527
 20
22.66943619683159
 30
0.0
  0
VERTEX
  5
108
  8
기본값
 62
     0
 10
31.81654719879998
 20
22.82459338345633
 30
0.0
  0
VERTEX
  5
109
  8
기본값
 62
     0
 10
31.79597520406087
 20
22.98067694279988
 30
0.0
  0
VERTEX
  5
10A
  8
기본값
 62
     0
 10
31.77225889220343
 20
23.13762073710335
 30
0.0
  0
VERTEX
  5
10B
  8
기본값
 62
     0
 10
31.74539383843316
 20
23.29535862860785
 30
0.0
  0
VERTEX
  5
10C
  8
기본값
 62
     0
 10
31.71537561795552
 20
23.45382447955449
 30
0.0
  0
VERTEX
  5
10D
  8
기본값
 62
     0
 10
31.68219980597602
 20
23.61295215218437
 30
0.0
  0
VERTEX
  5
10E
  8
기본값
 62
     0
 10
31.64586197770012
 20
23.77267550873862
 30
0.0
  0
VERTEX
  5
10F
  8
기본값
 62
     0
 10
31.60635770833333
 20
23.93292841145833
 30
0.0
  0
VERTEX
  5
110
  8
기본값
 62
     0
 10
31.56368257308112
 20
24.09364472258461
 30
0.0
  0
VERTEX
  5
111
  8
기본값
 62
     0
 10
31.51783214714897
 20
24.25475830435859
 30
0.0
  0
VERTEX
  5
112
  8
기본값
 62
     0
 10
31.46880200574238
 20
24.41620301902135
 30
0.0
  0
VERTEX
  5
113
  8
기본값
 62
     0
 10
31.41658772406683
 20
24.57791272881402
 30
0.0
  0
VERTEX
  5
114
  8
기본값
 62
     0
 10
31.30258904073079
 20
24.90186258275349
 30
0.0
  0
VERTEX
  5
115
  8
기본값
 62
     0
 10
31.17580069878472
 20
25.2260787641059
 30
0.0
  0
VERTEX
  5
116
  8
기본값
 62
     0
 10
31.0361872998725
 20
25.5500321708001
 30
0.0
  0
VERTEX
  5
117
  8
기본값
 62
     0
 10
30.88371344563802
 20
25.87319370076497
 30
0.0
  0
VERTEX
  5
118
  8
기본값
 62
     0
 10
30.71834373772515
 20
26.19503425192938
 30
0.0
  0
VERTEX
  5
119
  8
기본값
 62
     0
 10
30.54004277777777
 20
26.51502472222222
 30
0.0
  0
VERTEX
  5
11A
  8
기본값
 62
     0
 10
30.35049771518283
 20
26.82883564938015
 30
0.0
  0
VERTEX
  5
11B
  8
기본값
 62
     0
 10
30.15286606608073
 20
27.13233570719401
 30
0.0
  0
VERTEX
  5
11C
  8
기본값
 62
     0
 10
29.94763126349555
 20
27.42529299767388
 30
0.0
  0
VERTEX
  5
11D
  8
기본값
 62
     0
 10
29.73527674045139
 20
27.70747562282986
 30
0.0
  0
VERTEX
  5
11E
  8
기본값
 62
     0
 10
29.51628592997233
 20
27.97865168467203
 30
0.0
  0
VERTEX
  5
11F
  8
기본값
 62
     0
 10
29.29114226508246
 20
28.2385892852105
 30
0.0
  0
VERTEX
  5
120
  8
기본값
 62
     0
 10
29.1764141850535
 20
28.364271194369
 30
0.0
  0
VERTEX
  5
121
  8
기본값
 62
     0
 10
29.06032917880588
 20
28.48705652645535
 30
0.0
  0
VERTEX
  5
122
  8
기본값
 62
     0
 10
28.94294767546759
 20
28.60691629422081
 30
0.0
  0
VERTEX
  5
123
  8
기본값
 62
     0
 10
28.82433010416666
 20
28.72382151041666
 30
0.0
  0
VERTEX
  5
124
  8
기본값
 62
     0
 10
28.7045368940311
 20
28.83774318779415
 30
0.0
  0
VERTEX
  5
125
  8
기본값
 62
     0
 10
28.58362847418891
 20
28.94865233910454
 30
0.0
  0
VERTEX
  5
126
  8
기본값
 62
     0
 10
28.46166527376811
 20
29.05651997709909
 30
0.0
  0
VERTEX
  5
127
  8
기본값
 62
     0
 10
28.3387077218967
 20
29.16131711452908
 30
0.0
  0
VERTEX
  5
128
  8
기본값
 62
     0
 10
28.2148162477027
 20
29.26301476414574
 30
0.0
  0
VERTEX
  5
129
  8
기본값
 62
     0
 10
28.09005128031412
 20
29.36158393870036
 30
0.0
  0
VERTEX
  5
12A
  8
기본값
 62
     0
 10
27.96447324885898
 20
29.45699565094418
 30
0.0
  0
VERTEX
  5
12B
  8
기본값
 62
     0
 10
27.83814258246528
 20
29.54922091362847
 30
0.0
  0
VERTEX
  5
12C
  8
기본값
 62
     0
 10
27.71111971026103
 20
29.63823073950449
 30
0.0
  0
VERTEX
  5
12D
  8
기본값
 62
     0
 10
27.58346506137424
 20
29.72399614132351
 30
0.0
  0
VERTEX
  5
12E
  8
기본값
 62
     0
 10
27.45523906493293
 20
29.80648813183678
 30
0.0
  0
VERTEX
  5
12F
  8
기본값
 62
     0
 10
27.3265021500651
 20
29.88567772379557
 30
0.0
  0
VERTEX
  5
130
  8
기본값
 62
     0
 10
27.19731474589877
 20
29.96153592995113
 30
0.0
  0
VERTEX
  5
131
  8
기본값
 62
     0
 10
27.06773728156195
 20
30.03403376305474
 30
0.0
  0
VERTEX
  5
132
  8
기본값
 62
     0
 10
26.93783018618266
 20
30.10314223585765
 30
0.0
  0
VERTEX
  5
133
  8
기본값
 62
     0
 10
26.80765388888889
 20
30.16883236111111
 30
0.0
  0
VERTEX
  5
134
  8
기본값
 62
     0
 10
26.67726881880866
 20
30.23107515156639
 30
0.0
  0
VERTEX
  5
135
  8
기본값
 62
     0
 10
26.54673540506998
 20
30.28984161997477
 30
0.0
  0
VERTEX
  5
136
  8
기본값
 62
     0
 10
26.41611407680087
 20
30.34510277908749
 30
0.0
  0
VERTEX
  5
137
  8
기본값
 62
     0
 10
26.28546526312934
 20
30.39682964165581
 30
0.0
  0
VERTEX
  5
138
  8
기본값
 62
     0
 10
26.15484939318339
 20
30.44499322043101
 30
0.0
  0
VERTEX
  5
139
  8
기본값
 62
     0
 10
26.02432689609103
 20
30.48956452816433
 30
0.0
  0
VERTEX
  5
13A
  8
기본값
 62
     0
 10
25.89395820098029
 20
30.53051457760705
 30
0.0
  0
VERTEX
  5
13B
  8
기본값
 62
     0
 10
25.76380373697916
 20
30.56781438151042
 30
0.0
  0
VERTEX
  5
13C
  8
기본값
 62
     0
 10
25.63392393321567
 20
30.6014349526257
 30
0.0
  0
VERTEX
  5
13D
  8
기본값
 62
     0
 10
25.50437921881781
 20
30.63134730370415
 30
0.0
  0
VERTEX
  5
13E
  8
기본값
 62
     0
 10
25.37523002291361
 20
30.65752244749705
 30
0.0
  0
VERTEX
  5
13F
  8
기본값
 62
     0
 10
25.24653677463107
 20
30.67993139675564
 30
0.0
  0
VERTEX
  5
140
  8
기본값
 62
     0
 10
25.11835990309821
 20
30.69854516423119
 30
0.0
  0
VERTEX
  5
141
  8
기본값
 62
     0
 10
24.99075983744303
 20
30.71333476267496
 30
0.0
  0
VERTEX
  5
142
  8
기본값
 62
     0
 10
24.86379700679355
 20
30.72427120483822
 30
0.0
  0
VERTEX
  5
143
  8
기본값
 62
     0
 10
24.73753184027778
 20
30.73132550347222
 30
0.0
  0
VERTEX
  5
144
  8
기본값
 62
     0
 10
24.61202476702372
 20
30.73446867132822
 30
0.0
  0
VERTEX
  5
145
  8
기본값
 62
     0
 10
24.4873362161594
 20
30.7336717211575
 30
0.0
  0
VERTEX
  5
146
  8
기본값
 62
     0
 10
24.36352661681281
 20
30.7289056657113
 30
0.0
  0
VERTEX
  5
147
  8
기본값
 62
     0
 10
24.24065639811198
 20
30.72014151774088
 30
0.0
  0
VERTEX
  5
148
  8
기본값
 62
     0
 10
24.11878598918491
 20
30.70735028999752
 30
0.0
  0
VERTEX
  5
149
  8
기본값
 62
     0
 10
23.99797581915961
 20
30.69050299523247
 30
0.0
  0
VERTEX
  5
14A
  8
기본값
 62
     0
 10
23.8782863171641
 20
30.669570646197
 30
0.0
  0
VERTEX
  5
14B
  8
기본값
 62
     0
 10
23.81888070078002
 20
30.65756351781262
 30
0.0
  0
VERTEX
  5
14C
  8
기본값
 62
     0
 10
23.75977791232638
 20
30.64452425564236
 30
0.0
  0
VERTEX
  5
14D
  8
기본값
 62
     0
 10
23.7009855054442
 20
30.63044923628012
 30
0.0
  0
VERTEX
  5
14E
  8
기본값
 62
     0
 10
23.64251103377448
 20
30.61533483631981
 30
0.0
  0
VERTEX
  5
14F
  8
기본값
 62
     0
 10
23.58436205095821
 20
30.59917743235535
 30
0.0
  0
VERTEX
  5
150
  8
기본값
 62
     0
 10
23.52654611063639
 20
30.58197340098063
 30
0.0
  0
VERTEX
  5
151
  8
기본값
 62
     0
 10
23.46907076645003
 20
30.56371911878956
 30
0.0
  0
VERTEX
  5
152
  8
기본값
 62
     0
 10
23.41194357204013
 20
30.54441096237606
 30
0.0
  0
VERTEX
  5
153
  8
기본값
 62
     0
 10
23.35517208104769
 20
30.52404530833403
 30
0.0
  0
VERTEX
  5
154
  8
기본값
 62
     0
 10
23.29876384711371
 20
30.50261853325738
 30
0.0
  0
VERTEX
  5
155
  8
기본값
 62
     0
 10
23.2427264238792
 20
30.48012701374001
 30
0.0
  0
VERTEX
  5
156
  8
기본값
 62
     0
 10
23.18706736498515
 20
30.45656712637583
 30
0.0
  0
VERTEX
  5
157
  8
기본값
 62
     0
 10
23.13179422407256
 20
30.43193524775876
 30
0.0
  0
VERTEX
  5
158
  8
기본값
 62
     0
 10
23.07691455478244
 20
30.40622775448269
 30
0.0
  0
VERTEX
  5
159
  8
기본값
 62
     0
 10
23.02243591075579
 20
30.37944102314153
 30
0.0
  0
VERTEX
  5
15A
  8
기본값
 62
     0
 10
22.96836584563361
 20
30.35157143032921
 30
0.0
  0
VERTEX
  5
15B
  8
기본값
 62
     0
 10
22.9147119130569
 20
30.32261535263962
 30
0.0
  0
VERTEX
  5
15C
  8
기본값
 62
     0
 10
22.86148166666666
 20
30.29256916666666
 30
0.0
  0
VERTEX
  5
15D
  8
기본값
 62
     0
 10
22.80885311949226
 20
30.26110781654887
 30
0.0
  0
VERTEX
  5
15E
  8
기본값
 62
     0
 10
22.75696652779685
 20
30.22874105900234
 30
0.0
  0
VERTEX
  5
15F
  8
기본값
 62
     0
 10
22.7058224194471
 20
30.19547725511233
 30
0.0
  0
VERTEX
  5
160
  8
기본값
 62
     0
 10
22.6554213223097
 20
30.16132476596408
 30
0.0
  0
VERTEX
  5
161
  8
기본값
 62
     0
 10
22.60576376425133
 20
30.12629195264286
 30
0.0
  0
VERTEX
  5
162
  8
기본값
 62
     0
 10
22.55685027313868
 20
30.09038717623393
 30
0.0
  0
VERTEX
  5
163
  8
기본값
 62
     0
 10
22.50868137683842
 20
30.05361879782253
 30
0.0
  0
VERTEX
  5
164
  8
기본값
 62
     0
 10
22.46125760321723
 20
30.01599517849392
 30
0.0
  0
VERTEX
  5
165
  8
기본값
 62
     0
 10
22.4145794801418
 20
29.97752467933337
 30
0.0
  0
VERTEX
  5
166
  8
기본값
 62
     0
 10
22.3686475354788
 20
29.93821566142612
 30
0.0
  0
VERTEX
  5
167
  8
기본값
 62
     0
 10
22.32346229709492
 20
29.89807648585743
 30
0.0
  0
VERTEX
  5
168
  8
기본값
 62
     0
 10
22.27902429285685
 20
29.85711551371256
 30
0.0
  0
VERTEX
  5
169
  8
기본값
 62
     0
 10
22.23533405063125
 20
29.81534110607676
 30
0.0
  0
VERTEX
  5
16A
  8
기본값
 62
     0
 10
22.19239209828482
 20
29.7727616240353
 30
0.0
  0
VERTEX
  5
16B
  8
기본값
 62
     0
 10
22.15019896368424
 20
29.72938542867342
 30
0.0
  0
VERTEX
  5
16C
  8
기본값
 62
     0
 10
22.10875517469618
 20
29.68522088107638
 30
0.0
  0
VERTEX
  5
16D
  8
기본값
 62
     0
 10
22.06806125918732
 20
29.64027634232944
 30
0.0
  0
VERTEX
  5
16E
  8
기본값
 62
     0
 10
22.02811774502436
 20
29.59456017351786
 30
0.0
  0
VERTEX
  5
16F
  8
기본값
 62
     0
 10
21.95048403220282
 20
29.50084639004177
 30
0.0
  0
VERTEX
  5
170
  8
기본값
 62
     0
 10
21.87585825916502
 20
29.40414641933017
 30
0.0
  0
VERTEX
  5
171
  8
기본값
 62
     0
 10
21.8042446488444
 20
29.3045271500651
 30
0.0
  0
VERTEX
  5
172
  8
기본값
 62
     0
 10
21.73564742417441
 20
29.20205547092861
 30
0.0
  0
VERTEX
  5
173
  8
기본값
 62
     0
 10
21.67007080808851
 20
29.09679827060275
 30
0.0
  0
VERTEX
  5
174
  8
기본값
 62
     0
 10
21.60751902352015
 20
28.98882243776956
 30
0.0
  0
VERTEX
  5
175
  8
기본값
 62
     0
 10
21.54799629340278
 20
28.8781948611111
 30
0.0
  0
VERTEX
  5
176
  8
기본값
 62
     0
 10
21.49150684066984
 20
28.76498242930941
 30
0.0
  0
VERTEX
  5
177
  8
기본값
 62
     0
 10
21.4380548882548
 20
28.64925203104654
 30
0.0
  0
VERTEX
  5
178
  8
기본값
 62
     0
 10
21.3876446590911
 20
28.53107055500454
 30
0.0
  0
VERTEX
  5
179
  8
기본값
 62
     0
 10
21.34028037611219
 20
28.41050488986544
 30
0.0
  0
VERTEX
  5
17A
  8
기본값
 62
     0
 10
21.29596626225153
 20
28.28762192431131
 30
0.0
  0
VERTEX
  5
17B
  8
기본값
 62
     0
 10
21.25470654044257
 20
28.16248854702419
 30
0.0
  0
VERTEX
  5
17C
  8
기본값
 62
     0
 10
21.21650543361876
 20
28.03517164668612
 30
0.0
  0
VERTEX
  5
17D
  8
기본값
 62
     0
 10
21.18136716471354
 20
27.90573811197916
 30
0.0
  0
VERTEX
  5
17E
  8
기본값
 62
     0
 10
21.14929595666037
 20
27.77425483158535
 30
0.0
  0
VERTEX
  5
17F
  8
기본값
 62
     0
 10
21.12029603239271
 20
27.64078869418674
 30
0.0
  0
VERTEX
  5
180
  8
기본값
 62
     0
 10
21.094371614844
 20
27.50540658846537
 30
0.0
  0
VERTEX
  5
181
  8
기본값
 62
     0
 10
21.07152692694769
 20
27.36817540310329
 30
0.0
  0
VERTEX
  5
182
  8
기본값
 62
     0
 10
21.05176619163725
 20
27.22916202678256
 30
0.0
  0
VERTEX
  5
183
  8
기본값
 62
     0
 10
21.03509363184611
 20
27.08843334818521
 30
0.0
  0
VERTEX
  5
184
  8
기본값
 62
     0
 10
21.02151347050772
 20
26.94605625599331
 30
0.0
  0
VERTEX
  5
185
  8
기본값
 62
     0
 10
21.01102993055555
 20
26.80209763888888
 30
0.0
  0
VERTEX
  5
186
  8
기본값
 62
     0
 10
21.00364723492304
 20
26.65662438555399
 30
0.0
  0
VERTEX
  5
187
  8
기본값
 62
     0
 10
20.99936960654364
 20
26.50970338467067
 30
0.0
  0
VERTEX
  5
188
  8
기본값
 62
     0
 10
20.99820126835081
 20
26.36140152492099
 30
0.0
  0
VERTEX
  5
189
  8
기본값
 62
     0
 10
21.00014644327799
 20
26.21178569498697
 30
0.0
  0
VERTEX
  5
18A
  8
기본값
 62
     0
 10
21.00520935425864
 20
26.06092278355068
 30
0.0
  0
VERTEX
  5
18B
  8
기본값
 62
     0
 10
21.0133942242262
 20
25.90887967929416
 30
0.0
  0
VERTEX
  5
18C
  8
기본값
 62
     0
 10
21.02470527611414
 20
25.75572327089945
 30
0.0
  0
VERTEX
  5
18D
  8
기본값
 62
     0
 10
21.0391467328559
 20
25.60152044704861
 30
0.0
  0
VERTEX
  5
18E
  8
기본값
 62
     0
 10
21.05672281738493
 20
25.44633809642367
 30
0.0
  0
VERTEX
  5
18F
  8
기본값
 62
     0
 10
21.07743775263468
 20
25.2902431077067
 30
0.0
  0
VERTEX
  5
190
  8
기본값
 62
     0
 10
21.1012957615386
 20
25.13330236957973
 30
0.0
  0
VERTEX
  5
191
  8
기본값
 62
     0
 10
21.12830106703016
 20
24.97558277072482
 30
0.0
  0
VERTEX
  5
192
  8
기본값
 62
     0
 10
21.15845789204279
 20
24.81715119982401
 30
0.0
  0
VERTEX
  5
193
  8
기본값
 62
     0
 10
21.19177045950995
 20
24.65807454555935
 30
0.0
  0
VERTEX
  5
194
  8
기본값
 62
     0
 10
21.22824299236509
 20
24.49841969661288
 30
0.0
  0
VERTEX
  5
195
  8
기본값
 62
     0
 10
21.26787971354166
 20
24.33825354166666
 30
0.0
  0
VERTEX
  5
196
  8
기본값
 62
     0
 10
21.31068484597312
 20
24.17764296940273
 30
0.0
  0
VERTEX
  5
197
  8
기본값
 62
     0
 10
21.35666261259291
 20
24.01665486850314
 30
0.0
  0
VERTEX
  5
198
  8
기본값
 62
     0
 10
21.40581723633449
 20
23.85535612764994
 30
0.0
  0
VERTEX
  5
199
  8
기본값
 62
     0
 10
21.45815294013129
 20
23.69381363552517
 30
0.0
  0
VERTEX
  5
19A
  8
기본값
 62
     0
 10
21.57238447962443
 20
23.37026495218912
 30
0.0
  0
VERTEX
  5
19B
  8
기본값
 62
     0
 10
21.69939101453993
 20
23.04654392795138
 30
0.0
  0
VERTEX
  5
19C
  8
기본값
 62
     0
 10
21.8392063283454
 20
22.72318567226834
 30
0.0
  0
VERTEX
  5
19D
  8
기본값
 62
     0
 10
21.99186420450846
 20
22.40072529459636
 30
0.0
  0
VERTEX
  5
19E
  8
기본값
 62
     0
 10
22.15739842649672
 20
22.07969790439182
 30
0.0
  0
VERTEX
  5
19F
  8
기본값
 62
     0
 10
22.33584277777777
 20
21.76063861111111
 30
0.0
  0
VERTEX
  5
1A0
  8
기본값
 62
     0
 10
23.29151777777778
 20
20.3685775
 30
0.0
  0
VERTEX
  5
1A1
  8
기본값
 62
     0
 10
23.29151777777778
 20
16.71591638888889
 30
0.0
  0
VERTEX
  5
1A2
  8
기본값
 62
     0
 10
18.49444555555555
 20
19.47993027777778
 30
0.0
  0
VERTEX
  5
1A3
  8
기본값
 62
     0
 10
18.49444555555555
 20
37.06660805555556
 30
0.0
  0
VERTEX
  5
1A4
  8
기본값
 62
     0
 10
16.74008166666667
 20
38.07237749999999
 30
0.0
 42
0.1240990813307924
  0
VERTEX
  5
1A5
  8
기본값
 62
     0
 10
14.3771761111111
 20
28.67896361111111
 30
0.0
 42
0.4045532498827222
  0
VERTEX
  5
1A6
  8
기본값
 62
     0
 10
33.70869277777778
 20
8.695160833333336
 30
0.0
  0
VERTEX
  5
1A7
  8
기본값
 62
     0
 10
33.70869277777778
 20
10.70564138888888
 30
0.0
  0
SEQEND
  5
1A8
  8
기본값
 62
     0
  0
POLYLINE
  5
1A9
  8
기본값
 62
     0
 66
     1
 10
0.0
 20
0.0
 30
0.0
  0
VERTEX
  5
1AA
  8
기본값
 62
     0
 10
51.98184083333333
 20
38.07227166666667
 30
0.0
  0
VERTEX
  5
1AB
  8
기본값
 62
     0
 10
50.22359638888888
 20
37.047805
 30
0.0
  0
VERTEX
  5
1AC
  8
기본값
 62
     0
 10
50.22359638888888
 20
31.50108
 30
0.0
  0
VERTEX
  5
1AD
  8
기본값
 62
     0
 10
46.91418805555555
 20
29.61654111111111
 30
0.0
 42
0.0787278624322187
  0
VERTEX
  5
1AE
  8
기본값
 62
     0
 10
46.07281305555555
 20
30.33197444444444
 30
0.0
  0
VERTEX
  5
1AF
  8
기본값
 62
     0
 10
46.01950878233962
 20
30.36221578649759
 30
0.0
  0
VERTEX
  5
1B0
  8
기본값
 62
     0
 10
45.96578159606509
 20
30.39136050923877
 30
0.0
  0
VERTEX
  5
1B1
  8
기본값
 62
     0
 10
45.91163904835435
 20
30.41941231379059
 30
0.0
  0
VERTEX
  5
1B2
  8
기본값
 62
     0
 10
45.8570886908298
 20
30.44637490127563
 30
0.0
  0
VERTEX
  5
1B3
  8
기본값
 62
     0
 10
45.80213807511383
 20
30.47225197281652
 30
0.0
  0
VERTEX
  5
1B4
  8
기본값
 62
     0
 10
45.74679475282881
 20
30.49704722953584
 30
0.0
  0
VERTEX
  5
1B5
  8
기본값
 62
     0
 10
45.69106627559715
 20
30.52076437255621
 30
0.0
  0
VERTEX
  5
1B6
  8
기본값
 62
     0
 10
45.63496019504123
 20
30.54340710300021
 30
0.0
  0
VERTEX
  5
1B7
  8
기본값
 62
     0
 10
45.57848406278345
 20
30.56497912199047
 30
0.0
  0
VERTEX
  5
1B8
  8
기본값
 62
     0
 10
45.5216454304462
 20
30.58548413064957
 30
0.0
  0
VERTEX
  5
1B9
  8
기본값
 62
     0
 10
45.46445184965187
 20
30.60492583010011
 30
0.0
  0
VERTEX
  5
1BA
  8
기본값
 62
     0
 10
45.40691087202284
 20
30.62330792146471
 30
0.0
  0
VERTEX
  5
1BB
  8
기본값
 62
     0
 10
45.34903004918151
 20
30.64063410586596
 30
0.0
  0
VERTEX
  5
1BC
  8
기본값
 62
     0
 10
45.29081693275027
 20
30.65690808442645
 30
0.0
  0
VERTEX
  5
1BD
  8
기본값
 62
     0
 10
45.23227907435152
 20
30.67213355826881
 30
0.0
  0
VERTEX
  5
1BE
  8
기본값
 62
     0
 10
45.17342402560764
 20
30.68631422851562
 30
0.0
  0
VERTEX
  5
1BF
  8
기본값
 62
     0
 10
45.11425933814101
 20
30.6994537962895
 30
0.0
  0
VERTEX
  5
1C0
  8
기본값
 62
     0
 10
45.05479256357405
 20
30.71155596271303
 30
0.0
  0
VERTEX
  5
1C1
  8
기본값
 62
     0
 10
44.99503125352912
 20
30.72262442890882
 30
0.0
  0
VERTEX
  5
1C2
  8
기본값
 62
     0
 10
44.93498295962863
 20
30.73266289599948
 30
0.0
  0
VERTEX
  5
1C3
  8
기본값
 62
     0
 10
44.81405562675052
 20
30.7496646373558
 30
0.0
  0
VERTEX
  5
1C4
  8
기본값
 62
     0
 10
44.69207097791883
 20
30.7625907957628
 30
0.0
  0
VERTEX
  5
1C5
  8
기본값
 62
     0
 10
44.5690894261127
 20
30.7714709802013
 30
0.0
  0
VERTEX
  5
1C6
  8
기본값
 62
     0
 10
44.44517138431125
 20
30.7763347996521
 30
0.0
  0
VERTEX
  5
1C7
  8
기본값
 62
     0
 10
44.3203772654936
 20
30.77721186309602
 30
0.0
  0
VERTEX
  5
1C8
  8
기본값
 62
     0
 10
44.19476748263888
 20
30.77413177951389
 30
0.0
  0
VERTEX
  5
1C9
  8
기본값
 62
     0
 10
44.06840244872622
 20
30.7671241578865
 30
0.0
  0
VERTEX
  5
1CA
  8
기본값
 62
     0
 10
43.94134257673475
 20
30.75621860719469
 30
0.0
  0
VERTEX
  5
1CB
  8
기본값
 62
     0
 10
43.81364827964358
 20
30.74144473641925
 30
0.0
  0
VERTEX
  5
1CC
  8
기본값
 62
     0
 10
43.68537997043185
 20
30.72283215454101
 30
0.0
  0
VERTEX
  5
1CD
  8
기본값
 62
     0
 10
43.55659806207869
 20
30.70041047054079
 30
0.0
  0
VERTEX
  5
1CE
  8
기본값
 62
     0
 10
43.42736296756321
 20
30.67420929339939
 30
0.0
  0
VERTEX
  5
1CF
  8
기본값
 62
     0
 10
43.29773509986453
 20
30.64425823209763
 30
0.0
  0
VERTEX
  5
1D0
  8
기본값
 62
     0
 10
43.1677748719618
 20
30.61058689561632
 30
0.0
  0
VERTEX
  5
1D1
  8
기본값
 62
     0
 10
43.03754269683413
 20
30.57322489293628
 30
0.0
  0
VERTEX
  5
1D2
  8
기본값
 62
     0
 10
42.90709898746066
 20
30.53220183303833
 30
0.0
  0
VERTEX
  5
1D3
  8
기본값
 62
     0
 10
42.7765041568205
 20
30.48754732490328
 30
0.0
  0
VERTEX
  5
1D4
  8
기본값
 62
     0
 10
42.64581861789279
 20
30.43929097751194
 30
0.0
  0
VERTEX
  5
1D5
  8
기본값
 62
     0
 10
42.51510278365664
 20
30.38746239984513
 30
0.0
  0
VERTEX
  5
1D6
  8
기본값
 62
     0
 10
42.38441706709119
 20
30.33209120088365
 30
0.0
  0
VERTEX
  5
1D7
  8
기본값
 62
     0
 10
42.25382188117557
 20
30.27320698960834
 30
0.0
  0
VERTEX
  5
1D8
  8
기본값
 62
     0
 10
42.12337763888888
 20
30.210839375
 30
0.0
  0
VERTEX
  5
1D9
  8
기본값
 62
     0
 10
41.99314475321027
 20
30.14501796603945
 30
0.0
  0
VERTEX
  5
1DA
  8
기본값
 62
     0
 10
41.86318363711886
 20
30.07577237170749
 30
0.0
  0
VERTEX
  5
1DB
  8
기본값
 62
     0
 10
41.73355470359378
 20
30.00313220098495
 30
0.0
  0
VERTEX
  5
1DC
  8
기본값
 62
     0
 10
41.60431836561413
 20
29.92712706285265
 30
0.0
  0
VERTEX
  5
1DD
  8
기본값
 62
     0
 10
41.47553503615909
 20
29.84778656629139
 30
0.0
  0
VERTEX
  5
1DE
  8
기본값
 62
     0
 10
41.34726512820772
 20
29.76514032028198
 30
0.0
  0
VERTEX
  5
1DF
  8
기본값
 62
     0
 10
41.2195690547392
 20
29.67921793380525
 30
0.0
  0
VERTEX
  5
1E0
  8
기본값
 62
     0
 10
41.09250722873263
 20
29.59004901584201
 30
0.0
  0
VERTEX
  5
1E1
  8
기본값
 62
     0
 10
40.96614006316715
 20
29.49766317537308
 30
0.0
  0
VERTEX
  5
1E2
  8
기본값
 62
     0
 10
40.84052797102186
 20
29.40209002137926
 30
0.0
  0
VERTEX
  5
1E3
  8
기본값
 62
     0
 10
40.7157313652759
 20
29.30335916284137
 30
0.0
  0
VERTEX
  5
1E4
  8
기본값
 62
     0
 10
40.59181065890841
 20
29.20150020874024
 30
0.0
  0
VERTEX
  5
1E5
  8
기본값
 62
     0
 10
40.4688262648985
 20
29.09654276805666
 30
0.0
  0
VERTEX
  5
1E6
  8
기본값
 62
     0
 10
40.3468385962253
 20
28.98851644977146
 30
0.0
  0
VERTEX
  5
1E7
  8
기본값
 62
     0
 10
40.22590806586795
 20
28.87745086286545
 30
0.0
  0
VERTEX
  5
1E8
  8
기본값
 62
     0
 10
40.10609508680555
 20
28.76337561631944
 30
0.0
  0
VERTEX
  5
1E9
  8
기본값
 62
     0
 10
39.98746007201724
 20
28.64632031911426
 30
0.0
  0
VERTEX
  5
1EA
  8
기본값
 62
     0
 10
39.87006343448215
 20
28.52631458023071
 30
0.0
  0
VERTEX
  5
1EB
  8
기본값
 62
     0
 10
39.75396558717939
 20
28.40338800864961
 30
0.0
  0
VERTEX
  5
1EC
  8
기본값
 62
     0
 10
39.6392269430881
 20
28.27757021335178
 30
0.0
  0
VERTEX
  5
1ED
  8
기본값
 62
     0
 10
39.41406891645643
 20
28.01737938752916
 30
0.0
  0
VERTEX
  5
1EE
  8
기본값
 62
     0
 10
39.19507265842013
 20
27.74597897460938
 30
0.0
  0
VERTEX
  5
1EF
  8
기본값
 62
     0
 10
38.98272147281222
 20
27.46360584643894
 30
0.0
  0
VERTEX
  5
1F0
  8
기본값
 62
     0
 10
38.77749866346571
 20
27.17049687486437
 30
0.0
  0
VERTEX
  5
1F1
  8
기본값
 62
     0
 10
38.5798875342136
 20
26.86688893173218
 30
0.0
  0
VERTEX
  5
1F2
  8
기본값
 62
     0
 10
38.39037138888889
 20
26.55301888888889
 30
0.0
  0
VERTEX
  5
1F3
  8
기본값
 62
     0
 10
38.21205536741468
 20
26.23389980166966
 30
0.0
  0
VERTEX
  5
1F4
  8
기본값
 62
     0
 10
38.04664224053277
 20
25.9128259242079
 30
0.0
  0
VERTEX
  5
1F5
  8
기본값
 62
     0
 10
37.89409925830417
 20
25.59033327029758
 30
0.0
  0
VERTEX
  5
1F6
  8
기본값
 62
     0
 10
37.75439367078993
 20
25.26695785373264
 30
0.0
  0
VERTEX
  5
1F7
  8
기본값
 62
     0
 10
37.62749272805108
 20
24.94323568830703
 30
0.0
  0
VERTEX
  5
1F8
  8
기본값
 62
     0
 10
37.51336368014866
 20
24.61970278781467
 30
0.0
  0
VERTEX
  5
1F9
  8
기본값
 62
     0
 10
37.46107838240518
 20
24.45817481622908
 30
0.0
  0
VERTEX
  5
1FA
  8
기본값
 62
     0
 10
37.41197377714369
 20
24.29689516604954
 30
0.0
  0
VERTEX
  5
1FB
  8
기본값
 62
     0
 10
37.36604577062182
 20
24.13593083900028
 30
0.0
  0
VERTEX
  5
1FC
  8
기본값
 62
     0
 10
37.32329026909722
 20
23.97534883680556
 30
0.0
  0
VERTEX
  5
1FD
  8
기본값
 62
     0
 10
37.28370317882749
 20
23.81521616118961
 30
0.0
  0
VERTEX
  5
1FE
  8
기본값
 62
     0
 10
37.24728040607027
 20
23.65559981387668
 30
0.0
  0
VERTEX
  5
1FF
  8
기본값
 62
     0
 10
37.21401785708321
 20
23.49656679659102
 30
0.0
  0
VERTEX
  5
200
  8
기본값
 62
     0
 10
37.18391143812391
 20
23.33818411105686
 30
0.0
  0
VERTEX
  5
201
  8
기본값
 62
     0
 10
37.15695705545001
 20
23.18051875899845
 30
0.0
  0
VERTEX
  5
202
  8
기본값
 62
     0
 10
37.13315061531914
 20
23.02363774214003
 30
0.0
  0
VERTEX
  5
203
  8
기본값
 62
     0
 10
37.11248802398893
 20
22.86760806220585
 30
0.0
  0
VERTEX
  5
204
  8
기본값
 62
     0
 10
37.09496518771701
 20
22.71249672092014
 30
0.0
  0
VERTEX
  5
205
  8
기본값
 62
     0
 10
37.08057801276101
 20
22.55837072000716
 30
0.0
  0
VERTEX
  5
206
  8
기본값
 62
     0
 10
37.06932240537855
 20
22.40529706119113
 30
0.0
  0
VERTEX
  5
207
  8
기본값
 62
     0
 10
37.06119427182727
 20
22.25334274619632
 30
0.0
  0
VERTEX
  5
208
  8
기본값
 62
     0
 10
37.0561895183648
 20
22.10257477674696
 30
0.0
  0
VERTEX
  5
209
  8
기본값
 62
     0
 10
37.05430405124876
 20
21.95306015456729
 30
0.0
  0
VERTEX
  5
20A
  8
기본값
 62
     0
 10
37.05553377673678
 20
21.80486588138156
 30
0.0
  0
VERTEX
  5
20B
  8
기본값
 62
     0
 10
37.05987460108651
 20
21.65805895891402
 30
0.0
  0
VERTEX
  5
20C
  8
기본값
 62
     0
 10
37.06732243055555
 20
21.51270638888889
 30
0.0
  0
VERTEX
  5
20D
  8
기본값
 62
     0
 10
37.07787317140154
 20
21.36887517303043
 30
0.0
  0
VERTEX
  5
20E
  8
기본값
 62
     0
 10
37.09152272988213
 20
21.22663231306288
 30
0.0
  0
VERTEX
  5
20F
  8
기본값
 62
     0
 10
37.10826701225493
 20
21.08604481071048
 30
0.0
  0
VERTEX
  5
210
  8
기본값
 62
     0
 10
37.12810192477755
 20
20.94717966769748
 30
0.0
  0
VERTEX
  5
211
  8
기본값
 62
     0
 10
37.15102337370767
 20
20.81010388574812
 30
0.0
  0
VERTEX
  5
212
  8
기본값
 62
     0
 10
37.17702726530287
 20
20.67488446658664
 30
0.0
  0
VERTEX
  5
213
  8
기본값
 62
     0
 10
37.2061095058208
 20
20.54158841193729
 30
0.0
  0
VERTEX
  5
214
  8
기본값
 62
     0
 10
37.23826600151909
 20
20.41028272352431
 30
0.0
  0
VERTEX
  5
215
  8
기본값
 62
     0
 10
37.27349265865537
 20
20.28103440307194
 30
0.0
  0
VERTEX
  5
216
  8
기본값
 62
     0
 10
37.31178538348727
 20
20.15391045230442
 30
0.0
  0
VERTEX
  5
217
  8
기본값
 62
     0
 10
37.35314008227242
 20
20.028977872946
 30
0.0
  0
VERTEX
  5
218
  8
기본값
 62
     0
 10
37.39755266126843
 20
19.90630366672092
 30
0.0
  0
VERTEX
  5
219
  8
기본값
 62
     0
 10
37.44501902673296
 20
19.78595483535343
 30
0.0
  0
VERTEX
  5
21A
  8
기본값
 62
     0
 10
37.49553508492363
 20
19.66799838056777
 30
0.0
  0
VERTEX
  5
21B
  8
기본값
 62
     0
 10
37.54909674209806
 20
19.55250130408817
 30
0.0
  0
VERTEX
  5
21C
  8
기본값
 62
     0
 10
37.60569990451388
 20
19.43953060763889
 30
0.0
  0
VERTEX
  5
21D
  8
기본값
 62
     0
 10
37.66534047842873
 20
19.32915329294417
 30
0.0
  0
VERTEX
  5
21E
  8
기본값
 62
     0
 10
37.72801437010023
 20
19.22143636172824
 30
0.0
  0
VERTEX
  5
21F
  8
기본값
 62
     0
 10
37.79371748578602
 20
19.11644681571537
 30
0.0
  0
VERTEX
  5
220
  8
기본값
 62
     0
 10
37.8624457317437
 20
19.01425165662977
 30
0.0
  0
VERTEX
  5
221
  8
기본값
 62
     0
 10
37.93419501423094
 20
18.91491788619571
 30
0.0
  0
VERTEX
  5
222
  8
기본값
 62
     0
 10
38.00896123950534
 20
18.81851250613742
 30
0.0
  0
VERTEX
  5
223
  8
기본값
 62
     0
 10
38.04747442639324
 20
18.77142890053802
 30
0.0
  0
VERTEX
  5
224
  8
기본값
 62
     0
 10
38.08674031382455
 20
18.72510251817915
 30
0.0
  0
VERTEX
  5
225
  8
기본값
 62
     0
 10
38.12675839008146
 20
18.67954173427635
 30
0.0
  0
VERTEX
  5
226
  8
기본값
 62
     0
 10
38.16752814344618
 20
18.63475492404514
 30
0.0
  0
VERTEX
  5
227
  8
기본값
 62
     0
 10
38.20904906220091
 20
18.59075046270105
 30
0.0
  0
VERTEX
  5
228
  8
기본값
 62
     0
 10
38.25132063462787
 20
18.54753672545963
 30
0.0
  0
VERTEX
  5
229
  8
기본값
 62
     0
 10
38.29434234900924
 20
18.50512208753639
 30
0.0
  0
VERTEX
  5
22A
  8
기본값
 62
     0
 10
38.33811369362725
 20
18.46351492414686
 30
0.0
  0
VERTEX
  5
22B
  8
기본값
 62
     0
 10
38.38263415676408
 20
18.42272361050659
 30
0.0
  0
VERTEX
  5
22C
  8
기본값
 62
     0
 10
38.42790322670194
 20
18.38275652183109
 30
0.0
  0
VERTEX
  5
22D
  8
기본값
 62
     0
 10
38.47392039172304
 20
18.3436220333359
 30
0.0
  0
VERTEX
  5
22E
  8
기본값
 62
     0
 10
38.52068514010959
 20
18.30532852023654
 30
0.0
  0
VERTEX
  5
22F
  8
기본값
 62
     0
 10
38.56819696014378
 20
18.26788435774856
 30
0.0
  0
VERTEX
  5
230
  8
기본값
 62
     0
 10
38.61645534010781
 20
18.23129792108747
 30
0.0
  0
VERTEX
  5
231
  8
기본값
 62
     0
 10
38.6654597682839
 20
18.19557758546882
 30
0.0
  0
VERTEX
  5
232
  8
기본값
 62
     0
 10
38.71520973295424
 20
18.16073172610812
 30
0.0
  0
VERTEX
  5
233
  8
기본값
 62
     0
 10
38.76570472240104
 20
18.12676871822092
 30
0.0
  0
VERTEX
  5
234
  8
기본값
 62
     0
 10
38.81694422490649
 20
18.09369693702274
 30
0.0
  0
VERTEX
  5
235
  8
기본값
 62
     0
 10
38.86892772875282
 20
18.06152475772911
 30
0.0
  0
VERTEX
  5
236
  8
기본값
 62
     0
 10
38.92165472222221
 20
18.03026055555556
 30
0.0
  0
VERTEX
  5
237
  8
기본값
 62
     0
 10
38.97487599336492
 20
17.99978136733982
 30
0.0
  0
VERTEX
  5
238
  8
기본값
 62
     0
 10
39.02851955078761
 20
17.97040264187071
 30
0.0
  0
VERTEX
  5
239
  8
기본값
 62
     0
 10
39.0825778620447
 20
17.94212064572785
 30
0.0
  0
VERTEX
  5
23A
  8
기본값
 62
     0
 10
39.13704339469061
 20
17.91493164549086
 30
0.0
  0
VERTEX
  5
23B
  8
기본값
 62
     0
 10
39.19190861627975
 20
17.88883190773938
 30
0.0
  0
VERTEX
  5
23C
  8
기본값
 62
     0
 10
39.24716599436654
 20
17.86381769905302
 30
0.0
  0
VERTEX
  5
23D
  8
기본값
 62
     0
 10
39.30280799650536
 20
17.83988528601143
 30
0.0
  0
VERTEX
  5
23E
  8
기본값
 62
     0
 10
39.35882709025064
 20
17.81703093519423
 30
0.0
  0
VERTEX
  5
23F
  8
기본값
 62
     0
 10
39.41521574315681
 20
17.79525091318104
 30
0.0
  0
VERTEX
  5
240
  8
기본값
 62
     0
 10
39.47196642277824
 20
17.7745414865515
 30
0.0
  0
VERTEX
  5
241
  8
기본값
 62
     0
 10
39.52907159666935
 20
17.75489892188522
 30
0.0
  0
VERTEX
  5
242
  8
기본값
 62
     0
 10
39.58652373238457
 20
17.73631948576185
 30
0.0
  0
VERTEX
  5
243
  8
기본값
 62
     0
 10
39.6443152974783
 20
17.71879944476101
 30
0.0
  0
VERTEX
  5
244
  8
기본값
 62
     0
 10
39.70243875950496
 20
17.70233506546232
 30
0.0
  0
VERTEX
  5
245
  8
기본값
 62
     0
 10
39.76088658601893
 20
17.68692261444542
 30
0.0
  0
VERTEX
  5
246
  8
기본값
 62
     0
 10
39.81965124457465
 20
17.67255835828993
 30
0.0
  0
VERTEX
  5
247
  8
기본값
 62
     0
 10
39.87872520272652
 20
17.65923856357548
 30
0.0
  0
VERTEX
  5
248
  8
기본값
 62
     0
 10
39.93810092802895
 20
17.6469594968817
 30
0.0
  0
VERTEX
  5
249
  8
기본값
 62
     0
 10
39.99777088803636
 20
17.63571742478821
 30
0.0
  0
VERTEX
  5
24A
  8
기본값
 62
     0
 10
40.05772755030314
 20
17.62550861387465
 30
0.0
  0
VERTEX
  5
24B
  8
기본값
 62
     0
 10
40.1784708518325
 20
17.60817584190581
 30
0.0
  0
VERTEX
  5
24C
  8
기본값
 62
     0
 10
40.3002705730523
 20
17.5949313136122
 30
0.0
  0
VERTEX
  5
24D
  8
기본값
 62
     0
 10
40.42306645439784
 20
17.58574516163085
 30
0.0
  0
VERTEX
  5
24E
  8
기본값
 62
     0
 10
40.54679823630438
 20
17.58058751859877
 30
0.0
  0
VERTEX
  5
24F
  8
기본값
 62
     0
 10
40.67140565920722
 20
17.579428517153
 30
0.0
  0
VERTEX
  5
250
  8
기본값
 62
     0
 10
40.79682846354166
 20
17.58223828993056
 30
0.0
  0
VERTEX
  5
251
  8
기본값
 62
     0
 10
40.92300638974295
 20
17.58898696956847
 30
0.0
  0
VERTEX
  5
252
  8
기본값
 62
     0
 10
41.04987917824639
 20
17.59964468870375
 30
0.0
  0
VERTEX
  5
253
  8
기본값
 62
     0
 10
41.17738656948724
 20
17.61418157997343
 30
0.0
  0
VERTEX
  5
254
  8
기본값
 62
     0
 10
41.30546830390081
 20
17.63256777601454
 30
0.0
  0
VERTEX
  5
255
  8
기본값
 62
     0
 10
41.43406412192238
 20
17.65477340946409
 30
0.0
  0
VERTEX
  5
256
  8
기본값
 62
     0
 10
41.56311376398722
 20
17.68076861295912
 30
0.0
  0
VERTEX
  5
257
  8
기본값
 62
     0
 10
41.6925569705306
 20
17.71052351913664
 30
0.0
  0
VERTEX
  5
258
  8
기본값
 62
     0
 10
41.82233348198784
 20
17.74400826063368
 30
0.0
  0
VERTEX
  5
259
  8
기본값
 62
     0
 10
41.9523830387942
 20
17.78119297008727
 30
0.0
  0
VERTEX
  5
25A
  8
기본값
 62
     0
 10
42.08264538138495
 20
17.82204778013442
 30
0.0
  0
VERTEX
  5
25B
  8
기본값
 62
     0
 10
42.21306025019538
 20
17.86654282341215
 30
0.0
  0
VERTEX
  5
25C
  8
기본값
 62
     0
 10
42.3435673856608
 20
17.91464823255751
 30
0.0
  0
VERTEX
  5
25D
  8
기본값
 62
     0
 10
42.47410652821645
 20
17.96633414020751
 30
0.0
  0
VERTEX
  5
25E
  8
기본값
 62
     0
 10
42.60461741829765
 20
18.02157067899916
 30
0.0
  0
VERTEX
  5
25F
  8
기본값
 62
     0
 10
42.73503979633966
 20
18.0803279815695
 30
0.0
  0
VERTEX
  5
260
  8
기본값
 62
     0
 10
42.86531340277777
 20
18.14257618055556
 30
0.0
  0
VERTEX
  5
261
  8
기본값
 62
     0
 10
42.99537797804726
 20
18.20828540859434
 30
0.0
  0
VERTEX
  5
262
  8
기본값
 62
     0
 10
43.12517326258342
 20
18.27742579832289
 30
0.0
  0
VERTEX
  5
263
  8
기본값
 62
     0
 10
43.25463899682151
 20
18.34996748237822
 30
0.0
  0
VERTEX
  5
264
  8
기본값
 62
     0
 10
43.38371492119683
 20
18.42588059339735
 30
0.0
  0
VERTEX
  5
265
  8
기본값
 62
     0
 10
43.51234077614466
 20
18.50513526401732
 30
0.0
  0
VERTEX
  5
266
  8
기본값
 62
     0
 10
43.64045630210029
 20
18.58770162687514
 30
0.0
  0
VERTEX
  5
267
  8
기본값
 62
     0
 10
43.76800123949899
 20
18.67354981460783
 30
0.0
  0
VERTEX
  5
268
  8
기본값
 62
     0
 10
43.89491532877604
 20
18.76264995985243
 30
0.0
  0
VERTEX
  5
269
  8
기본값
 62
     0
 10
44.02113831036673
 20
18.85497219524596
 30
0.0
  0
VERTEX
  5
26A
  8
기본값
 62
     0
 10
44.14660992470634
 20
18.95048665342543
 30
0.0
  0
VERTEX
  5
26B
  8
기본값
 62
     0
 10
44.27126991223017
 20
19.04916346702788
 30
0.0
  0
VERTEX
  5
26C
  8
기본값
 62
     0
 10
44.39505801337347
 20
19.15097276869032
 30
0.0
  0
VERTEX
  5
26D
  8
기본값
 62
     0
 10
44.51791396857155
 20
19.25588469104979
 30
0.0
  0
VERTEX
  5
26E
  8
기본값
 62
     0
 10
44.63977751825968
 20
19.3638693667433
 30
0.0
  0
VERTEX
  5
26F
  8
기본값
 62
     0
 10
44.76058840287314
 20
19.47489692840788
 30
0.0
  0
VERTEX
  5
270
  8
기본값
 62
     0
 10
44.88028636284722
 20
19.58893750868056
 30
0.0
  0
VERTEX
  5
271
  8
기본값
 62
     0
 10
44.9988111386172
 20
19.70596124019835
 30
0.0
  0
VERTEX
  5
272
  8
기본값
 62
     0
 10
45.11610247061834
 20
19.82593825559828
 30
0.0
  0
VERTEX
  5
273
  8
기본값
 62
     0
 10
45.23210009928597
 20
19.94883868751738
 30
0.0
  0
VERTEX
  5
274
  8
기본값
 62
     0
 10
45.34674376505534
 20
20.07463266859266
 30
0.0
  0
VERTEX
  5
275
  8
기본값
 62
     0
 10
45.57172816964042
 20
20.3347818087599
 30
0.0
  0
VERTEX
  5
276
  8
기본값
 62
     0
 10
45.7905736078559
 20
20.60614673719618
 30
0.0
  0
VERTEX
  5
277
  8
기본값
 62
     0
 10
46.002798003184
 20
20.8884885149977
 30
0.0
  0
VERTEX
  5
278
  8
기본값
 62
     0
 10
46.20791927910698
 20
21.18156820326064
 30
0.0
  0
VERTEX
  5
279
  8
기본값
 62
     0
 10
46.40545535910711
 20
21.48514686308119
 30
0.0
  0
VERTEX
  5
27A
  8
기본값
 62
     0
 10
46.59492416666666
 20
21.79898555555556
 30
0.0
 42
0.0593056412570681
  0
VERTEX
  5
27B
  8
기본값
 62
     0
 10
47.56647416666667
 20
24.03136333333333
 30
0.0
  0
VERTEX
  5
27C
  8
기본값
 62
     0
 10
50.22359638888888
 20
25.56735777777778
 30
0.0
  0
VERTEX
  5
27D
  8
기본값
 62
     0
 10
50.22359638888888
 20
19.47982444444444
 30
0.0
  0
VERTEX
  5
27E
  8
기본값
 62
     0
 10
35.04180472222222
 20
10.72529111111111
 30
0.0
  0
VERTEX
  5
27F
  8
기본값
 62
     0
 10
35.04180472222222
 20
8.695054999999996
 30
0.0
 42
0.4039981836527779
  0
VERTEX
  5
280
  8
기본값
 62
     0
 10
54.34016027777776
 20
28.67921055555556
 30
0.0
 42
0.1238525492799397
  0
VERTEX
  5
281
  8
기본값
 62
     0
 10
51.98184083333333
 20
38.07227166666667
 30
0.0
  0
SEQEND
  5
282
  8
기본값
 62
     0
  0
POLYLINE
  5
283
  8
기본값
 62
     0
 66
     1
 10
0.0
 20
0.0
 30
0.0
  0
VERTEX
  5
284
  8
기본값
 62
     0
 10
19.18539611111111
 20
38.20749138888889
 30
0.0
  0
VERTEX
  5
285
  8
기본값
 62
     0
 10
23.92426
 20
40.93199416666667
 30
0.0
  0
VERTEX
  5
286
  8
기본값
 62
     0
 10
26.95885444444445
 20
39.17374972222222
 30
0.0
 42
0.0820700536928779
  0
VERTEX
  5
287
  8
기본값
 62
     0
 10
26.78987388888889
 20
38.15845527777778
 30
0.0
  0
VERTEX
  5
288
  8
기본값
 62
     0
 10
26.79045563632541
 20
38.09717937086528
 30
0.0
  0
VERTEX
  5
289
  8
기본값
 62
     0
 10
26.79219622775607
 20
38.03608836061265
 30
0.0
  0
VERTEX
  5
28A
  8
기본값
 62
     0
 10
26.79508868686252
 20
37.97518692212211
 30
0.0
  0
VERTEX
  5
28B
  8
기본값
 62
     0
 10
26.79912603732639
 20
37.91447973049587
 30
0.0
  0
VERTEX
  5
28C
  8
기본값
 62
     0
 10
26.80430130282932
 20
37.85397146083619
 30
0.0
  0
VERTEX
  5
28D
  8
기본값
 62
     0
 10
26.81060750705295
 20
37.7936667882453
 30
0.0
  0
VERTEX
  5
28E
  8
기본값
 62
     0
 10
26.81803767367893
 20
37.73357038782543
 30
0.0
  0
VERTEX
  5
28F
  8
기본값
 62
     0
 10
26.82658482638889
 20
37.67368693467881
 30
0.0
  0
VERTEX
  5
290
  8
기본값
 62
     0
 10
26.83624198886448
 20
37.61402110390767
 30
0.0
  0
VERTEX
  5
291
  8
기본값
 62
     0
 10
26.84700218478732
 20
37.55457757061427
 30
0.0
  0
VERTEX
  5
292
  8
기본값
 62
     0
 10
26.85885843783908
 20
37.49536100990083
 30
0.0
  0
VERTEX
  5
293
  8
기본값
 62
     0
 10
26.87180377170139
 20
37.43637609686957
 30
0.0
  0
VERTEX
  5
294
  8
기본값
 62
     0
 10
26.88583121005588
 20
37.37762750662273
 30
0.0
  0
VERTEX
  5
295
  8
기본값
 62
     0
 10
26.9009337765842
 20
37.31911991426256
 30
0.0
  0
VERTEX
  5
296
  8
기본값
 62
     0
 10
26.91710449496799
 20
37.26085799489127
 30
0.0
  0
VERTEX
  5
297
  8
기본값
 62
     0
 10
26.93433638888889
 20
37.20284642361111
 30
0.0
  0
VERTEX
  5
298
  8
기본값
 62
     0
 10
26.95262248202854
 20
37.14508987552431
 30
0.0
  0
VERTEX
  5
299
  8
기본값
 62
     0
 10
26.97195579806857
 20
37.0875930257331
 30
0.0
  0
VERTEX
  5
29A
  8
기본값
 62
     0
 10
26.99232936069065
 20
37.03036054933972
 30
0.0
  0
VERTEX
  5
29B
  8
기본값
 62
     0
 10
27.01373619357639
 20
36.9733971214464
 30
0.0
  0
VERTEX
  5
29C
  8
기본값
 62
     0
 10
27.05962176486545
 20
36.86029611156887
 30
0.0
  0
VERTEX
  5
29D
  8
기본값
 62
     0
 10
27.10955670138889
 20
36.74832739691839
 30
0.0
  0
VERTEX
  5
29E
  8
기본값
 62
     0
 10
27.16348519259983
 20
36.63752837831284
 30
0.0
  0
VERTEX
  5
29F
  8
기본값
 62
     0
 10
27.22135142795139
 20
36.52793645657008
 30
0.0
  0
VERTEX
  5
2A0
  8
기본값
 62
     0
 10
27.2830995968967
 20
36.41958903250799
 30
0.0
  0
VERTEX
  5
2A1
  8
기본값
 62
     0
 10
27.34867388888889
 20
36.31252350694444
 30
0.0
  0
VERTEX
  5
2A2
  8
기본값
 62
     0
 10
27.41801849338108
 20
36.20677728069728
 30
0.0
  0
VERTEX
  5
2A3
  8
기본값
 62
     0
 10
27.49107759982639
 20
36.10238775458441
 30
0.0
  0
VERTEX
  5
2A4
  8
기본값
 62
     0
 10
27.56779539767795
 20
35.99939232942368
 30
0.0
  0
VERTEX
  5
2A5
  8
기본값
 62
     0
 10
27.64811607638889
 20
35.89782840603297
 30
0.0
  0
VERTEX
  5
2A6
  8
기본값
 62
     0
 10
27.73198382541232
 20
35.79773338523016
 30
0.0
  0
VERTEX
  5
2A7
  8
기본값
 62
     0
 10
27.81934283420139
 20
35.69914466783311
 30
0.0
  0
VERTEX
  5
2A8
  8
기본값
 62
     0
 10
27.9101372922092
 20
35.60209965465969
 30
0.0
  0
VERTEX
  5
2A9
  8
기본값
 62
     0
 10
28.00431138888889
 20
35.50663574652777
 30
0.0
  0
VERTEX
  5
2AA
  8
기본값
 62
     0
 10
28.10180931369358
 20
35.41279034425523
 30
0.0
  0
VERTEX
  5
2AB
  8
기본값
 62
     0
 10
28.20257525607639
 20
35.32060084865994
 30
0.0
  0
VERTEX
  5
2AC
  8
기본값
 62
     0
 10
28.30655340549045
 20
35.23010466055975
 30
0.0
  0
VERTEX
  5
2AD
  8
기본값
 62
     0
 10
28.41368795138889
 20
35.14133918077256
 30
0.0
  0
VERTEX
  5
2AE
  8
기본값
 62
     0
 10
28.52392308322482
 20
35.05434181011623
 30
0.0
  0
VERTEX
  5
2AF
  8
기본값
 62
     0
 10
28.63720299045139
 20
34.96914994940863
 30
0.0
  0
VERTEX
  5
2B0
  8
기본값
 62
     0
 10
28.7534718625217
 20
34.88580099946763
 30
0.0
  0
VERTEX
  5
2B1
  8
기본값
 62
     0
 10
28.87267388888889
 20
34.8043323611111
 30
0.0
  0
VERTEX
  5
2B2
  8
기본값
 62
     0
 10
28.99475325900607
 20
34.72478143515691
 30
0.0
  0
VERTEX
  5
2B3
  8
기본값
 62
     0
 10
29.11965416232638
 20
34.64718562242295
 30
0.0
  0
VERTEX
  5
2B4
  8
기본값
 62
     0
 10
29.24732078830295
 20
34.57158232372706
 30
0.0
  0
VERTEX
  5
2B5
  8
기본값
 62
     0
 10
29.37769732638888
 20
34.49800893988714
 30
0.0
  0
VERTEX
  5
2B6
  8
기본값
 62
     0
 10
29.51072796603732
 20
34.42650287172104
 30
0.0
  0
VERTEX
  5
2B7
  8
기본값
 62
     0
 10
29.64635689670138
 20
34.35710152004665
 30
0.0
  0
VERTEX
  5
2B8
  8
기본값
 62
     0
 10
29.78452830783419
 20
34.28984228568182
 30
0.0
  0
VERTEX
  5
2B9
  8
기본값
 62
     0
 10
29.92518638888888
 20
34.22476256944444
 30
0.0
  0
VERTEX
  5
2BA
  8
기본값
 62
     0
 10
30.06827532931857
 20
34.16189977215236
 30
0.0
  0
VERTEX
  5
2BB
  8
기본값
 62
     0
 10
30.21373931857638
 20
34.10129129462346
 30
0.0
  0
VERTEX
  5
2BC
  8
기본값
 62
     0
 10
30.36152254611545
 20
34.04297453767563
 30
0.0
  0
VERTEX
  5
2BD
  8
기본값
 62
     0
 10
30.51156920138888
 20
33.98698690212672
 30
0.0
  0
VERTEX
  5
2BE
  8
기본값
 62
     0
 10
30.66382347384982
 20
33.93336578879461
 30
0.0
  0
VERTEX
  5
2BF
  8
기본값
 62
     0
 10
30.81822955295138
 20
33.88214859849717
 30
0.0
  0
VERTEX
  5
2C0
  8
기본값
 62
     0
 10
30.97473162814669
 20
33.83337273205226
 30
0.0
  0
VERTEX
  5
2C1
  8
기본값
 62
     0
 10
31.13327388888888
 20
33.78707559027777
 30
0.0
  0
VERTEX
  5
2C2
  8
기본값
 62
     0
 10
31.29380052463107
 20
33.74329457399155
 30
0.0
  0
VERTEX
  5
2C3
  8
기본값
 62
     0
 10
31.45625572482638
 20
33.70206708401149
 30
0.0
  0
VERTEX
  5
2C4
  8
기본값
 62
     0
 10
31.62058367892794
 20
33.66343052115545
 30
0.0
  0
VERTEX
  5
2C5
  8
기본값
 62
     0
 10
31.78672857638888
 20
33.62742228624131
 30
0.0
  0
VERTEX
  5
2C6
  8
기본값
 62
     0
 10
32.12424595920138
 20
33.56344040351019
 30
0.0
  0
VERTEX
  5
2C7
  8
기본값
 62
     0
 10
32.46836138888888
 20
33.5104206423611
 30
0.0
  0
VERTEX
  5
2C8
  8
기본값
 62
     0
 10
32.81862838107638
 20
33.46866220933702
 30
0.0
  0
VERTEX
  5
2C9
  8
기본값
 62
     0
 10
33.17460045138888
 20
33.4384643109809
 30
0.0
  0
VERTEX
  5
2CA
  8
기본값
 62
     0
 10
33.53583111545139
 20
33.42012615383572
 30
0.0
  0
VERTEX
  5
2CB
  8
기본값
 62
     0
 10
33.90187388888889
 20
33.41394694444444
 30
0.0
  0
VERTEX
  5
2CC
  8
기본값
 62
     0
 10
34.26830632415772
 20
33.42012615383572
 30
0.0
  0
VERTEX
  5
2CD
  8
기본값
 62
     0
 10
34.62991230984159
 20
33.4384643109809
 30
0.0
  0
VERTEX
  5
2CE
  8
기본값
 62
     0
 10
34.98624549075657
 20
33.46866220933702
 30
0.0
  0
VERTEX
  5
2CF
  8
기본값
 62
     0
 10
35.33685951171875
 20
33.5104206423611
 30
0.0
  0
VERTEX
  5
2D0
  8
기본값
 62
     0
 10
35.68130801754421
 20
33.56344040351019
 30
0.0
  0
VERTEX
  5
2D1
  8
기본값
 62
     0
 10
36.01914465304904
 20
33.62742228624131
 30
0.0
  0
VERTEX
  5
2D2
  8
기본값
 62
     0
 10
36.18544403343624
 20
33.66343052115545
 30
0.0
  0
VERTEX
  5
2D3
  8
기본값
 62
     0
 10
36.34992306304932
 20
33.70206708401149
 30
0.0
  0
VERTEX
  5
2D4
  8
기본값
 62
     0
 10
36.51252594749026
 20
33.74329457399155
 30
0.0
  0
VERTEX
  5
2D5
  8
기본값
 62
     0
 10
36.6731968923611
 20
33.78707559027777
 30
0.0
  0
VERTEX
  5
2D6
  8
기본값
 62
     0
 10
36.83188010326385
 20
33.83337273205226
 30
0.0
  0
VERTEX
  5
2D7
  8
기본값
 62
     0
 10
36.9885197858005
 20
33.88214859849717
 30
0.0
  0
VERTEX
  5
2D8
  8
기본값
 62
     0
 10
37.14306014557307
 20
33.93336578879461
 30
0.0
  0
VERTEX
  5
2D9
  8
기본값
 62
     0
 10
37.29544538818358
 20
33.98698690212672
 30
0.0
  0
VERTEX
  5
2DA
  8
기본값
 62
     0
 10
37.44561971923403
 20
34.04297453767563
 30
0.0
  0
VERTEX
  5
2DB
  8
기본값
 62
     0
 10
37.59352734432643
 20
34.10129129462346
 30
0.0
  0
VERTEX
  5
2DC
  8
기본값
 62
     0
 10
37.7391124690628
 20
34.16189977215236
 30
0.0
  0
VERTEX
  5
2DD
  8
기본값
 62
     0
 10
37.88231929904514
 20
34.22476256944444
 30
0.0
  0
VERTEX
  5
2DE
  8
기본값
 62
     0
 10
38.02309203987545
 20
34.28984228568182
 30
0.0
  0
VERTEX
  5
2DF
  8
기본값
 62
     0
 10
38.16137489715576
 20
34.35710152004665
 30
0.0
  0
VERTEX
  5
2E0
  8
기본값
 62
     0
 10
38.29711207648806
 20
34.42650287172104
 30
0.0
  0
VERTEX
  5
2E1
  8
기본값
 62
     0
 10
38.43024778347439
 20
34.49800893988714
 30
0.0
  0
VERTEX
  5
2E2
  8
기본값
 62
     0
 10
38.56072622371673
 20
34.57158232372706
 30
0.0
  0
VERTEX
  5
2E3
  8
기본값
 62
     0
 10
38.68849160281711
 20
34.64718562242295
 30
0.0
  0
VERTEX
  5
2E4
  8
기본값
 62
     0
 10
38.81348812637753
 20
34.72478143515691
 30
0.0
  0
VERTEX
  5
2E5
  8
기본값
 62
     0
 10
38.93566
 20
34.8043323611111
 30
0.0
  0
VERTEX
  5
2E6
  8
기본값
 62
     0
 10
39.05495142928653
 20
34.88580099946763
 30
0.0
  0
VERTEX
  5
2E7
  8
기본값
 62
     0
 10
39.17130661983914
 20
34.96914994940863
 30
0.0
  0
VERTEX
  5
2E8
  8
기본값
 62
     0
 10
39.28466977725982
 20
35.05434181011623
 30
0.0
  0
VERTEX
  5
2E9
  8
기본값
 62
     0
 10
39.39498510715061
 20
35.14133918077256
 30
0.0
  0
VERTEX
  5
2EA
  8
기본값
 62
     0
 10
39.50219681511349
 20
35.23010466055975
 30
0.0
  0
VERTEX
  5
2EB
  8
기본값
 62
     0
 10
39.60624910675048
 20
35.32060084865994
 30
0.0
  0
VERTEX
  5
2EC
  8
기본값
 62
     0
 10
39.70708618766361
 20
35.41279034425523
 30
0.0
  0
VERTEX
  5
2ED
  8
기본값
 62
     0
 10
39.80465226345486
 20
35.50663574652777
 30
0.0
  0
VERTEX
  5
2EE
  8
기본값
 62
     0
 10
39.89889153972625
 20
35.60209965465969
 30
0.0
  0
VERTEX
  5
2EF
  8
기본값
 62
     0
 10
39.9897482220798
 20
35.69914466783311
 30
0.0
  0
VERTEX
  5
2F0
  8
기본값
 62
     0
 10
40.07716651611752
 20
35.79773338523016
 30
0.0
  0
VERTEX
  5
2F1
  8
기본값
 62
     0
 10
40.1610906274414
 20
35.89782840603297
 30
0.0
  0
VERTEX
  5
2F2
  8
기본값
 62
     0
 10
40.24146476165348
 20
35.99939232942368
 30
0.0
  0
VERTEX
  5
2F3
  8
기본값
 62
     0
 10
40.31823312435574
 20
36.10238775458441
 30
0.0
  0
VERTEX
  5
2F4
  8
기본값
 62
     0
 10
40.39133992115021
 20
36.20677728069728
 30
0.0
  0
VERTEX
  5
2F5
  8
기본값
 62
     0
 10
40.46072935763889
 20
36.31252350694444
 30
0.0
  0
VERTEX
  5
2F6
  8
기본값
 62
     0
 10
40.52634563942379
 20
36.41958903250799
 30
0.0
  0
VERTEX
  5
2F7
  8
기본값
 62
     0
 10
40.58813297210693
 20
36.52793645657008
 30
0.0
  0
VERTEX
  5
2F8
  8
기본값
 62
     0
 10
40.64603556129032
 20
36.63752837831284
 30
0.0
  0
VERTEX
  5
2F9
  8
기본값
 62
     0
 10
40.69999761257596
 20
36.74832739691839
 30
0.0
  0
VERTEX
  5
2FA
  8
기본값
 62
     0
 10
40.74996333156585
 20
36.86029611156887
 30
0.0
  0
VERTEX
  5
2FB
  8
기본값
 62
     0
 10
40.79587692386203
 20
36.9733971214464
 30
0.0
  0
VERTEX
  5
2FC
  8
기본값
 62
     0
 10
40.81729673675061
 20
37.03036054933972
 30
0.0
  0
VERTEX
  5
2FD
  8
기본값
 62
     0
 10
40.8376825950665
 20
37.0875930257331
 30
0.0
  0
VERTEX
  5
2FE
  8
기본값
 62
     0
 10
40.85702752450996
 20
37.14508987552431
 30
0.0
  0
VERTEX
  5
2FF
  8
기본값
 62
     0
 10
40.87532455078125
 20
37.20284642361111
 30
0.0
  0
VERTEX
  5
300
  8
기본값
 62
     0
 10
40.89256669958062
 20
37.26085799489127
 30
0.0
  0
VERTEX
  5
301
  8
기본값
 62
     0
 10
40.90874699660831
 20
37.31911991426256
 30
0.0
  0
VERTEX
  5
302
  8
기본값
 62
     0
 10
40.92385846756459
 20
37.37762750662273
 30
0.0
  0
VERTEX
  5
303
  8
기본값
 62
     0
 10
40.93789413814969
 20
37.43637609686957
 30
0.0
  0
VERTEX
  5
304
  8
기본값
 62
     0
 10
40.95084703406387
 20
37.49536100990083
 30
0.0
  0
VERTEX
  5
305
  8
기본값
 62
     0
 10
40.96271018100738
 20
37.55457757061427
 30
0.0
  0
VERTEX
  5
306
  8
기본값
 62
     0
 10
40.97347660468049
 20
37.61402110390767
 30
0.0
  0
VERTEX
  5
307
  8
기본값
 62
     0
 10
40.98313933078342
 20
37.67368693467881
 30
0.0
  0
VERTEX
  5
308
  8
기본값
 62
     0
 10
40.99169138501644
 20
37.73357038782543
 30
0.0
  0
VERTEX
  5
309
  8
기본값
 62
     0
 10
40.9991257930798
 20
37.7936667882453
 30
0.0
  0
VERTEX
  5
30A
  8
기본값
 62
     0
 10
41.00543558067375
 20
37.85397146083619
 30
0.0
  0
VERTEX
  5
30B
  8
기본값
 62
     0
 10
41.01061377349853
 20
37.91447973049587
 30
0.0
  0
VERTEX
  5
30C
  8
기본값
 62
     0
 10
41.01465339725441
 20
37.97518692212211
 30
0.0
  0
VERTEX
  5
30D
  8
기본값
 62
     0
 10
41.01754747764163
 20
38.03608836061265
 30
0.0
  0
VERTEX
  5
30E
  8
기본값
 62
     0
 10
41.01928904036045
 20
38.09717937086528
 30
0.0
  0
VERTEX
  5
30F
  8
기본값
 62
     0
 10
41.01987111111111
 20
38.15845527777778
 30
0.0
  0
VERTEX
  5
310
  8
기본값
 62
     0
 10
41.01928904036045
 20
38.21975573183668
 30
0.0
  0
VERTEX
  5
311
  8
기본값
 62
     0
 10
41.01754747764163
 20
38.28087077751795
 30
0.0
  0
VERTEX
  5
312
  8
기본값
 62
     0
 10
41.01465339725441
 20
38.34179574476586
 30
0.0
  0
VERTEX
  5
313
  8
기본값
 62
     0
 10
41.01061377349853
 20
38.40252596352471
 30
0.0
  0
VERTEX
  5
314
  8
기본값
 62
     0
 10
41.00543558067375
 20
38.46305676373879
 30
0.0
  0
VERTEX
  5
315
  8
기본값
 62
     0
 10
40.9991257930798
 20
38.52338347535239
 30
0.0
  0
VERTEX
  5
316
  8
기본값
 62
     0
 10
40.99169138501644
 20
38.58350142830982
 30
0.0
  0
VERTEX
  5
317
  8
기본값
 62
     0
 10
40.98313933078342
 20
38.64340595255534
 30
0.0
  0
VERTEX
  5
318
  8
기본값
 62
     0
 10
40.97347660468049
 20
38.70309237803327
 30
0.0
  0
VERTEX
  5
319
  8
기본값
 62
     0
 10
40.96271018100738
 20
38.76255603468789
 30
0.0
  0
VERTEX
  5
31A
  8
기본값
 62
     0
 10
40.95084703406387
 20
38.8217922524635
 30
0.0
  0
VERTEX
  5
31B
  8
기본값
 62
     0
 10
40.93789413814969
 20
38.88079636130438
 30
0.0
  0
VERTEX
  5
31C
  8
기본값
 62
     0
 10
40.92385846756459
 20
38.93956369115485
 30
0.0
  0
VERTEX
  5
31D
  8
기본값
 62
     0
 10
40.90874699660831
 20
38.99808957195917
 30
0.0
  0
VERTEX
  5
31E
  8
기본값
 62
     0
 10
40.89256669958062
 20
39.05636933366166
 30
0.0
  0
VERTEX
  5
31F
  8
기본값
 62
     0
 10
40.87532455078125
 20
39.1143983062066
 30
0.0
  0
VERTEX
  5
320
  8
기본값
 62
     0
 10
40.85702752450996
 20
39.17217181953826
 30
0.0
  0
VERTEX
  5
321
  8
기본값
 62
     0
 10
40.8376825950665
 20
39.22968520360098
 30
0.0
  0
VERTEX
  5
322
  8
기본값
 62
     0
 10
40.81729673675061
 20
39.28693378833903
 30
0.0
  0
VERTEX
  5
323
  8
기본값
 62
     0
 10
40.79587692386203
 20
39.34391290369669
 30
0.0
  0
VERTEX
  5
324
  8
기본값
 62
     0
 10
40.74996333156585
 20
39.45704404604805
 30
0.0
  0
VERTEX
  5
325
  8
기본값
 62
     0
 10
40.69999761257596
 20
39.56904127020941
 30
0.0
  0
VERTEX
  5
326
  8
기본값
 62
     0
 10
40.64603556129032
 20
39.67986721573511
 30
0.0
  0
VERTEX
  5
327
  8
기본값
 62
     0
 10
40.58813297210693
 20
39.78948452217949
 30
0.0
  0
VERTEX
  5
328
  8
기본값
 62
     0
 10
40.52634563942379
 20
39.8978558290969
 30
0.0
  0
VERTEX
  5
329
  8
기본값
 62
     0
 10
40.46072935763889
 20
40.00494377604166
 30
0.0
  0
VERTEX
  5
32A
  8
기본값
 62
     0
 10
40.39133992115021
 20
40.11071100256812
 30
0.0
  0
VERTEX
  5
32B
  8
기본값
 62
     0
 10
40.31823312435574
 20
40.21512014823065
 30
0.0
  0
VERTEX
  5
32C
  8
기본값
 62
     0
 10
40.24146476165348
 20
40.31813385258356
 30
0.0
  0
VERTEX
  5
32D
  8
기본값
 62
     0
 10
40.1610906274414
 20
40.4197147551812
 30
0.0
  0
VERTEX
  5
32E
  8
기본값
 62
     0
 10
40.07716651611752
 20
40.5198254955779
 30
0.0
  0
VERTEX
  5
32F
  8
기본값
 62
     0
 10
39.9897482220798
 20
40.61842871332804
 30
0.0
  0
VERTEX
  5
330
  8
기본값
 62
     0
 10
39.89889153972625
 20
40.71548704798592
 30
0.0
  0
VERTEX
  5
331
  8
기본값
 62
     0
 10
39.80465226345486
 20
40.81096313910589
 30
0.0
  0
VERTEX
  5
332
  8
기본값
 62
     0
 10
39.70708618766361
 20
40.90481962624231
 30
0.0
  0
VERTEX
  5
333
  8
기본값
 62
     0
 10
39.60624910675048
 20
40.99701914894951
 30
0.0
  0
VERTEX
  5
334
  8
기본값
 62
     0
 10
39.50219681511349
 20
41.08752434678183
 30
0.0
  0
VERTEX
  5
335
  8
기본값
 62
     0
 10
39.39498510715061
 20
41.17629785929361
 30
0.0
  0
VERTEX
  5
336
  8
기본값
 62
     0
 10
39.28466977725982
 20
41.2633023260392
 30
0.0
  0
VERTEX
  5
337
  8
기본값
 62
     0
 10
39.17130661983914
 20
41.34850038657294
 30
0.0
  0
VERTEX
  5
338
  8
기본값
 62
     0
 10
39.05495142928653
 20
41.43185468044916
 30
0.0
  0
VERTEX
  5
339
  8
기본값
 62
     0
 10
38.93566
 20
41.51332784722221
 30
0.0
  0
VERTEX
  5
33A
  8
기본값
 62
     0
 10
38.81348812637753
 20
41.59288252644644
 30
0.0
  0
VERTEX
  5
33B
  8
기본값
 62
     0
 10
38.68849160281711
 20
41.67048135767617
 30
0.0
  0
VERTEX
  5
33C
  8
기본값
 62
     0
 10
38.56072622371673
 20
41.74608698046577
 30
0.0
  0
VERTEX
  5
33D
  8
기본값
 62
     0
 10
38.43024778347439
 20
41.81966203436956
 30
0.0
  0
VERTEX
  5
33E
  8
기본값
 62
     0
 10
38.29711207648806
 20
41.89116915894189
 30
0.0
  0
VERTEX
  5
33F
  8
기본값
 62
     0
 10
38.16137489715576
 20
41.96057099373711
 30
0.0
  0
VERTEX
  5
340
  8
기본값
 62
     0
 10
38.02309203987545
 20
42.02783017830954
 30
0.0
  0
VERTEX
  5
341
  8
기본값
 62
     0
 10
37.88231929904514
 20
42.09290935221354
 30
0.0
  0
VERTEX
  5
342
  8
기본값
 62
     0
 10
37.7391124690628
 20
42.15577115500344
 30
0.0
  0
VERTEX
  5
343
  8
기본값
 62
     0
 10
37.59352734432643
 20
42.21637822623359
 30
0.0
  0
VERTEX
  5
344
  8
기본값
 62
     0
 10
37.44561971923403
 20
42.27469320545832
 30
0.0
  0
VERTEX
  5
345
  8
기본값
 62
     0
 10
37.29544538818358
 20
42.33067873223199
 30
0.0
  0
VERTEX
  5
346
  8
기본값
 62
     0
 10
37.14306014557307
 20
42.38429744610892
 30
0.0
  0
VERTEX
  5
347
  8
기본값
 62
     0
 10
36.9885197858005
 20
42.43551198664346
 30
0.0
  0
VERTEX
  5
348
  8
기본값
 62
     0
 10
36.83188010326385
 20
42.48428499338998
 30
0.0
  0
VERTEX
  5
349
  8
기본값
 62
     0
 10
36.6731968923611
 20
42.53057910590277
 30
0.0
  0
VERTEX
  5
34A
  8
기본값
 62
     0
 10
36.51252594749026
 20
42.57435696373621
 30
0.0
  0
VERTEX
  5
34B
  8
기본값
 62
     0
 10
36.34992306304932
 20
42.61558120644463
 30
0.0
  0
VERTEX
  5
34C
  8
기본값
 62
     0
 10
36.18544403343624
 20
42.65421447358237
 30
0.0
  0
VERTEX
  5
34D
  8
기본값
 62
     0
 10
36.01914465304904
 20
42.69021940470378
 30
0.0
  0
VERTEX
  5
34E
  8
기본값
 62
     0
 10
35.68130801754421
 20
42.75419481711494
 30
0.0
  0
VERTEX
  5
34F
  8
기본값
 62
     0
 10
35.33685951171875
 20
42.80720856011284
 30
0.0
  0
VERTEX
  5
350
  8
기본값
 62
     0
 10
34.98624549075657
 20
42.84896175013223
 30
0.0
  0
VERTEX
  5
351
  8
기본값
 62
     0
 10
34.62991230984159
 20
42.87915550360785
 30
0.0
  0
VERTEX
  5
352
  8
기본값
 62
     0
 10
34.26830632415772
 20
42.89749093697441
 30
0.0
  0
VERTEX
  5
353
  8
기본값
 62
     0
 10
33.90187388888889
 20
42.90366916666667
 30
0.0
 42
0.0611349174067499
  0
VERTEX
  5
354
  8
기본값
 62
     0
 10
31.41443777777777
 20
42.5935775
 30
0.0
  0
VERTEX
  5
355
  8
기본값
 62
     0
 10
29.09492388888889
 20
43.91790527777777
 30
0.0
  0
VERTEX
  5
356
  8
기본값
 62
     0
 10
34.35660444444444
 20
46.96131916666666
 30
0.0
  0
VERTEX
  5
357
  8
기본값
 62
     0
 10
49.53733777777778
 20
38.19726083333333
 30
0.0
  0
VERTEX
  5
358
  8
기본값
 62
     0
 10
51.31004611111109
 20
39.22137472222221
 30
0.0
 42
0.5564945438640975
  0
VERTEX
  5
359
  8
기본값
 62
     0
 10
17.40739611111112
 20
39.2312525
 30
0.0
  0
VERTEX
  5
35A
  8
기본값
 62
     0
 10
19.18539611111111
 20
38.20749138888889
 30
0.0
  0
SEQEND
  5
35B
  8
기본값
 62
     0
  0
POLYLINE
  5
35C
  8
기본값
 62
     0
 66
     1
 10
0.0
 20
0.0
 30
0.0
  0
VERTEX
  5
35D
  8
기본값
 62
     0
 10
67.15283749999999
 20
47.58055
 30
0.0
  0
VERTEX
  5
35E
  8
기본값
 62
     0
 10
63.89105416666666
 20
29.07488611111111
 30
0.0
  0
VERTEX
  5
35F
  8
기본값
 62
     0
 10
67.1923486111111
 20
29.07488611111111
 30
0.0
  0
VERTEX
  5
360
  8
기본값
 62
     0
 10
68.54489861111111
 20
36.73863055555555
 30
0.0
  0
VERTEX
  5
361
  8
기본값
 62
     0
 10
75.99485972222222
 20
36.73863055555555
 30
0.0
  0
VERTEX
  5
362
  8
기본값
 62
     0
 10
76.50744583333332
 20
39.65645555555555
 30
0.0
  0
VERTEX
  5
363
  8
기본값
 62
     0
 10
69.05642638888888
 20
39.65645555555555
 30
0.0
  0
VERTEX
  5
364
  8
기본값
 62
     0
 10
69.94013472222223
 20
44.66166666666666
 30
0.0
  0
VERTEX
  5
365
  8
기본값
 62
     0
 10
78.69114027777776
 20
44.66166666666666
 30
0.0
  0
VERTEX
  5
366
  8
기본값
 62
     0
 10
79.20302083333333
 20
47.58055
 30
0.0
  0
VERTEX
  5
367
  8
기본값
 62
     0
 10
67.15283749999999
 20
47.58055
 30
0.0
  0
SEQEND
  5
368
  8
기본값
 62
     0
  0
POLYLINE
  5
369
  8
기본값
 62
     0
 66
     1
 10
0.0
 20
0.0
 30
0.0
  0
VERTEX
  5
36A
  8
기본값
 62
     0
 10
85.28145249999997
 20
32.40955333333333
 30
0.0
  0
VERTEX
  5
36B
  8
기본값
 62
     0
 10
85.80744416666664
 20
29.07509777777777
 30
0.0
  0
VERTEX
  5
36C
  8
기본값
 62
     0
 10
89.26254972222222
 20
29.07509777777778
 30
0.0
  0
VERTEX
  5
36D
  8
기본값
 62
     0
 10
85.76899138888888
 20
47.58040888888889
 30
0.0
  0
VERTEX
  5
36E
  8
기본값
 62
     0
 10
83.1460886111111
 20
47.58040888888889
 30
0.0
  0
VERTEX
  5
36F
  8
기본값
 62
     0
 10
73.15401083333333
 20
29.07509777777778
 30
0.0
  0
VERTEX
  5
370
  8
기본값
 62
     0
 10
76.56960527777777
 20
29.07509777777778
 30
0.0
  0
VERTEX
  5
371
  8
기본값
 62
     0
 10
78.29962749999999
 20
32.40955333333333
 30
0.0
  0
VERTEX
  5
372
  8
기본값
 62
     0
 10
85.28145249999997
 20
32.40955333333333
 30
0.0
  0
SEQEND
  5
373
  8
기본값
 62
     0
  0
POLYLINE
  5
374
  8
기본값
 62
     0
 66
     1
 10
0.0
 20
0.0
 30
0.0
  0
VERTEX
  5
375
  8
기본값
 62
     0
 10
83.68654416666666
 20
42.78721722222222
 30
0.0
  0
VERTEX
  5
376
  8
기본값
 62
     0
 10
84.90927194444444
 20
35.1439338888889
 30
0.0
  0
VERTEX
  5
377
  8
기본값
 62
     0
 10
79.68145805555554
 20
35.14393388888889
 30
0.0
  0
VERTEX
  5
378
  8
기본값
 62
     0
 10
83.68654416666666
 20
42.78721722222222
 30
0.0
  0
SEQEND
  5
379
  8
기본값
 62
     0
  0
POLYLINE
  5
37A
  8
기본값
 62
     0
 66
     1
 10
0.0
 20
0.0
 30
0.0
  0
VERTEX
  5
37B
  8
기본값
 62
     0
 10
101.1388841666667
 20
42.25582805555555
 30
0.0
 42
-0.1855993259146344
  0
VERTEX
  5
37C
  8
기본값
 62
     0
 10
100.1673341666666
 20
40.56496416666666
 30
0.0
 42
-0.180381758205109
  0
VERTEX
  5
37D
  8
기본값
 62
     0
 10
98.12933694444443
 20
39.90738638888888
 30
0.0
  0
VERTEX
  5
37E
  8
기본값
 62
     0
 10
94.29675916666666
 20
39.90738638888889
 30
0.0
  0
VERTEX
  5
37F
  8
기본값
 62
     0
 10
95.13284250000001
 20
44.6617725
 30
0.0
  0
VERTEX
  5
380
  8
기본값
 62
     0
 10
98.89698138888888
 20
44.6617725
 30
0.0
 42
-0.2181947216150244
  0
VERTEX
  5
381
  8
기본값
 62
     0
 10
100.7522397222222
 20
44.00525305555555
 30
0.0
 42
-0.2322573783198049
  0
VERTEX
  5
382
  8
기본값
 62
     0
 10
101.1388841666667
 20
42.25582805555556
 30
0.0
  0
SEQEND
  5
383
  8
기본값
 62
     0
  0
POLYLINE
  5
384
  8
기본값
 62
     0
 66
     1
 10
0.0
 20
0.0
 30
0.0
  0
VERTEX
  5
385
  8
기본값
 62
     0
 10
100.0265758333333
 20
34.47743083333333
 30
0.0
 42
-0.1656717076222371
  0
VERTEX
  5
386
  8
기본값
 62
     0
 10
99.0903036111111
 20
32.72906416666667
 30
0.0
 42
-0.1982502222564787
  0
VERTEX
  5
387
  8
기본값
 62
     0
 10
96.96975638888888
 20
31.98435027777777
 30
0.0
  0
VERTEX
  5
388
  8
기본값
 62
     0
 10
92.90046472222221
 20
31.98435027777778
 30
0.0
  0
VERTEX
  5
389
  8
기본값
 62
     0
 10
93.78523138888887
 20
37.00825861111111
 30
0.0
  0
VERTEX
  5
38A
  8
기본값
 62
     0
 10
97.78467305555556
 20
37.00825861111112
 30
0.0
 42
-0.2487028004546811
  0
VERTEX
  5
38B
  8
기본값
 62
     0
 10
99.68861472222224
 20
36.24590583333334
 30
0.0
 42
-0.2075594740633734
  0
VERTEX
  5
38C
  8
기본값
 62
     0
 10
100.0265758333333
 20
34.47743083333333
 30
0.0
  0
SEQEND
  5
38D
  8
기본값
 62
     0
  0
POLYLINE
  5
38E
  8
기본값
 62
     0
 66
     1
 10
0.0
 20
0.0
 30
0.0
  0
VERTEX
  5
38F
  8
기본값
 62
     0
 10
103.6845286111111
 20
46.20799749999999
 30
0.0
 42
0.2164137083181818
  0
VERTEX
  5
390
  8
기본값
 62
     0
 10
99.76657861111111
 20
47.58065583333334
 30
0.0
  0
VERTEX
  5
391
  8
기본값
 62
     0
 10
92.34554527777777
 20
47.58065583333333
 30
0.0
  0
VERTEX
  5
392
  8
기본값
 62
     0
 10
89.08376194444445
 20
29.07499194444444
 30
0.0
  0
VERTEX
  5
393
  8
기본값
 62
     0
 10
96.76091194444443
 20
29.07499194444444
 30
0.0
 42
0.0773460084972118
  0
VERTEX
  5
394
  8
기본값
 62
     0
 10
99.09559527777778
 20
29.42353638888888
 30
0.0
 42
0.0883654400425877
  0
VERTEX
  5
395
  8
기본값
 62
     0
 10
101.0563341666667
 20
30.43847805555555
 30
0.0
 42
0.0921974587420451
  0
VERTEX
  5
396
  8
기본값
 62
     0
 10
102.5009591666667
 20
32.0806586111111
 30
0.0
 42
0.0897459672023595
  0
VERTEX
  5
397
  8
기본값
 62
     0
 10
103.3123480555555
 20
34.34161138888889
 30
0.0
 42
0.0869543782579244
  0
VERTEX
  5
398
  8
기본값
 62
     0
 10
103.3515063888889
 20
35.9368725
 30
0.0
 42
0.0823558824601557
  0
VERTEX
  5
399
  8
기본값
 62
     0
 10
102.9599230555555
 20
37.08586972222222
 30
0.0
 42
0.0889065923131298
  0
VERTEX
  5
39A
  8
기본값
 62
     0
 10
102.3168091666667
 20
37.87891416666666
 30
0.0
  0
VERTEX
  5
39B
  8
기본값
 62
     0
 10
101.5636286111111
 20
38.38126972222221
 30
0.0
  0
VERTEX
  5
39C
  8
기본값
 62
     0
 10
101.1720452777778
 20
38.56506694444444
 30
0.0
  0
VERTEX
  5
39D
  8
기본값
 62
     0
 10
101.5728008333333
 20
38.72910861111112
 30
0.0
 42
0.0774127002380919
  0
VERTEX
  5
39E
  8
기본값
 62
     0
 10
102.3894813888889
 20
39.21206138888888
 30
0.0
  0
VERTEX
  5
39F
  8
기본값
 62
     0
 10
103.2647230555555
 20
40.02345027777777
 30
0.0
 42
0.0621813470284486
  0
VERTEX
  5
3A0
  8
기본값
 62
     0
 10
104.0235480555556
 20
41.10647805555556
 30
0.0
 42
0.076588231431701
  0
VERTEX
  5
3A1
  8
기본값
 62
     0
 10
104.4825119444444
 20
42.48830861111111
 30
0.0
 42
0.2361878506810226
  0
VERTEX
  5
3A2
  8
기본값
 62
     0
 10
103.6845286111111
 20
46.20799749999999
 30
0.0
  0
SEQEND
  5
3A3
  8
기본값
 62
     0
  0
POLYLINE
  5
3A4
  8
기본값
 62
     0
 66
     1
 10
0.0
 20
0.0
 30
0.0
  0
VERTEX
  5
3A5
  8
기본값
 62
     0
 10
110.0336113888889
 20
31.98445611111111
 30
0.0
  0
VERTEX
  5
3A6
  8
기본값
 62
     0
 10
112.7824558333333
 20
47.58040888888891
 30
0.0
  0
VERTEX
  5
3A7
  8
기본값
 62
     0
 10
109.4772808333333
 20
47.58040888888889
 30
0.0
  0
VERTEX
  5
3A8
  8
기본값
 62
     0
 10
106.2169086111111
 20
29.07509777777777
 30
0.0
  0
VERTEX
  5
3A9
  8
기본값
 62
     0
 10
118.0822363888889
 20
29.07509777777777
 30
0.0
  0
VERTEX
  5
3AA
  8
기본값
 62
     0
 10
118.5994086111111
 20
31.9844561111111
 30
0.0
  0
VERTEX
  5
3AB
  8
기본값
 62
     0
 10
110.0336113888889
 20
31.98445611111111
 30
0.0
  0
SEQEND
  5
3AC
  8
기본값
 62
     0
  0
POLYLINE
  5
3AD
  8
기본값
 62
     0
 66
     1
 10
0.0
 20
0.0
 30
0.0
  0
VERTEX
  5
3AE
  8
기본값
 62
     0
 10
130.5429472222222
 20
32.40955333333333
 30
0.0
  0
VERTEX
  5
3AF
  8
기본값
 62
     0
 10
131.0699972222223
 20
29.07509777777778
 30
0.0
  0
VERTEX
  5
3B0
  8
기본값
 62
     0
 10
134.5296888888889
 20
29.07509777777778
 30
0.0
  0
VERTEX
  5
3B1
  8
기본값
 62
     0
 10
131.0357777777778
 20
47.58040888888889
 30
0.0
  0
VERTEX
  5
3B2
  8
기본값
 62
     0
 10
128.412875
 20
47.58040888888889
 30
0.0
  0
VERTEX
  5
3B3
  8
기본값
 62
     0
 10
118.4215027777778
 20
29.07509777777778
 30
0.0
  0
VERTEX
  5
3B4
  8
기본값
 62
     0
 10
121.83745
 20
29.07509777777778
 30
0.0
  0
VERTEX
  5
3B5
  8
기본값
 62
     0
 10
123.5625333333333
 20
32.40955333333333
 30
0.0
  0
VERTEX
  5
3B6
  8
기본값
 62
     0
 10
130.5429472222222
 20
32.40955333333333
 30
0.0
  0
SEQEND
  5
3B7
  8
기본값
 62
     0
  0
POLYLINE
  5
3B8
  8
기본값
 62
     0
 66
     1
 10
0.0
 20
0.0
 30
0.0
  0
VERTEX
  5
3B9
  8
기본값
 62
     0
 10
128.9543888888889
 20
42.78721722222222
 30
0.0
  0
VERTEX
  5
3BA
  8
기본값
 62
     0
 10
130.1760583333333
 20
35.1439338888889
 30
0.0
  0
VERTEX
  5
3BB
  8
기본값
 62
     0
 10
124.9482444444444
 20
35.14393388888889
 30
0.0
  0
VERTEX
  5
3BC
  8
기본값
 62
     0
 10
128.9543888888889
 20
42.78721722222222
 30
0.0
  0
SEQEND
  5
3BD
  8
기본값
 62
     0
  0
POLYLINE
  5
3BE
  8
기본값
 62
     0
 66
     1
 10
0.0
 20
0.0
 30
0.0
  0
VERTEX
  5
3BF
  8
기본값
 62
     0
 10
146.4053530555555
 20
42.25582805555555
 30
0.0
 42
-0.1861998175483763
  0
VERTEX
  5
3C0
  8
기본값
 62
     0
 10
145.4341558333333
 20
40.56496416666666
 30
0.0
 42
-0.1798142179577936
  0
VERTEX
  5
3C1
  8
기본값
 62
     0
 10
143.3961586111111
 20
39.9073863888889
 30
0.0
  0
VERTEX
  5
3C2
  8
기본값
 62
     0
 10
139.5642863888889
 20
39.90738638888889
 30
0.0
  0
VERTEX
  5
3C3
  8
기본값
 62
     0
 10
140.3996641666666
 20
44.6617725
 30
0.0
  0
VERTEX
  5
3C4
  8
기본값
 62
     0
 10
144.1683891666667
 20
44.66177249999998
 30
0.0
 42
-0.2183032772375371
  0
VERTEX
  5
3C5
  8
기본값
 62
     0
 10
146.0190613888889
 20
44.00525305555553
 30
0.0
 42
-0.2308179284532906
  0
VERTEX
  5
3C6
  8
기본값
 62
     0
 10
146.4053530555555
 20
42.25582805555555
 30
0.0
  0
SEQEND
  5
3C7
  8
기본값
 62
     0
  0
POLYLINE
  5
3C8
  8
기본값
 62
     0
 66
     1
 10
0.0
 20
0.0
 30
0.0
  0
VERTEX
  5
3C9
  8
기본값
 62
     0
 10
145.2937502777777
 20
34.47743083333333
 30
0.0
 42
-0.1654216949505055
  0
VERTEX
  5
3CA
  8
기본값
 62
     0
 10
144.3571252777778
 20
32.72906416666666
 30
0.0
 42
-0.1976963673992843
  0
VERTEX
  5
3CB
  8
기본값
 62
     0
 10
142.2369308333333
 20
31.98435027777777
 30
0.0
  0
VERTEX
  5
3CC
  8
기본값
 62
     0
 10
138.1676391666666
 20
31.98435027777778
 30
0.0
  0
VERTEX
  5
3CD
  8
기본값
 62
     0
 10
139.0509947222222
 20
37.00825861111111
 30
0.0
  0
VERTEX
  5
3CE
  8
기본값
 62
     0
 10
143.0518475
 20
37.00825861111108
 30
0.0
 42
-0.2484499091984745
  0
VERTEX
  5
3CF
  8
기본값
 62
     0
 10
144.9568475
 20
36.24590583333333
 30
0.0
 42
-0.2074158348315166
  0
VERTEX
  5
3D0
  8
기본값
 62
     0
 10
145.2937502777777
 20
34.47743083333333
 30
0.0
  0
SEQEND
  5
3D1
  8
기본값
 62
     0
  0
POLYLINE
  5
3D2
  8
기본값
 62
     0
 66
     1
 10
0.0
 20
0.0
 30
0.0
  0
VERTEX
  5
3D3
  8
기본값
 62
     0
 10
148.9524086111111
 20
46.20799749999999
 30
0.0
 42
0.2159402903508804
  0
VERTEX
  5
3D4
  8
기본값
 62
     0
 10
145.0383391666666
 20
47.58065583333332
 30
0.0
  0
VERTEX
  5
3D5
  8
기본값
 62
     0
 10
137.6123669444444
 20
47.58065583333333
 30
0.0
  0
VERTEX
  5
3D6
  8
기본값
 62
     0
 10
134.3505836111111
 20
29.07499194444444
 30
0.0
  0
VERTEX
  5
3D7
  8
기본값
 62
     0
 10
142.0273808333333
 20
29.07499194444445
 30
0.0
 42
0.0771366835685906
  0
VERTEX
  5
3D8
  8
기본값
 62
     0
 10
144.3662975
 20
29.42353638888889
 30
0.0
 42
0.0910177130635635
  0
VERTEX
  5
3D9
  8
기본값
 62
     0
 10
146.3228030555555
 20
30.43847805555555
 30
0.0
 42
0.0922796434970281
  0
VERTEX
  5
3DA
  8
기본값
 62
     0
 10
147.7677808333333
 20
32.0806586111111
 30
0.0
 42
0.0897462535231806
  0
VERTEX
  5
3DB
  8
기본값
 62
     0
 10
148.5795225
 20
34.34161138888889
 30
0.0
 42
0.0879935853247692
  0
VERTEX
  5
3DC
  8
기본값
 62
     0
 10
148.6179752777778
 20
35.9368725
 30
0.0
 42
0.0825551415109619
  0
VERTEX
  5
3DD
  8
기본값
 62
     0
 10
148.2267447222222
 20
37.08586972222223
 30
0.0
 42
0.0883749243602871
  0
VERTEX
  5
3DE
  8
기본값
 62
     0
 10
147.5853947222222
 20
37.87891416666666
 30
0.0
  0
VERTEX
  5
3DF
  8
기본값
 62
     0
 10
146.8318613888889
 20
38.38126972222221
 30
0.0
  0
VERTEX
  5
3E0
  8
기본값
 62
     0
 10
146.4445113888889
 20
38.56506694444444
 30
0.0
  0
VERTEX
  5
3E1
  8
기본값
 62
     0
 10
146.8396225
 20
38.72910861111113
 30
0.0
 42
0.0759765791241103
  0
VERTEX
  5
3E2
  8
기본값
 62
     0
 10
147.6577141666667
 20
39.21206138888889
 30
0.0
  0
VERTEX
  5
3E3
  8
기본값
 62
     0
 10
148.5364836111111
 20
40.02345027777777
 30
0.0
 42
0.0584677246303079
  0
VERTEX
  5
3E4
  8
기본값
 62
     0
 10
149.2900169444444
 20
41.10647805555556
 30
0.0
 42
0.0764175938041033
  0
VERTEX
  5
3E5
  8
기본값
 62
     0
 10
149.7493336111111
 20
42.48830861111111
 30
0.0
 42
0.2356393393732051
  0
VERTEX
  5
3E6
  8
기본값
 62
     0
 10
148.9524086111111
 20
46.20799749999999
 30
0.0
  0
SEQEND
  5
3E7
  8
기본값
 62
     0
  0
POLYLINE
  5
3E8
  8
기본값
 62
     0
 66
     1
 10
0.0
 20
0.0
 30
0.0
  0
VERTEX
  5
3E9
  8
기본값
 62
     0
 10
72.91285194444444
 20
11.19829555555556
 30
0.0
 42
0.1059912375267628
  0
VERTEX
  5
3EA
  8
기본값
 62
     0
 10
73.7626936111111
 20
13.35376777777778
 30
0.0
 42
0.083303734685413
  0
VERTEX
  5
3EB
  8
기본값
 62
     0
 10
73.82019638888887
 20
15.37306777777778
 30
0.0
 42
0.1452235775975119
  0
VERTEX
  5
3EC
  8
기본값
 62
     0
 10
73.16402972222221
 20
16.76442333333333
 30
0.0
 42
0.0962360596521397
  0
VERTEX
  5
3ED
  8
기본값
 62
     0
 10
72.09123249999998
 20
17.52854
 30
0.0
 42
0.0616662373785803
  0
VERTEX
  5
3EE
  8
기본값
 62
     0
 10
70.24937972222222
 20
18.01078722222222
 30
0.0
  0
VERTEX
  5
3EF
  8
기본값
 62
     0
 10
68.14823527777777
 20
18.31064833333334
 30
0.0
 42
-0.0741860155934363
  0
VERTEX
  5
3F0
  8
기본값
 62
     0
 10
67.0412186111111
 20
18.62885388888889
 30
0.0
 42
-0.0936536311878007
  0
VERTEX
  5
3F1
  8
기본값
 62
     0
 10
66.25452416666664
 20
19.19964833333334
 30
0.0
 42
-0.1233511105867919
  0
VERTEX
  5
3F2
  8
기본값
 62
     0
 10
65.81566861111111
 20
20.07912333333333
 30
0.0
 42
-0.091909366974812
  0
VERTEX
  5
3F3
  8
기본값
 62
     0
 10
65.81037694444443
 20
20.98787888888889
 30
0.0
 42
-0.1814350253896701
  0
VERTEX
  5
3F4
  8
기본값
 62
     0
 10
66.97948249999999
 20
22.93873999999999
 30
0.0
 42
-0.1775350545039166
  0
VERTEX
  5
3F5
  8
기본값
 62
     0
 10
69.58368805555554
 20
23.74095666666666
 30
0.0
 42
-0.0567869282294127
  0
VERTEX
  5
3F6
  8
기본값
 62
     0
 10
71.55465749999998
 20
23.50918166666665
 30
0.0
 42
-0.1247267821500312
  0
VERTEX
  5
3F7
  8
기본값
 62
     0
 10
73.14427416666666
 20
22.67839
 30
0.0
  0
VERTEX
  5
3F8
  8
기본값
 62
     0
 10
74.97589638888888
 20
24.21544277777778
 30
0.0
 42
0.1044330776164048
  0
VERTEX
  5
3F9
  8
기본값
 62
     0
 10
73.27021583333332
 20
25.29741222222223
 30
0.0
 42
0.0887290139997393
  0
VERTEX
  5
3FA
  8
기본값
 62
     0
 10
70.23597416666667
 20
25.76060944444444
 30
0.0
 42
0.0780601397904811
  0
VERTEX
  5
3FB
  8
기본값
 62
     0
 10
67.65540472222222
 20
25.37431777777778
 30
0.0
 42
0.0844173990054021
  0
VERTEX
  5
3FC
  8
기본값
 62
     0
 10
65.61740749999997
 20
24.31175111111111
 30
0.0
 42
0.09486211467411
  0
VERTEX
  5
3FD
  8
기본값
 62
     0
 10
64.18654083333332
 20
22.71649
 30
0.0
 42
0.0946130250637781
  0
VERTEX
  5
3FE
  8
기본값
 62
     0
 10
63.42312972222223
 20
20.65873722222222
 30
0.0
 42
0.226790560368646
  0
VERTEX
  5
3FF
  8
기본값
 62
     0
 10
63.97875472222221
 20
17.50913722222221
 30
0.0
 42
0.1806641327822648
  0
VERTEX
  5
400
  8
기본값
 62
     0
 10
66.91633527777778
 20
16.18480944444444
 30
0.0
  0
VERTEX
  5
401
  8
기본값
 62
     0
 10
69.06581027777777
 20
15.87577611111111
 30
0.0
  0
VERTEX
  5
402
  8
기본값
 62
     0
 10
70.15836305555555
 20
15.59531777777777
 30
0.0
 42
-0.0926848305215931
  0
VERTEX
  5
403
  8
기본값
 62
     0
 10
70.90237138888888
 20
15.06332888888889
 30
0.0
 42
-0.2346210553015235
  0
VERTEX
  5
404
  8
기본값
 62
     0
 10
71.33276027777775
 20
13.05461222222222
 30
0.0
 42
-0.2168591529978595
  0
VERTEX
  5
405
  8
기본값
 62
     0
 10
69.95974916666665
 20
10.99580111111111
 30
0.0
 42
-0.1387169307073134
  0
VERTEX
  5
406
  8
기본값
 62
     0
 10
67.15269638888888
 20
10.33892888888889
 30
0.0
 42
-0.0766743188450319
  0
VERTEX
  5
407
  8
기본값
 62
     0
 10
64.63633249999998
 20
10.70581777777778
 30
0.0
 42
-0.1162966095047069
  0
VERTEX
  5
408
  8
기본값
 62
     0
 10
62.96416583333332
 20
11.67278166666666
 30
0.0
  0
VERTEX
  5
409
  8
기본값
 62
     0
 10
61.06939638888887
 20
10.06799555555555
 30
0.0
 42
0.1215629589589822
  0
VERTEX
  5
40A
  8
기본값
 62
     0
 10
63.11374361111111
 20
8.75354555555555
 30
0.0
 42
0.0842240889687939
  0
VERTEX
  5
40B
  8
기본값
 62
     0
 10
66.54415472222222
 20
8.251190000000003
 30
0.0
 42
0.069314806394814
  0
VERTEX
  5
40C
  8
기본값
 62
     0
 10
69.12895749999998
 20
8.59938166666667
 30
0.0
 42
0.0782915370852243
  0
VERTEX
  5
40D
  8
기본값
 62
     0
 10
71.30877138888889
 20
9.603387222222219
 30
0.0
 42
0.0925567251481472
  0
VERTEX
  5
40E
  8
기본값
 62
     0
 10
72.91285194444444
 20
11.19829555555555
 30
0.0
  0
SEQEND
  5
40F
  8
기본값
 62
     0
  0
POLYLINE
  5
410
  8
기본값
 62
     0
 66
     1
 10
0.0
 20
0.0
 30
0.0
  0
VERTEX
  5
411
  8
기본값
 62
     0
 10
75.25053388888888
 20
8.4070825
 30
0.0
  0
VERTEX
  5
412
  8
기본값
 62
     0
 10
86.18946722222222
 20
8.4070825
 30
0.0
  0
VERTEX
  5
413
  8
기본값
 62
     0
 10
86.56164777777776
 20
10.49235194444444
 30
0.0
  0
VERTEX
  5
414
  8
기본값
 62
     0
 10
78.08263388888888
 20
10.49235194444444
 30
0.0
  0
VERTEX
  5
415
  8
기본값
 62
     0
 10
79.05841722222222
 20
16.0397825
 30
0.0
  0
VERTEX
  5
416
  8
기본값
 62
     0
 10
86.27625055555555
 20
16.0397825
 30
0.0
  0
VERTEX
  5
417
  8
기본값
 62
     0
 10
86.64313944444443
 20
18.12716861111111
 30
0.0
  0
VERTEX
  5
418
  8
기본값
 62
     0
 10
79.42530611111111
 20
18.12716861111111
 30
0.0
  0
VERTEX
  5
419
  8
기본값
 62
     0
 10
80.37180888888888
 20
23.51867138888889
 30
0.0
  0
VERTEX
  5
41A
  8
기본값
 62
     0
 10
88.85223388888888
 20
23.51867138888889
 30
0.0
  0
VERTEX
  5
41B
  8
기본값
 62
     0
 10
89.22441444444443
 20
25.60641027777777
 30
0.0
  0
VERTEX
  5
41C
  8
기본값
 62
     0
 10
78.28548111111111
 20
25.60641027777777
 30
0.0
  0
VERTEX
  5
41D
  8
기본값
 62
     0
 10
75.25053388888888
 20
8.4070825
 30
0.0
  0
SEQEND
  5
41E
  8
기본값
 62
     0
  0
POLYLINE
  5
41F
  8
기본값
 62
     0
 66
     1
 10
0.0
 20
0.0
 30
0.0
  0
VERTEX
  5
420
  8
기본값
 62
     0
 10
99.69401222222221
 20
19.10358694444444
 30
0.0
  0
VERTEX
  5
421
  8
기본값
 62
     0
 10
99.34687888888888
 20
16.90860361111111
 30
0.0
  0
VERTEX
  5
422
  8
기본값
 62
     0
 10
98.9210761111111
 20
14.70656472222222
 30
0.0
  0
VERTEX
  5
423
  8
기본값
 62
     0
 10
98.50550388888887
 20
13.21854805555555
 30
0.0
 42
-0.0668623276612348
  0
VERTEX
  5
424
  8
기본값
 62
     0
 10
97.99785666666665
 20
12.17503138888889
 30
0.0
  0
VERTEX
  5
425
  8
기본값
 62
     0
 10
97.36955944444443
 20
11.45995083333333
 30
0.0
 42
-0.1921213543655927
  0
VERTEX
  5
426
  8
기본값
 62
     0
 10
94.5427511111111
 20
10.33917583333334
 30
0.0
 42
-0.112827350300465
  0
VERTEX
  5
427
  8
기본값
 62
     0
 10
93.00710944444444
 20
10.66620083333333
 30
0.0
 42
-0.1191620855430499
  0
VERTEX
  5
428
  8
기본값
 62
     0
 10
91.95371499999999
 20
11.54602861111111
 30
0.0
 42
-0.0857720210893977
  0
VERTEX
  5
429
  8
기본값
 62
     0
 10
91.56707055555555
 20
12.32990083333333
 30
0.0
  0
VERTEX
  5
42A
  8
기본값
 62
     0
 10
91.43195666666665
 20
13.40128694444444
 30
0.0
  0
VERTEX
  5
42B
  8
기본값
 62
     0
 10
91.54802055555554
 20
14.90023972222222
 30
0.0
  0
VERTEX
  5
42C
  8
기본값
 62
     0
 10
91.89515388888887
 20
17.10227861111111
 30
0.0
  0
VERTEX
  5
42D
  8
기본값
 62
     0
 10
92.32095666666666
 20
19.29726194444444
 30
0.0
  0
VERTEX
  5
42E
  8
기본값
 62
     0
 10
92.73194277777776
 20
20.79445083333333
 30
0.0
  0
VERTEX
  5
42F
  8
기본값
 62
     0
 10
93.21983444444444
 20
21.81856472222222
 30
0.0
  0
VERTEX
  5
430
  8
기본값
 62
     0
 10
93.84284
 20
22.55269527777777
 30
0.0
 42
-0.0886156663813277
  0
VERTEX
  5
431
  8
기본값
 62
     0
 10
95.10402055555554
 20
23.35455916666666
 30
0.0
 42
-0.0995336706113122
  0
VERTEX
  5
432
  8
기본값
 62
     0
 10
96.69857611111111
 20
23.66429805555555
 30
0.0
 42
-0.1204845033375411
  0
VERTEX
  5
433
  8
기본값
 62
     0
 10
98.22504555555555
 20
23.33550916666666
 30
0.0
 42
-0.1230980773055298
  0
VERTEX
  5
434
  8
기본값
 62
     0
 10
99.2590372222222
 20
22.45638694444444
 30
0.0
 42
-0.0856249198962156
  0
VERTEX
  5
435
  8
기본값
 62
     0
 10
99.65591222222221
 20
21.68309805555555
 30
0.0
 42
-0.0828672986748895
  0
VERTEX
  5
436
  8
기본값
 62
     0
 10
99.80937055555555
 20
20.60112861111111
 30
0.0
  0
VERTEX
  5
437
  8
기본값
 62
     0
 10
99.69401222222221
 20
19.10358694444444
 30
0.0
  0
SEQEND
  5
438
  8
기본값
 62
     0
  0
POLYLINE
  5
439
  8
기본값
 62
     0
 66
     1
 10
0.0
 20
0.0
 30
0.0
  0
VERTEX
  5
43A
  8
기본값
 62
     0
 10
101.4190955555555
 20
23.95392861111111
 30
0.0
 42
0.1112880511984191
  0
VERTEX
  5
43B
  8
기본값
 62
     0
 10
99.70318444444443
 20
25.29765916666667
 30
0.0
 42
0.1089076089787099
  0
VERTEX
  5
43C
  8
기본값
 62
     0
 10
97.25913999999999
 20
25.7608563888889
 30
0.0
 42
0.0955409694843789
  0
VERTEX
  5
43D
  8
기본값
 62
     0
 10
94.59637333333332
 20
25.2779036111111
 30
0.0
 42
0.0801808008155358
  0
VERTEX
  5
43E
  8
기본값
 62
     0
 10
92.3012011111111
 20
23.88654805555555
 30
0.0
 42
0.070993994891442
  0
VERTEX
  5
43F
  8
기본값
 62
     0
 10
91.07917888888888
 20
22.52341472222222
 30
0.0
 42
0.0616758976289574
  0
VERTEX
  5
440
  8
기본값
 62
     0
 10
90.31576777777776
 20
20.96766472222222
 30
0.0
  0
VERTEX
  5
441
  8
기본값
 62
     0
 10
89.8183511111111
 20
19.11240638888889
 30
0.0
  0
VERTEX
  5
442
  8
기본값
 62
     0
 10
89.40207333333332
 20
16.90860361111111
 30
0.0
  0
VERTEX
  5
443
  8
기본값
 62
     0
 10
89.04047611111109
 20
14.70656472222222
 30
0.0
  0
VERTEX
  5
444
  8
기본값
 62
     0
 10
88.89019277777777
 20
12.87000361111111
 30
0.0
 42
0.0754148652298323
  0
VERTEX
  5
445
  8
기본값
 62
     0
 10
89.09303999999999
 20
11.34318138888889
 30
0.0
 42
0.1006004833830087
  0
VERTEX
  5
446
  8
기본값
 62
     0
 10
89.79894833333331
 20
10.04848694444445
 30
0.0
 42
0.1116405131289998
  0
VERTEX
  5
447
  8
기본값
 62
     0
 10
91.52367888888887
 20
8.714986944444442
 30
0.0
 42
0.1072222690123522
  0
VERTEX
  5
448
  8
기본값
 62
     0
 10
93.97830666666665
 20
8.25108416666667
 30
0.0
 42
0.0964690255058479
  0
VERTEX
  5
449
  8
기본값
 62
     0
 10
96.63048999999998
 20
8.724864722222218
 30
0.0
 42
0.0813107526291427
  0
VERTEX
  5
44A
  8
기본값
 62
     0
 10
98.91578444444443
 20
10.12574527777778
 30
0.0
 42
0.0681826286092141
  0
VERTEX
  5
44B
  8
기본값
 62
     0
 10
100.1332205555555
 20
11.47970638888889
 30
0.0
 42
0.055691271692642
  0
VERTEX
  5
44C
  8
기본값
 62
     0
 10
100.91674
 20
13.05450638888889
 30
0.0
  0
VERTEX
  5
44D
  8
기본값
 62
     0
 10
101.4286205555555
 20
14.90023972222222
 30
0.0
  0
VERTEX
  5
44E
  8
기본값
 62
     0
 10
101.8396066666667
 20
17.10227861111111
 30
0.0
  0
VERTEX
  5
44F
  8
기본값
 62
     0
 10
102.1959122222222
 20
19.29726194444444
 30
0.0
 42
0.0410901521398298
  0
VERTEX
  5
450
  8
기본값
 62
     0
 10
102.3419622222222
 20
21.14158416666666
 30
0.0
 42
0.0689874750638639
  0
VERTEX
  5
451
  8
기본값
 62
     0
 10
102.1239455555555
 20
22.66911194444444
 30
0.0
 42
0.0936681362456992
  0
VERTEX
  5
452
  8
기본값
 62
     0
 10
101.4190955555555
 20
23.9539286111111
 30
0.0
  0
SEQEND
  5
453
  8
기본값
 62
     0
  0
POLYLINE
  5
454
  8
기본값
 62
     0
 66
     1
 10
0.0
 20
0.0
 30
0.0
  0
VERTEX
  5
455
  8
기본값
 62
     0
 10
115.4203516666666
 20
11.768455
 30
0.0
 42
0.0989664632474831
  0
VERTEX
  5
456
  8
기본값
 62
     0
 10
116.338985
 20
14.22308277777778
 30
0.0
  0
VERTEX
  5
457
  8
기본값
 62
     0
 10
118.3480544444444
 20
25.60651611111111
 30
0.0
  0
VERTEX
  5
458
  8
기본값
 62
     0
 10
115.8895461111111
 20
25.60651611111111
 30
0.0
  0
VERTEX
  5
459
  8
기본값
 62
     0
 10
113.868835
 20
14.16558
 30
0.0
 42
-0.1757258114706367
  0
VERTEX
  5
45A
  8
기본값
 62
     0
 10
112.3959877777778
 20
11.36311333333334
 30
0.0
 42
-0.1864548171428835
  0
VERTEX
  5
45B
  8
기본값
 62
     0
 10
109.5652988888889
 20
10.33899944444445
 30
0.0
 42
-0.2419494307882665
  0
VERTEX
  5
45C
  8
기본값
 62
     0
 10
106.9843766666666
 20
11.44037166666667
 30
0.0
 42
-0.2155221369358752
  0
VERTEX
  5
45D
  8
기본값
 62
     0
 10
106.4728488888889
 20
14.34902444444444
 30
0.0
  0
VERTEX
  5
45E
  8
기본값
 62
     0
 10
108.4529905555555
 20
25.60651611111111
 30
0.0
  0
VERTEX
  5
45F
  8
기본값
 62
     0
 10
105.9994211111111
 20
25.60651611111111
 30
0.0
  0
VERTEX
  5
460
  8
기본값
 62
     0
 10
103.9550738888889
 20
14.02940777777778
 30
0.0
 42
0.1083534946564759
  0
VERTEX
  5
461
  8
기본값
 62
     0
 10
104.0037572222222
 20
11.62416888888889
 30
0.0
 42
0.1223319656538656
  0
VERTEX
  5
462
  8
기본값
 62
     0
 10
104.9650766666666
 20
9.835585555555552
 30
0.0
 42
0.1168829791804772
  0
VERTEX
  5
463
  8
기본값
 62
     0
 10
106.6714627777778
 20
8.675299444444436
 30
0.0
 42
0.0995505829284723
  0
VERTEX
  5
464
  8
기본값
 62
     0
 10
109.0146127777778
 20
8.250907777777773
 30
0.0
 42
0.083536677049799
  0
VERTEX
  5
465
  8
기본값
 62
     0
 10
111.5507322222222
 20
8.675299444444441
 30
0.0
 42
0.0811687280899338
  0
VERTEX
  5
466
  8
기본값
 62
     0
 10
113.7531238888889
 20
9.894146666666662
 30
0.0
 42
0.0885580332678458
  0
VERTEX
  5
467
  8
기본값
 62
     0
 10
115.4203516666666
 20
11.768455
 30
0.0
  0
SEQEND
  5
468
  8
기본값
 62
     0
  0
POLYLINE
  5
469
  8
기본값
 62
     0
 66
     1
 10
0.0
 20
0.0
 30
0.0
  0
VERTEX
  5
46A
  8
기본값
 62
     0
 10
123.5047836111111
 20
25.60651611111111
 30
0.0
  0
VERTEX
  5
46B
  8
기본값
 62
     0
 10
121.0445113888889
 20
25.60651611111111
 30
0.0
  0
VERTEX
  5
46C
  8
기본값
 62
     0
 10
118.0152086111111
 20
8.407188333333336
 30
0.0
  0
VERTEX
  5
46D
  8
기본값
 62
     0
 10
128.7692863888889
 20
8.407188333333336
 30
0.0
  0
VERTEX
  5
46E
  8
기본값
 62
     0
 10
129.1375863888889
 20
10.49245777777778
 30
0.0
  0
VERTEX
  5
46F
  8
기본값
 62
     0
 10
120.8420169444444
 20
10.49245777777778
 30
0.0
  0
VERTEX
  5
470
  8
기본값
 62
     0
 10
123.5047836111111
 20
25.60651611111111
 30
0.0
  0
SEQEND
  5
471
  8
기본값
 62
     0
  0
ENDBLK
  5
473
  8
0
  0
BLOCK
  8
0
  2
*D2
 70
     1
 10
0.0
 20
0.0
 30
0.0
  3
*D2
  1

  0
LINE
  5
4CF
  8
기본값
 62
     0
 10
2713.459086864361
 20
2685.453518329317
 30
0.0
 11
2720.576586864361
 21
2685.453518329317
 31
0.0
  0
LINE
  5
4D0
  8
기본값
 62
     0
 10
2713.45908686436
 20
2674.253518329317
 30
0.0
 11
2720.576586864361
 21
2674.253518329317
 31
0.0
  0
LINE
  5
4D1
  8
기본값
 62
     0
 10
2720.396586864361
 20
2685.273518329317
 30
0.0
 11
2720.396586864361
 21
2680.033518329317
 31
0.0
  0
LINE
  5
4D2
  8
기본값
 62
     0
 10
2720.396586864361
 20
2674.433518329317
 30
0.0
 11
2720.396586864361
 21
2679.673518329317
 31
0.0
  0
SOLID
  5
4D3
  8
기본값
 62
     0
 10
2720.426586864361
 20
2685.273518329317
 30
0.0
 11
2720.366586864361
 21
2685.273518329317
 31
0.0
 12
2720.396586864361
 22
2685.453518329317
 32
0.0
 13
2720.396586864361
 23
2685.453518329317
 33
0.0
  0
SOLID
  5
4D4
  8
기본값
 62
     0
 10
2720.366586864361
 20
2674.433518329317
 30
0.0
 11
2720.426586864361
 21
2674.433518329317
 31
0.0
 12
2720.396586864361
 22
2674.253518329317
 32
0.0
 13
2720.396586864361
 23
2674.253518329317
 33
0.0
  0
TEXT
  5
4D5
  8
기본값
  6
CONTINUOUS
 62
     0
 10
2719.826586864361
 20
2679.763518329317
 30
0.0
 40
0.18
  1
11.2000
  0
POINT
  5
4D6
  8
DEFPOINTS
 62
     0
 10
2713.396586864361
 20
2685.453518329317
 30
0.0
  0
POINT
  5
4D7
  8
DEFPOINTS
 62
     0
 10
2713.39658686436
 20
2674.253518329317
 30
0.0
  0
POINT
  5
4D8
  8
DEFPOINTS
 62
     0
 10
2720.396586864361
 20
2674.253518329317
 30
0.0
  0
ENDBLK
  5
4CE
  8
0
  0
ENDSEC
  0
SECTION
  2
ENTITIES
  0
CIRCLE
  5
6B
  8
기본값
 10
-60.20956798513042
 20
441.9960912041084
 30
0.0
 40
1.699615620469127
  0
POLYLINE
  5
6D
  8
MAKE2D_VISIBLE_LINES
 66
     1
 10
0.0
 20
0.0
 30
0.0
  0
VERTEX
  5
6E
  8
MAKE2D_VISIBLE_LINES
 10
-75.41860166666665
 20
444.5468488888889
 30
0.0
 42
2.414340943506499
  0
VERTEX
  5
6F
  8
MAKE2D_VISIBLE_LINES
 10
-69.0686016666665
 20
438.1968488888889
 30
0.0
 42
0.4142145833716934
  0
VERTEX
  5
70
  8
MAKE2D_VISIBLE_LINES
 10
-75.41860166666665
 20
444.5468488888889
 30
0.0
  0
SEQEND
  5
71
  8
MAKE2D_VISIBLE_LINES
  0
CIRCLE
  5
72
  8
MAKE2D_VISIBLE_LINES
 10
-90.61683289464634
 20
453.3950801135765
 30
0.0
 40
1.69982456716076
  0
CIRCLE
  5
73
  8
MAKE2D_VISIBLE_LINES
 10
-90.61677695794852
 20
422.9984208318932
 30
0.0
 40
1.699768625532232
  0
CIRCLE
  5
74
  8
MAKE2D_VISIBLE_LINES
 10
-60.22023713005725
 20
422.9983079367326
 30
0.0
 40
1.699655749543528
  0
CIRCLE
  5
75
  8
MAKE2D_VISIBLE_LINES
 10
-31.70881106777092
 20
475.6968907899929
 30
0.0
 40
6.35001106778041
  0
CIRCLE
  5
76
  8
MAKE2D_VISIBLE_LINES
 10
-31.70883365134735
 20
420.6968469846806
 30
0.0
 40
6.350033651436525
  0
CIRCLE
  5
77
  8
MAKE2D_VISIBLE_LINES
 10
40.29176320919061
 20
448.1969754041284
 30
0.0
 40
6.500077072211718
  0
POLYLINE
  5
78
  8
MAKE2D_VISIBLE_LINES
 66
     1
 10
0.0
 20
0.0
 30
0.0
  0
VERTEX
  5
79
  8
MAKE2D_VISIBLE_LINES
 10
40.2916275
 20
414.3468133333333
 30
0.0
 42
-2.41423165576089
  0
VERTEX
  5
7A
  8
MAKE2D_VISIBLE_LINES
 10
46.64162749999988
 20
420.6968133333333
 30
0.0
 42
-0.4142166666912205
  0
VERTEX
  5
7B
  8
MAKE2D_VISIBLE_LINES
 10
40.2916275
 20
414.3468133333333
 30
0.0
  0
SEQEND
  5
7C
  8
MAKE2D_VISIBLE_LINES
  0
POLYLINE
  5
7D
  8
MAKE2D_VISIBLE_LINES
 66
     1
 10
0.0
 20
0.0
 30
0.0
  0
VERTEX
  5
7E
  8
MAKE2D_VISIBLE_LINES
 10
40.2916275
 20
469.3468797222222
 30
0.0
 42
-2.414219513199468
  0
VERTEX
  5
7F
  8
MAKE2D_VISIBLE_LINES
 10
46.64162749999997
 20
475.6968797222221
 30
0.0
 42
-0.4142145833717038
  0
VERTEX
  5
80
  8
MAKE2D_VISIBLE_LINES
 10
40.2916275
 20
469.3468797222222
 30
0.0
  0
SEQEND
  5
81
  8
MAKE2D_VISIBLE_LINES
  0
POLYLINE
  5
82
  8
MAKE2D_VISIBLE_LINES
 66
     1
 10
0.0
 20
0.0
 30
0.0
  0
VERTEX
  5
83
  8
MAKE2D_VISIBLE_LINES
 10
97.364475
 20
408.1969794444444
 30
0.0
  0
VERTEX
  5
84
  8
MAKE2D_VISIBLE_LINES
 10
97.364475
 20
488.1968899999999
 30
0.0
  0
VERTEX
  5
85
  8
MAKE2D_VISIBLE_LINES
 10
27.36408583333333
 20
488.1968899999999
 30
0.0
  0
VERTEX
  5
86
  8
MAKE2D_VISIBLE_LINES
 10
27.36408583333333
 20
408.1969794444444
 30
0.0
  0
VERTEX
  5
87
  8
MAKE2D_VISIBLE_LINES
 10
97.364475
 20
408.1969794444444
 30
0.0
  0
SEQEND
  5
88
  8
MAKE2D_VISIBLE_LINES
  0
POLYLINE
  5
89
  8
MAKE2D_VISIBLE_LINES
 66
     1
 10
0.0
 20
0.0
 30
0.0
  0
VERTEX
  5
8A
  8
MAKE2D_VISIBLE_LINES
 10
-44.63616527777776
 20
488.1968899999999
 30
0.0
  0
VERTEX
  5
8B
  8
MAKE2D_VISIBLE_LINES
 10
-44.63616527777776
 20
408.1969794444444
 30
0.0
  0
VERTEX
  5
8C
  8
MAKE2D_VISIBLE_LINES
 10
25.36403691666666
 20
408.1969794444444
 30
0.0
  0
VERTEX
  5
8D
  8
MAKE2D_VISIBLE_LINES
 10
25.36403691666666
 20
488.1968899999999
 30
0.0
  0
VERTEX
  5
8E
  8
MAKE2D_VISIBLE_LINES
 10
-44.63616527777776
 20
488.1968899999999
 30
0.0
  0
SEQEND
  5
8F
  8
MAKE2D_VISIBLE_LINES
  0
CIRCLE
  5
90
  8
기본값
 10
-60.2201970080108
 20
453.395288783026
 30
0.0
 40
1.699615620469127
  0
CIRCLE
  5
91
  8
기본값
 10
-75.32155655226273
 20
410.5998037744852
 30
0.0
 40
6.35
  0
CIRCLE
  5
92
  8
기본값
 10
-75.32155655226273
 20
465.5998037744852
 30
0.0
 40
6.35
  0
CIRCLE
  5
93
  8
기본값
 10
-31.60950233337661
 20
448.2962323888456
 30
0.0
 40
8.25
  0
CIRCLE
  5
94
  8
기본값
 10
-37.20950233337663
 20
457.9957169112312
 30
0.0
 40
1.6
  0
CIRCLE
  5
95
  8
기본값
 10
-37.20950233337658
 20
438.5967478664598
 30
0.0
 40
1.6
  0
CIRCLE
  5
96
  8
기본값
 10
-20.40950233337662
 20
448.2962323888456
 30
0.0
 40
1.6
  0
CIRCLE
  5
97
  8
기본값
 10
-133.6960727777778
 20
438.2951215233255
 30
0.0
 40
7.06
  0
CIRCLE
  5
98
  8
기본값
 10
-133.6960727777778
 20
456.1200018220231
 30
0.0
 40
7.06
  0
CIRCLE
  5
99
  8
기본값
 10
-133.7012347431307
 20
420.4751231284996
 30
0.0
 40
7.06
  0
CIRCLE
  5
9A
  8
기본값
 10
-133.7063967084836
 20
402.6551247336737
 30
0.0
 40
7.06
  0
CIRCLE
  5
9B
  8
기본값
 10
-133.6890135731397
 20
473.9400000000001
 30
0.0
 40
7.06
  0
POLYLINE
  5
9C
  8
기본값
 66
     1
 10
0.0
 20
0.0
 30
0.0
  0
VERTEX
  5
9D
  8
기본값
 10
-122.6360727777778
 20
461.0300009110116
 30
0.0
  0
VERTEX
  5
9E
  8
기본값
 10
-119.6360727777778
 20
461.0300009110116
 30
0.0
  0
VERTEX
  5
9F
  8
기본값
 10
-119.6360727777778
 20
469.0300009110116
 30
0.0
  0
VERTEX
  5
A0
  8
기본값
 10
-122.6360727777778
 20
469.0300009110116
 30
0.0
  0
VERTEX
  5
A1
  8
기본값
 10
-122.6360727777778
 20
461.0300009110116
 30
0.0
  0
SEQEND
  5
A2
  8
기본값
  0
POLYLINE
  5
A3
  8
기본값
 66
     1
 10
0.0
 20
0.0
 30
0.0
  0
VERTEX
  5
A4
  8
기본값
 10
-122.6360727777778
 20
411.5651239310866
 30
0.0
  0
VERTEX
  5
A5
  8
기본값
 10
-122.6360727777778
 20
415.5651239310866
 30
0.0
  0
VERTEX
  5
A6
  8
기본값
 10
-119.6360727777778
 20
415.5651239310866
 30
0.0
  0
VERTEX
  5
A7
  8
기본값
 10
-119.6360727777778
 20
407.5651239310866
 30
0.0
  0
VERTEX
  5
A8
  8
기본값
 10
-122.6360727777778
 20
407.5651239310865
 30
0.0
  0
VERTEX
  5
A9
  8
기본값
 10
-122.6360727777778
 20
411.5651239310866
 30
0.0
  0
SEQEND
  5
AA
  8
기본값
  0
POLYLINE
  5
AB
  8
기본값
 66
     1
 10
0.0
 20
0.0
 30
0.0
  0
VERTEX
  5
AC
  8
기본값
 10
-61.5205813888889
 20
483.0
 30
0.0
  0
VERTEX
  5
AD
  8
기본값
 10
-61.5205813888889
 20
469.0
 30
0.0
  0
VERTEX
  5
AE
  8
기본값
 10
-51.5205813888889
 20
469.0
 30
0.0
  0
VERTEX
  5
AF
  8
기본값
 10
-51.5205813888889
 20
483.0
 30
0.0
  0
VERTEX
  5
B0
  8
기본값
 10
-61.5205813888889
 20
483.0
 30
0.0
  0
SEQEND
  5
B1
  8
기본값
  0
POLYLINE
  5
B2
  8
기본값
 66
     1
 10
0.0
 20
0.0
 30
0.0
  0
VERTEX
  5
B3
  8
기본값
 10
-122.6360727777778
 20
487.1367575000105
 30
0.0
  0
VERTEX
  5
B4
  8
기본값
 10
-122.6360727777778
 20
488.1968899999999
 30
0.0
  0
VERTEX
  5
B5
  8
기본값
 10
-46.63606249999999
 20
488.1968899999999
 30
0.0
  0
VERTEX
  5
B6
  8
기본값
 10
-46.63606249999999
 20
388.1968077777777
 30
0.0
  0
VERTEX
  5
B7
  8
기본값
 10
-122.6360727777778
 20
388.1968077777777
 30
0.0
  0
VERTEX
  5
B8
  8
기본값
 10
-122.6360727777778
 20
389.2569402777883
 30
0.0
  0
VERTEX
  5
B9
  8
기본값
 10
-138.1960727777777
 20
389.2569402777884
 30
0.0
 42
-0.4142135623730952
  0
VERTEX
  5
BA
  8
기본값
 10
-147.1960727777777
 20
398.2569402777884
 30
0.0
  0
VERTEX
  5
BB
  8
기본값
 10
-147.196072777778
 20
478.1367575000102
 30
0.0
 42
-0.414213562373102
  0
VERTEX
  5
BC
  8
기본값
 10
-138.1960727777781
 20
487.1367575000103
 30
0.0
  0
VERTEX
  5
BD
  8
기본값
 10
-122.6360727777778
 20
487.1367575000105
 30
0.0
  0
SEQEND
  5
BE
  8
기본값
  0
POLYLINE
  5
BF
  8
MAKE2D_VISIBLE_LINES
 66
     1
 10
0.0
 20
0.0
 30
0.0
  0
VERTEX
  5
C0
  8
MAKE2D_VISIBLE_LINES
 10
-418.6468004867099
 20
388.4221269444444
 30
0.0
  0
VERTEX
  5
C1
  8
MAKE2D_VISIBLE_LINES
 10
-343.2478074999999
 20
388.4221269444443
 30
0.0
 42
0.4142135623730924
  0
VERTEX
  5
C2
  8
MAKE2D_VISIBLE_LINES
 10
-334.2478074999999
 20
397.4221269444444
 30
0.0
  0
VERTEX
  5
C3
  8
MAKE2D_VISIBLE_LINES
 10
-334.2478075
 20
479.2844141666667
 30
0.0
 42
0.4142135623730998
  0
VERTEX
  5
C4
  8
MAKE2D_VISIBLE_LINES
 10
-343.2478074999999
 20
488.2844141666668
 30
0.0
  0
VERTEX
  5
C5
  8
MAKE2D_VISIBLE_LINES
 10
-418.6468004867099
 20
488.2844141666666
 30
0.0
 42
0.4142135623730969
  0
VERTEX
  5
C6
  8
MAKE2D_VISIBLE_LINES
 10
-427.6468004867099
 20
479.2844141666666
 30
0.0
  0
VERTEX
  5
C7
  8
MAKE2D_VISIBLE_LINES
 10
-427.6468004867099
 20
397.4221269444444
 30
0.0
 42
0.4142135623731004
  0
VERTEX
  5
C8
  8
MAKE2D_VISIBLE_LINES
 10
-418.64680048671
 20
388.4221269444444
 30
0.0
  0
SEQEND
  5
C9
  8
MAKE2D_VISIBLE_LINES
  0
POLYLINE
  5
CA
  8
기본값
 66
     1
 10
0.0
 20
0.0
 30
0.0
  0
VERTEX
  5
CB
  8
기본값
 10
-329.5785113888888
 20
325.0892024999999
 30
0.0
  0
VERTEX
  5
CC
  8
기본값
 10
-229.5787466666667
 20
325.0892024999999
 30
0.0
  0
VERTEX
  5
CD
  8
기본값
 10
-229.5787466666667
 20
405.0891483333333
 30
0.0
  0
VERTEX
  5
CE
  8
기본값
 10
-329.5785113888888
 20
405.0891483333333
 30
0.0
  0
VERTEX
  5
CF
  8
기본값
 10
-329.5785113888888
 20
325.0892024999999
 30
0.0
  0
SEQEND
  5
D0
  8
기본값
  0
INSERT
  5
474
  8
기본값
  2
FABLAB
 10
-330.7019922868102
 20
351.9959129537085
 30
0.0
 41
0.6171602010412037
 42
0.6171602010412037
 43
0.6171602010412037
  0
CIRCLE
  5
475
  8
기본값
 10
-446.0703239307057
 20
403.7151690392187
 30
0.0
 40
2.23
  0
CIRCLE
  5
476
  8
기본값
 10
-446.0651619653529
 20
421.5351674340446
 30
0.0
 40
2.23
  0
CIRCLE
  5
477
  8
기본값
 10
-446.0599999999999
 20
439.3551658288705
 30
0.0
 40
2.23
  0
CIRCLE
  5
478
  8
기본값
 10
-446.0599999999999
 20
457.1800461275681
 30
0.0
 40
2.23
  0
CIRCLE
  5
479
  8
기본값
 10
-446.0529407953619
 20
475.000044305545
 30
0.0
 40
2.23
  0
POLYLINE
  5
47A
  8
기본값
 66
     1
 10
0.0
 20
0.0
 30
0.0
  0
VERTEX
  5
47B
  8
기본값
 10
-454.0
 20
479.1968018055554
 30
0.0
 42
-0.4142135623731001
  0
VERTEX
  5
47C
  8
기본값
 10
-445.0
 20
488.1968018055555
 30
0.0
  0
VERTEX
  5
47D
  8
기본값
 10
-435.0
 20
488.1968018055555
 30
0.0
  0
VERTEX
  5
47E
  8
기본값
 10
-435.0
 20
476.2113179166666
 30
0.0
  0
VERTEX
  5
47F
  8
기본값
 10
-432.0
 20
476.2113179166666
 30
0.0
  0
VERTEX
  5
480
  8
기본값
 10
-432.0
 20
466.223649861111
 30
0.0
  0
VERTEX
  5
481
  8
기본값
 10
-435.0
 20
466.223649861111
 30
0.0
  0
VERTEX
  5
482
  8
기본값
 10
-435.0
 20
444.2508154166666
 30
0.0
  0
VERTEX
  5
483
  8
기본값
 10
-432.0
 20
444.2508154166666
 30
0.0
  0
VERTEX
  5
484
  8
기본값
 10
-432.0
 20
434.2627945833333
 30
0.0
  0
VERTEX
  5
485
  8
기본값
 10
-435.0
 20
434.2627945833333
 30
0.0
  0
VERTEX
  5
486
  8
기본값
 10
-435.0
 20
412.2899954166666
 30
0.0
  0
VERTEX
  5
487
  8
기본값
 10
-432.0
 20
412.2899954166665
 30
0.0
  0
VERTEX
  5
488
  8
기본값
 10
-432.0
 20
402.3019745833332
 30
0.0
  0
VERTEX
  5
489
  8
기본값
 10
-435.0
 20
402.3019745833332
 30
0.0
  0
VERTEX
  5
48A
  8
기본값
 10
-435.0
 20
390.3169845833333
 30
0.0
  0
VERTEX
  5
48B
  8
기본값
 10
-445.0
 20
390.3169845833333
 30
0.0
 42
-0.4142135623730943
  0
VERTEX
  5
48C
  8
기본값
 10
-454.0
 20
399.3169845833333
 30
0.0
  0
VERTEX
  5
48D
  8
기본값
 10
-454.0
 20
479.1968018055555
 30
0.0
  0
SEQEND
  5
48E
  8
기본값
  0
POLYLINE
  5
48F
  8
MAKE2D_VISIBLE_LINES
 66
     1
 10
0.0
 20
0.0
 30
0.0
  0
VERTEX
  5
490
  8
MAKE2D_VISIBLE_LINES
 10
-248.9469217088644
 20
487.8892677777777
 30
0.0
  0
VERTEX
  5
491
  8
MAKE2D_VISIBLE_LINES
 10
-248.9469217088644
 20
490.8892677777777
 30
0.0
  0
VERTEX
  5
492
  8
MAKE2D_VISIBLE_LINES
 10
-256.9469217088644
 20
490.8892677777777
 30
0.0
  0
VERTEX
  5
493
  8
MAKE2D_VISIBLE_LINES
 10
-256.9469217088645
 20
487.8892677777777
 30
0.0
  0
VERTEX
  5
494
  8
MAKE2D_VISIBLE_LINES
 10
-302.4117986887894
 20
487.8892677777777
 30
0.0
  0
VERTEX
  5
495
  8
MAKE2D_VISIBLE_LINES
 10
-302.4117986887894
 20
490.8892677777777
 30
0.0
  0
VERTEX
  5
496
  8
MAKE2D_VISIBLE_LINES
 10
-310.4117986887894
 20
490.8892677777777
 30
0.0
  0
VERTEX
  5
497
  8
MAKE2D_VISIBLE_LINES
 10
-310.4117986887894
 20
487.8892677777777
 30
0.0
  0
VERTEX
  5
498
  8
MAKE2D_VISIBLE_LINES
 10
-329.5786877777778
 20
487.8892677777777
 30
0.0
  0
VERTEX
  5
499
  8
MAKE2D_VISIBLE_LINES
 10
-329.5786877777778
 20
407.8893219444444
 30
0.0
  0
VERTEX
  5
49A
  8
MAKE2D_VISIBLE_LINES
 10
-229.5785702777778
 20
407.8893219444444
 30
0.0
  0
VERTEX
  5
49B
  8
MAKE2D_VISIBLE_LINES
 10
-229.5785879166667
 20
487.8892677777777
 30
0.0
  0
VERTEX
  5
49C
  8
MAKE2D_VISIBLE_LINES
 10
-248.9469217088644
 20
487.8892677777777
 30
0.0
  0
SEQEND
  5
49D
  8
MAKE2D_VISIBLE_LINES
  0
POLYLINE
  5
49E
  8
기본값
 66
     1
 10
0.0
 20
0.0
 30
0.0
  0
VERTEX
  5
49F
  8
기본값
 10
-316.5334947222223
 20
420.3449175
 30
0.0
  0
VERTEX
  5
4A0
  8
기본값
 10
-306.5454738888889
 20
420.3449175
 30
0.0
  0
VERTEX
  5
4A1
  8
기본값
 10
-306.5454738888889
 20
421.8893433333333
 30
0.0
  0
VERTEX
  5
4A2
  8
기본값
 10
-316.5334947222223
 20
421.8893433333333
 30
0.0
  0
VERTEX
  5
4A3
  8
기본값
 10
-316.5334947222223
 20
420.3449175
 30
0.0
  0
SEQEND
  5
4A4
  8
기본값
  0
POLYLINE
  5
4A5
  8
기본값
 66
     1
 10
0.0
 20
0.0
 30
0.0
  0
VERTEX
  5
4A6
  8
기본값
 10
-284.5728158333334
 20
420.3004674999999
 30
0.0
  0
VERTEX
  5
4A7
  8
기본값
 10
-274.5844422222223
 20
420.3004674999999
 30
0.0
  0
VERTEX
  5
4A8
  8
기본값
 10
-274.5844422222223
 20
421.8448933333333
 30
0.0
  0
VERTEX
  5
4A9
  8
기본값
 10
-284.5728158333334
 20
421.8448933333333
 30
0.0
  0
VERTEX
  5
4AA
  8
기본값
 10
-284.5728158333334
 20
420.3004674999999
 30
0.0
  0
SEQEND
  5
4AB
  8
기본값
  0
POLYLINE
  5
4AC
  8
기본값
 66
     1
 10
0.0
 20
0.0
 30
0.0
  0
VERTEX
  5
4AD
  8
기본값
 10
-252.6119605555556
 20
420.3004674999999
 30
0.0
  0
VERTEX
  5
4AE
  8
기본값
 10
-242.6241161111112
 20
420.3004674999999
 30
0.0
  0
VERTEX
  5
4AF
  8
기본값
 10
-242.6241161111112
 20
421.8893433333333
 30
0.0
  0
VERTEX
  5
4B0
  8
기본값
 10
-252.6119605555556
 20
421.8893433333333
 30
0.0
  0
VERTEX
  5
4B1
  8
기본값
 10
-252.6119605555556
 20
420.3004674999999
 30
0.0
  0
SEQEND
  5
4B2
  8
기본값
  0
CIRCLE
  5
4B3
  8
기본값
 10
-180.6854940522628
 20
465.5998037744852
 30
0.0
 40
6.35
  0
CIRCLE
  5
4B4
  8
기본값
 10
-180.6854940522628
 20
410.5998037744852
 30
0.0
 40
6.35
  0
POLYLINE
  5
4B5
  8
MAKE2D_VISIBLE_LINES
 66
     1
 10
0.0
 20
0.0
 30
0.0
  0
VERTEX
  5
4B6
  8
MAKE2D_VISIBLE_LINES
 10
-152.0
 20
388.1968077777777
 30
0.0
  0
VERTEX
  5
4B7
  8
MAKE2D_VISIBLE_LINES
 10
-228.0000102777778
 20
388.1968077777777
 30
0.0
  0
VERTEX
  5
4B8
  8
MAKE2D_VISIBLE_LINES
 10
-228.0000102777778
 20
488.1968899999999
 30
0.0
  0
VERTEX
  5
4B9
  8
MAKE2D_VISIBLE_LINES
 10
-152.0
 20
488.1968899999999
 30
0.0
  0
VERTEX
  5
4BA
  8
MAKE2D_VISIBLE_LINES
 10
-152.0
 20
388.1968077777777
 30
0.0
  0
SEQEND
  5
4BB
  8
MAKE2D_VISIBLE_LINES
  0
CIRCLE
  5
4BC
  8
기본값
 10
-355.9668004867099
 20
438.7867107623861
 30
0.0
 40
8.25
  0
CIRCLE
  5
4BD
  8
기본값
 10
-355.9668004867099
 20
466.2867107623861
 30
0.0
 40
6.35
  0
CIRCLE
  5
4BE
  8
기본값
 10
-355.9668004867099
 20
411.2867107623861
 30
0.0
 40
6.35
  0
CIRCLE
  5
4BF
  8
기본값
 10
-350.3668004867098
 20
429.0872262400004
 30
0.0
 40
1.6
  0
CIRCLE
  5
4C0
  8
기본값
 10
-350.3668004867099
 20
448.4861952847718
 30
0.0
 40
1.6
  0
CIRCLE
  5
4C1
  8
기본값
 10
-367.1668004867099
 20
438.7867107623861
 30
0.0
 40
1.6
  0
CIRCLE
  5
4C3
  8
LAYER1
 10
2713.39658686436
 20
2674.253518329317
 30
0.0
 40
1.6
  0
CIRCLE
  5
4C4
  8
LAYER1
 10
2703.697102341976
 20
2691.053518329317
 30
0.0
 40
1.6
  0
CIRCLE
  5
4C5
  8
LAYER1
 10
2723.096071386747
 20
2691.053518329317
 30
0.0
 40
1.6
  0
CIRCLE
  5
4C6
  8
LAYER1
 10
2713.396586864361
 20
2685.453518329317
 30
0.0
 40
8.25
  0
LINE
  5
4C7
  8
기본값
 10
2713.396586864361
 20
2685.453518329317
 30
0.0
 11
2723.096071386747
 21
2691.053518329317
 31
0.0
  0
LINE
  5
4C8
  8
기본값
 10
2713.396586864361
 20
2685.453518329317
 30
0.0
 11
2713.39658686436
 21
2674.253518329317
 31
0.0
  0
LINE
  5
4C9
  8
기본값
 10
2713.396586864361
 20
2685.453518329317
 30
0.0
 11
2703.697102341976
 21
2691.053518329317
 31
0.0
  0
DIMENSION
  5
4CA
  8
기본값
  2
*D2
 10
2720.396586864361
 20
2674.253518329317
 30
0.0
 11
2720.396586864361
 21
2679.853518329317
 31
0.0
 70
    32
  1
<>
  3
STANDARD
 13
2713.396586864361
 23
2685.453518329317
 33
0.0
 14
2713.39658686436
 24
2674.253518329317
 34
0.0
 50
90.0
  0
ENDSEC
  0
EOF
