999
dxfrw 0.5.11
0
SECTION
2
HEADER
9
$ACADVER
1
AC1021
9
$HANDSEED
5
20000
9
$DWGCODEPAGE
3
ANSI_1252
9
$INSBASE
10
0
20
0
30
0
9
$EXTMIN
10
0
20
0
30
0
9
$EXTMAX
10
150
20
130
30
0
9
$LIMMIN
10
0
20
0
9
$LIMMAX
10
420
20
297
9
$ORTHOMODE
70
0
9
$LTSCALE
40
1
9
$TEXTSTYLE
7
STANDARD
9
$CLAYER
8
0
9
$DIMASZ
40
2.5
9
$DIMLFAC
40
1
9
$DIMSCALE
40
0.1
9
$DIMEXO
40
0.0625
9
$DIMEXE
40
0.125
9
$DIMTXT
40
5
9
$DIMTSZ
40
0
9
$DIMAUNIT
70
0
9
$DIMADEC
70
2
9
$DIMLUNIT
70
2
9
$DIMSTYLE
2
STANDARD
9
$DIMGAP
40
0.0625
9
$DIMTIH
70
0
9
$LUNITS
70
2
9
$LUPREC
70
4
9
$AUNITS
70
0
9
$AUPREC
70
2
9
$SPLINESEGS
70
8
9
$GRIDMODE
70
1
9
$SNAPSTYLE
70
0
9
$GRIDUNIT
10
0
20
0
9
$PINSBASE
10
0
20
0
30
0
9
$PLIMMIN
10
0
20
0
9
$PLIMMAX
10
21
20
29.7
9
$INSUNITS
70
5
9
$PSVPSCALE
40
1
0
ENDSEC
0
SECTION
2
CLASSES
0
ENDSEC
0
SECTION
2
TABLES
0
TABLE
2
VPORT
5
8
330
0
100
AcDbSymbolTable
70
1
0
VPORT
5
31
330
2
100
AcDbSymbolTableRecord
100
AcDbViewportTableRecord
2
*ACTIVE
70
0
10
0
20
0
11
1
21
1
12
103.24829932
22
66.1054421769
13
0
23
0
14
10
24
10
15
10
25
10
16
0
26
0
36
1
17
0
27
0
37
0
40
134.421768707
41
1.95394736842
42
50
43
0
44
0
50
0
51
0
71
0
72
100
73
1
74
3
75
0
76
1
77
0
78
0
281
0
65
1
110
0
120
0
130
0
111
1
121
0
131
0
112
0
122
1
132
0
79
0
146
0
348
10020
60
7
61
5
292
1
282
1
141
0
142
0
63
250
421
3358443
0
ENDTAB
0
TABLE
2
LTYPE
5
5
330
0
100
AcDbSymbolTable
70
4
0
LTYPE
5
14
330
5
100
AcDbSymbolTableRecord
100
AcDbLinetypeTableRecord
2
ByBlock
70
0
3

72
65
73
0
40
0
0
LTYPE
5
15
330
5
100
AcDbSymbolTableRecord
100
AcDbLinetypeTableRecord
2
ByLayer
70
0
3

72
65
73
0
40
0
0
LTYPE
5
16
330
5
100
AcDbSymbolTableRecord
100
AcDbLinetypeTableRecord
2
Continuous
70
0
3
Solid line
72
65
73
0
40
0
0
LTYPE
5
32
330
5
100
AcDbSymbolTableRecord
100
AcDbLinetypeTableRecord
2
DOT
70
0
3
Dot . . . . . . . . . . . . . . . . . . . . . .
72
65
73
2
40
6.35
49
0
74
0
49
-6.35
74
0
0
LTYPE
5
33
330
5
100
AcDbSymbolTableRecord
100
AcDbLinetypeTableRecord
2
DOT2
70
0
3
Dot (.5x) .....................................
72
65
73
2
40
3.175
49
0
74
0
49
-3.175
74
0
0
LTYPE
5
34
330
5
100
AcDbSymbolTableRecord
100
AcDbLinetypeTableRecord
2
DOTX2
70
0
3
Dot (2x) .  .  .  .  .  .  .  .  .  .  .  .  .
72
65
73
2
40
12.7
49
0
74
0
49
-12.7
74
0
0
LTYPE
5
35
330
5
100
AcDbSymbolTableRecord
100
AcDbLinetypeTableRecord
2
DASHED
70
0
3
Dot . . . . . . . . . . . . . . . . . . . . . .
72
65
73
2
40
19.05
49
12.7
74
0
49
-6.35
74
0
0
LTYPE
5
36
330
5
100
AcDbSymbolTableRecord
100
AcDbLinetypeTableRecord
2
DASHED2
70
0
3
Dashed (.5x) _ _ _ _ _ _ _ _ _ _ _ _ _ _ _ _ _
72
65
73
2
40
9.525
49
6.35
74
0
49
-3.175
74
0
0
LTYPE
5
37
330
5
100
AcDbSymbolTableRecord
100
AcDbLinetypeTableRecord
2
DASHEDX2
70
0
3
Dashed (2x) ____  ____  ____  ____  ____  ___
72
65
73
2
40
38.1
49
25.4
74
0
49
-12.7
74
0
0
LTYPE
5
38
330
5
100
AcDbSymbolTableRecord
100
AcDbLinetypeTableRecord
2
DASHDOT
70
0
3
Dash dot __ . __ . __ . __ . __ . __ . __ . __
72
65
73
4
40
25.4
49
12.7
74
0
49
-6.35
74
0
49
0
74
0
49
-6.35
74
0
0
LTYPE
5
39
330
5
100
AcDbSymbolTableRecord
100
AcDbLinetypeTableRecord
2
DASHDOT2
70
0
3
Dash dot (.5x) _._._._._._._._._._._._._._._.
72
65
73
4
40
12.7
49
6.35
74
0
49
-3.175
74
0
49
0
74
0
49
-3.175
74
0
0
LTYPE
5
3A
330
5
100
AcDbSymbolTableRecord
100
AcDbLinetypeTableRecord
2
DASHDOTX2
70
0
3
Dash dot (2x) ____  .  ____  .  ____  .  ___
72
65
73
4
40
50.8
49
25.4
74
0
49
-12.7
74
0
49
0
74
0
49
-12.7
74
0
0
LTYPE
5
3B
330
5
100
AcDbSymbolTableRecord
100
AcDbLinetypeTableRecord
2
DIVIDE
70
0
3
Divide ____ . . ____ . . ____ . . ____ . . ____
72
65
73
6
40
31.75
49
12.7
74
0
49
-6.35
74
0
49
0
74
0
49
-6.35
74
0
49
0
74
0
49
-6.35
74
0
0
LTYPE
5
3C
330
5
100
AcDbSymbolTableRecord
100
AcDbLinetypeTableRecord
2
DIVIDE2
70
0
3
Divide (.5x) __..__..__..__..__..__..__..__.._
72
65
73
6
40
15.875
49
6.35
74
0
49
-3.175
74
0
49
0
74
0
49
-3.175
74
0
49
0
74
0
49
-3.175
74
0
0
LTYPE
5
3D
330
5
100
AcDbSymbolTableRecord
100
AcDbLinetypeTableRecord
2
DIVIDEX2
70
0
3
Divide (2x) ________  .  .  ________  .  .  _
72
65
73
6
40
63.5
49
25.4
74
0
49
-12.7
74
0
49
0
74
0
49
-12.7
74
0
49
0
74
0
49
-12.7
74
0
0
LTYPE
5
3E
330
5
100
AcDbSymbolTableRecord
100
AcDbLinetypeTableRecord
2
BORDER
70
0
3
Border __ __ . __ __ . __ __ . __ __ . __ __ .
72
65
73
6
40
44.45
49
12.7
74
0
49
-6.35
74
0
49
12.7
74
0
49
-6.35
74
0
49
0
74
0
49
-6.35
74
0
0
LTYPE
5
3F
330
5
100
AcDbSymbolTableRecord
100
AcDbLinetypeTableRecord
2
BORDER2
70
0
3
Border (.5x) __.__.__.__.__.__.__.__.__.__.__.
72
65
73
6
40
22.225
49
6.35
74
0
49
-3.175
74
0
49
6.35
74
0
49
-3.175
74
0
49
0
74
0
49
-3.175
74
0
0
LTYPE
5
40
330
5
100
AcDbSymbolTableRecord
100
AcDbLinetypeTableRecord
2
BORDERX2
70
0
3
Border (2x) ____  ____  .  ____  ____  .  ___
72
65
73
6
40
88.9
49
25.4
74
0
49
-12.7
74
0
49
25.4
74
0
49
-12.7
74
0
49
0
74
0
49
-12.7
74
0
0
LTYPE
5
41
330
5
100
AcDbSymbolTableRecord
100
AcDbLinetypeTableRecord
2
CENTER
70
0
3
Center ____ _ ____ _ ____ _ ____ _ ____ _ ____
72
65
73
4
40
50.8
49
31.75
74
0
49
-6.35
74
0
49
6.35
74
0
49
-6.35
74
0
0
LTYPE
5
42
330
5
100
AcDbSymbolTableRecord
100
AcDbLinetypeTableRecord
2
CENTER2
70
0
3
Center (.5x) ___ _ ___ _ ___ _ ___ _ ___ _ ___
72
65
73
4
40
28.575
49
19.05
74
0
49
-3.175
74
0
49
3.175
74
0
49
-3.175
74
0
0
LTYPE
5
43
330
5
100
AcDbSymbolTableRecord
100
AcDbLinetypeTableRecord
2
CENTERX2
70
0
3
Center (2x) ________  __  ________  __  _____
72
65
73
4
40
101.6
49
63.5
74
0
49
-12.7
74
0
49
12.7
74
0
49
-12.7
74
0
0
ENDTAB
0
TABLE
2
LAYER
5
2
330
0
100
AcDbSymbolTable
70
1
0
LAYER
5
10
330
2
100
AcDbSymbolTableRecord
100
AcDbLayerTableRecord
2
0
70
0
62
7
6
CONTINUOUS
370
0
390
F
0
LAYER
5
44
330
2
100
AcDbSymbolTableRecord
100
AcDbLayerTableRecord
2
Dimension
70
0
62
1
6
CONTINUOUS
370
0
390
F
0
LAYER
5
45
330
2
100
AcDbSymbolTableRecord
100
AcDbLayerTableRecord
2
Projection
70
0
62
4
6
DASHDOT
370
9
390
F
0
ENDTAB
0
TABLE
2
STYLE
5
3
330
0
100
AcDbSymbolTable
70
3
0
STYLE
5
46
330
2
100
AcDbSymbolTableRecord
100
AcDbTextStyleTableRecord
2
Standard
70
0
40
0
41
1
50
0
71
0
42
1
3
txt
4

0
ENDTAB
0
TABLE
2
VIEW
5
6
330
0
100
AcDbSymbolTable
70
0
0
ENDTAB
0
TABLE
2
UCS
5
7
330
0
100
AcDbSymbolTable
70
0
0
ENDTAB
0
TABLE
2
APPID
5
9
330
0
100
AcDbSymbolTable
70
1
0
APPID
5
12
330
9
100
AcDbSymbolTableRecord
100
AcDbRegAppTableRecord
2
ACAD
70
0
0
ENDTAB
0
TABLE
2
DIMSTYLE
5
A
330
0
100
AcDbSymbolTable
70
1
100
AcDbDimStyleTable
71
1
0
DIMSTYLE
105
47
330
A
100
AcDbSymbolTableRecord
100
AcDbDimStyleTableRecord
2
Standard
70
0
40
1
41
2.5
42
0.0625
43
0.38
44
0.125
45
0
46
0
47
0
48
0
140
5
141
0.09
142
0
143
25.4
144
1
145
0
146
1
147
0.0625
148
0
71
0
72
0
73
0
74
1
75
0
76
0
77
0
78
0
79
0
170
0
171
2
172
0
173
0
174
0
175
0
176
0
177
0
178
0
179
0
271
4
272
4
273
2
274
2
275
0
276
0
277
2
278
46
279
0
280
0
281
0
282
0
283
1
284
0
285
0
286
0
288
0
289
3
340
Standard
341

371
-2
372
-2
0
ENDTAB
0
TABLE
2
BLOCK_RECORD
5
1
330
0
100
AcDbSymbolTable
70
2
0
BLOCK_RECORD
5
1F
330
1
100
AcDbSymbolTableRecord
100
AcDbBlockTableRecord
2
*Model_Space
70
0
280
1
281
0
0
BLOCK_RECORD
5
1E
330
1
100
AcDbSymbolTableRecord
100
AcDbBlockTableRecord
2
*Paper_Space
70
0
280
1
281
0
0
BLOCK_RECORD
5
48
330
1
100
AcDbSymbolTableRecord
100
AcDbBlockTableRecord
2
*D4
70
0
280
1
281
0
0
BLOCK_RECORD
5
4B
330
1
100
AcDbSymbolTableRecord
100
AcDbBlockTableRecord
2
*D5
70
0
280
1
281
0
0
BLOCK_RECORD
5
4E
330
1
100
AcDbSymbolTableRecord
100
AcDbBlockTableRecord
2
*D16
70
0
280
1
281
0
0
BLOCK_RECORD
5
51
330
1
100
AcDbSymbolTableRecord
100
AcDbBlockTableRecord
2
*D11
70
0
280
1
281
0
0
BLOCK_RECORD
5
54
330
1
100
AcDbSymbolTableRecord
100
AcDbBlockTableRecord
2
*D12
70
0
280
1
281
0
0
BLOCK_RECORD
5
57
330
1
100
AcDbSymbolTableRecord
100
AcDbBlockTableRecord
2
*D6
70
0
280
1
281
0
0
BLOCK_RECORD
5
5A
330
1
100
AcDbSymbolTableRecord
100
AcDbBlockTableRecord
2
*D14
70
0
280
1
281
0
0
BLOCK_RECORD
5
5D
330
1
100
AcDbSymbolTableRecord
100
AcDbBlockTableRecord
2
*D9
70
0
280
1
281
0
0
BLOCK_RECORD
5
60
330
1
100
AcDbSymbolTableRecord
100
AcDbBlockTableRecord
2
*D13
70
0
280
1
281
0
0
BLOCK_RECORD
5
63
330
1
100
AcDbSymbolTableRecord
100
AcDbBlockTableRecord
2
*D15
70
0
280
1
281
0
0
BLOCK_RECORD
5
66
330
1
100
AcDbSymbolTableRecord
100
AcDbBlockTableRecord
2
*D2
70
0
280
1
281
0
0
BLOCK_RECORD
5
69
330
1
100
AcDbSymbolTableRecord
100
AcDbBlockTableRecord
2
*D7
70
0
280
1
281
0
0
BLOCK_RECORD
5
6C
330
1
100
AcDbSymbolTableRecord
100
AcDbBlockTableRecord
2
*D1
70
0
280
1
281
0
0
BLOCK_RECORD
5
6F
330
1
100
AcDbSymbolTableRecord
100
AcDbBlockTableRecord
2
*D10
70
0
280
1
281
0
0
BLOCK_RECORD
5
72
330
1
100
AcDbSymbolTableRecord
100
AcDbBlockTableRecord
2
*D8
70
0
280
1
281
0
0
BLOCK_RECORD
5
75
330
1
100
AcDbSymbolTableRecord
100
AcDbBlockTableRecord
2
*D3
70
0
280
1
281
0
0
ENDTAB
0
ENDSEC
0
SECTION
2
BLOCKS
0
BLOCK
5
20
330
1F
100
AcDbEntity
8
0
100
AcDbBlockBegin
2
*Model_Space
70
0
10
0
20
0
30
0
3
*Model_Space
1

0
ENDBLK
5
21
330
1F
100
AcDbEntity
8
0
100
AcDbBlockEnd
0
BLOCK
5
1C
330
1B
100
AcDbEntity
8
0
100
AcDbBlockBegin
2
*Paper_Space
70
0
10
0
20
0
30
0
3
*Paper_Space
1

0
ENDBLK
5
1D
330
1F
100
AcDbEntity
8
0
100
AcDbBlockEnd
0
BLOCK
5
49
330
48
100
AcDbEntity
8
0
100
AcDbBlockBegin
2
*D4
70
1
10
0
20
0
3
*D4
1

0
LINE
5
78
100
AcDbEntity
8
Dimension
6
CONTINUOUS
62
7
370
0
100
AcDbLine
10
61
20
20.5
11
61
21
23
0
SOLID
5
79
100
AcDbEntity
8
Dimension
6
CONTINUOUS
62
7
370
0
100
AcDbTrace
10
61
20
20.5
30
0
11
60.9583715342
21
20.75
31
0
12
61.0416284658
22
20.75
32
0
13
61.0416284658
23
20.75
33
0
0
SOLID
5
7A
100
AcDbEntity
8
Dimension
6
CONTINUOUS
62
7
370
0
100
AcDbTrace
10
61
20
23
30
0
11
61.0416284658
21
22.75
31
0
12
60.9583715342
22
22.75
32
0
13
60.9583715342
23
22.75
33
0
0
MTEXT
5
7B
100
AcDbEntity
8
Dimension
6
CONTINUOUS
62
7
370
0
100
AcDbMText
10
60.74375
20
21.75
30
0
40
0.5
41
0.777777777778
71
5
72
1
1
2.5
7
standard
210
0
220
0
230
1
50
90
73
2
44
1
0
LINE
5
7C
100
AcDbEntity
8
Dimension
6
CONTINUOUS
62
7
370
0
100
AcDbLine
10
47.50625
20
20.5
11
61.0125
21
20.5
0
LINE
5
7D
100
AcDbEntity
8
Dimension
6
CONTINUOUS
62
7
370
0
100
AcDbLine
10
50.00625
20
23
11
61.0125
21
23
0
ENDBLK
5
4A
330
48
100
AcDbEntity
8
0
100
AcDbBlockEnd
0
BLOCK
5
4C
330
4B
100
AcDbEntity
8
0
100
AcDbBlockBegin
2
*D5
70
1
10
0
20
0
3
*D5
1

0
LINE
5
7E
100
AcDbEntity
8
Dimension
6
CONTINUOUS
62
7
370
0
100
AcDbLine
10
62
20
20.5
11
62
21
33
0
SOLID
5
7F
100
AcDbEntity
8
Dimension
6
CONTINUOUS
62
7
370
0
100
AcDbTrace
10
62
20
20.5
30
0
11
61.9583715342
21
20.75
31
0
12
62.0416284658
22
20.75
32
0
13
62.0416284658
23
20.75
33
0
0
SOLID
5
80
100
AcDbEntity
8
Dimension
6
CONTINUOUS
62
7
370
0
100
AcDbTrace
10
62
20
33
30
0
11
62.0416284658
21
32.75
31
0
12
61.9583715342
22
32.75
32
0
13
61.9583715342
23
32.75
33
0
0
MTEXT
5
81
100
AcDbEntity
8
Dimension
6
CONTINUOUS
62
7
370
0
100
AcDbMText
10
61.74375
20
26.75
30
0
40
0.5
41
1.05555555556
71
5
72
1
1
12.5
7
standard
210
0
220
0
230
1
50
90
73
2
44
1
0
LINE
5
82
100
AcDbEntity
8
Dimension
6
CONTINUOUS
62
7
370
0
100
AcDbLine
10
47.50625
20
20.5
11
62.0125
21
20.5
0
LINE
5
83
100
AcDbEntity
8
Dimension
6
CONTINUOUS
62
7
370
0
100
AcDbLine
10
60.00625
20
33
11
62.0125
21
33
0
ENDBLK
5
4D
330
4B
100
AcDbEntity
8
0
100
AcDbBlockEnd
0
BLOCK
5
4F
330
4E
100
AcDbEntity
8
0
100
AcDbBlockBegin
2
*D16
70
1
10
0
20
0
3
*D16
1

0
SOLID
5
84
100
AcDbEntity
8
Dimension
6
CONTINUOUS
62
7
370
0
100
AcDbTrace
10
60
20
100.5
30
0
11
59.75
21
100.458371534
31
0
12
59.75
22
100.541628466
32
0
13
59.75
23
100.541628466
33
0
0
LINE
5
85
100
AcDbEntity
8
Dimension
6
CONTINUOUS
62
7
370
0
100
AcDbLine
10
40
20
100.5
11
60
21
100.5
0
MTEXT
5
86
100
AcDbEntity
8
Dimension
6
CONTINUOUS
62
7
370
0
100
AcDbMText
10
50
20
100.75625
30
0
40
0.5
41
0.611111111111
71
5
72
1
1
20
7
standard
210
0
220
0
230
1
50
0
73
2
44
1
0
ENDBLK
5
50
330
4E
100
AcDbEntity
8
0
100
AcDbBlockEnd
0
BLOCK
5
52
330
51
100
AcDbEntity
8
0
100
AcDbBlockBegin
2
*D11
70
1
10
0
20
0
3
*D11
1

0
LINE
5
87
100
AcDbEntity
8
Dimension
6
CONTINUOUS
62
7
370
0
100
AcDbLine
10
20
20
50.5
11
30
21
50.5
0
SOLID
5
88
100
AcDbEntity
8
Dimension
6
CONTINUOUS
62
7
370
0
100
AcDbTrace
10
20
20
50.5
30
0
11
20.25
21
50.5416284658
31
0
12
20.25
22
50.4583715342
32
0
13
20.25
23
50.4583715342
33
0
0
SOLID
5
89
100
AcDbEntity
8
Dimension
6
CONTINUOUS
62
7
370
0
100
AcDbTrace
10
30
20
50.5
30
0
11
29.75
21
50.4583715342
31
0
12
29.75
22
50.5416284658
32
0
13
29.75
23
50.5416284658
33
0
0
MTEXT
5
8A
100
AcDbEntity
8
Dimension
6
CONTINUOUS
62
7
370
0
100
AcDbMText
10
25
20
50.75625
30
0
40
0.5
41
0.5
71
5
72
1
1
10
7
standard
210
0
220
0
230
1
50
0
73
2
44
1
0
LINE
5
8B
100
AcDbEntity
8
Dimension
6
CONTINUOUS
62
7
370
0
100
AcDbLine
10
20
20
33.00625
11
20
21
50.5125
0
LINE
5
8C
100
AcDbEntity
8
Dimension
6
CONTINUOUS
62
7
370
0
100
AcDbLine
10
30
20
33.00625
11
30
21
50.5125
0
ENDBLK
5
53
330
51
100
AcDbEntity
8
0
100
AcDbBlockEnd
0
BLOCK
5
55
330
54
100
AcDbEntity
8
0
100
AcDbBlockBegin
2
*D12
70
1
10
0
20
0
3
*D12
1

0
LINE
5
8D
100
AcDbEntity
8
Dimension
6
CONTINUOUS
62
7
370
0
100
AcDbLine
10
30
20
50.5
11
40
21
50.5
0
SOLID
5
8E
100
AcDbEntity
8
Dimension
6
CONTINUOUS
62
7
370
0
100
AcDbTrace
10
30
20
50.5
30
0
11
30.25
21
50.5416284658
31
0
12
30.25
22
50.4583715342
32
0
13
30.25
23
50.4583715342
33
0
0
SOLID
5
8F
100
AcDbEntity
8
Dimension
6
CONTINUOUS
62
7
370
0
100
AcDbTrace
10
40
20
50.5
30
0
11
39.75
21
50.4583715342
31
0
12
39.75
22
50.5416284658
32
0
13
39.75
23
50.5416284658
33
0
0
MTEXT
5
90
100
AcDbEntity
8
Dimension
6
CONTINUOUS
62
7
370
0
100
AcDbMText
10
35
20
50.75625
30
0
40
0.5
41
0.5
71
5
72
1
1
10
7
standard
210
0
220
0
230
1
50
0
73
2
44
1
0
LINE
5
91
100
AcDbEntity
8
Dimension
6
CONTINUOUS
62
7
370
0
100
AcDbLine
10
30
20
33.00625
11
30
21
50.5125
0
LINE
5
92
100
AcDbEntity
8
Dimension
6
CONTINUOUS
62
7
370
0
100
AcDbLine
10
40
20
33.00625
11
40
21
50.5125
0
ENDBLK
5
56
330
54
100
AcDbEntity
8
0
100
AcDbBlockEnd
0
BLOCK
5
58
330
57
100
AcDbEntity
8
0
100
AcDbBlockBegin
2
*D6
70
1
10
0
20
0
3
*D6
1

0
LINE
5
93
100
AcDbEntity
8
Dimension
6
CONTINUOUS
62
7
370
0
100
AcDbLine
10
63
20
20.5
11
63
21
43
0
SOLID
5
94
100
AcDbEntity
8
Dimension
6
CONTINUOUS
62
7
370
0
100
AcDbTrace
10
63
20
20.5
30
0
11
62.9583715342
21
20.75
31
0
12
63.0416284658
22
20.75
32
0
13
63.0416284658
23
20.75
33
0
0
SOLID
5
95
100
AcDbEntity
8
Dimension
6
CONTINUOUS
62
7
370
0
100
AcDbTrace
10
63
20
43
30
0
11
63.0416284658
21
42.75
31
0
12
62.9583715342
22
42.75
32
0
13
62.9583715342
23
42.75
33
0
0
MTEXT
5
96
100
AcDbEntity
8
Dimension
6
CONTINUOUS
62
7
370
0
100
AcDbMText
10
62.74375
20
31.75
30
0
40
0.5
41
1.16666666667
71
5
72
1
1
22.5
7
standard
210
0
220
0
230
1
50
90
73
2
44
1
0
LINE
5
97
100
AcDbEntity
8
Dimension
6
CONTINUOUS
62
7
370
0
100
AcDbLine
10
47.50625
20
20.5
11
63.0125
21
20.5
0
LINE
5
98
100
AcDbEntity
8
Dimension
6
CONTINUOUS
62
7
370
0
100
AcDbLine
10
50.00625
20
43
11
63.0125
21
43
0
ENDBLK
5
59
330
57
100
AcDbEntity
8
0
100
AcDbBlockEnd
0
BLOCK
5
5B
330
5A
100
AcDbEntity
8
0
100
AcDbBlockBegin
2
*D14
70
1
10
0
20
0
3
*D14
1

0
SOLID
5
99
100
AcDbEntity
8
Dimension
6
CONTINUOUS
62
7
370
0
100
AcDbTrace
10
45.7616604978
20
105.301383824
30
0
11
45.5962550362
21
105.109357882
31
0
12
45.5429552595
22
105.173317638
32
0
13
45.5429552595
23
105.173317638
33
0
0
LINE
5
9A
100
AcDbEntity
8
Dimension
6
CONTINUOUS
62
7
370
0
100
AcDbLine
10
40
20
100.500001907
11
45.7616604978
21
105.301383824
0
MTEXT
5
9B
100
AcDbEntity
8
Dimension
6
CONTINUOUS
62
7
370
0
100
AcDbMText
10
42.7167830334
20
103.097549599
30
0
40
0.5
41
0.777777777778
71
5
72
1
1
7.5
7
standard
210
0
220
0
230
1
50
39.8055603432
73
2
44
1
0
ENDBLK
5
5C
330
5A
100
AcDbEntity
8
0
100
AcDbBlockEnd
0
BLOCK
5
5E
330
5D
100
AcDbEntity
8
0
100
AcDbBlockBegin
2
*D9
70
1
10
0
20
0
3
*D9
1

0
LINE
5
9C
100
AcDbEntity
8
Dimension
6
CONTINUOUS
62
7
370
0
100
AcDbLine
10
30
20
49.5
11
35
21
49.5
0
SOLID
5
9D
100
AcDbEntity
8
Dimension
6
CONTINUOUS
62
7
370
0
100
AcDbTrace
10
30
20
49.5
30
0
11
30.25
21
49.5416284658
31
0
12
30.25
22
49.4583715342
32
0
13
30.25
23
49.4583715342
33
0
0
SOLID
5
9E
100
AcDbEntity
8
Dimension
6
CONTINUOUS
62
7
370
0
100
AcDbTrace
10
35
20
49.5
30
0
11
34.75
21
49.4583715342
31
0
12
34.75
22
49.5416284658
32
0
13
34.75
23
49.5416284658
33
0
0
MTEXT
5
9F
100
AcDbEntity
8
Dimension
6
CONTINUOUS
62
7
370
0
100
AcDbMText
10
32.5
20
49.75625
30
0
40
0.5
41
0.222222222222
71
5
72
1
1
5
7
standard
210
0
220
0
230
1
50
0
73
2
44
1
0
LINE
5
A0
100
AcDbEntity
8
Dimension
6
CONTINUOUS
62
7
370
0
100
AcDbLine
10
30
20
43.00625
11
30
21
49.5125
0
LINE
5
A1
100
AcDbEntity
8
Dimension
6
CONTINUOUS
62
7
370
0
100
AcDbLine
10
35
20
43.00625
11
35
21
49.5125
0
ENDBLK
5
5F
330
5D
100
AcDbEntity
8
0
100
AcDbBlockEnd
0
BLOCK
5
61
330
60
100
AcDbEntity
8
0
100
AcDbBlockBegin
2
*D13
70
1
10
0
20
0
3
*D13
1

0
SOLID
5
A2
100
AcDbEntity
8
Dimension
6
CONTINUOUS
62
7
370
0
100
AcDbTrace
10
41.8569536871
20
105.142384286
30
0
11
41.8027570619
21
104.894804693
31
0
12
41.7254549436
22
104.925725546
32
0
13
41.7254549436
23
104.925725546
33
0
0
LINE
5
A3
100
AcDbEntity
8
Dimension
6
CONTINUOUS
62
7
370
0
100
AcDbLine
10
40
20
100.500000954
11
41.8569536871
21
105.142384286
0
MTEXT
5
A4
100
AcDbEntity
8
Dimension
6
CONTINUOUS
62
7
370
0
100
AcDbMText
10
40.6905546978
20
102.916361496
30
0
40
0.5
41
0.222222222222
71
5
72
1
1
5
7
standard
210
0
220
0
230
1
50
68.1985867453
73
2
44
1
0
ENDBLK
5
62
330
60
100
AcDbEntity
8
0
100
AcDbBlockEnd
0
BLOCK
5
64
330
63
100
AcDbEntity
8
0
100
AcDbBlockBegin
2
*D15
70
1
10
0
20
0
3
*D15
1

0
SOLID
5
A5
100
AcDbEntity
8
Dimension
6
CONTINUOUS
62
7
370
0
100
AcDbTrace
10
49.4868329805
20
103.66227766
30
0
11
49.2628262327
21
103.543728488
31
0
12
49.2364980793
22
103.622712949
32
0
13
49.2364980793
23
103.622712949
33
0
0
LINE
5
A6
100
AcDbEntity
8
Dimension
6
CONTINUOUS
62
7
370
0
100
AcDbLine
10
40
20
100.5
11
49.4868329805
21
103.66227766
0
MTEXT
5
A7
100
AcDbEntity
8
Dimension
6
CONTINUOUS
62
7
370
0
100
AcDbMText
10
44.6623831252
20
102.324238925
30
0
40
0.5
41
0.5
71
5
72
1
1
10
7
standard
210
0
220
0
230
1
50
18.4349488229
73
2
44
1
0
ENDBLK
5
65
330
63
100
AcDbEntity
8
0
100
AcDbBlockEnd
0
BLOCK
5
67
330
66
100
AcDbEntity
8
0
100
AcDbBlockBegin
2
*D2
70
1
10
0
20
0
3
*D2
1

0
LINE
5
A8
100
AcDbEntity
8
Dimension
6
CONTINUOUS
62
7
370
0
100
AcDbLine
10
30
20
18.5
11
50
21
18.5
0
SOLID
5
A9
100
AcDbEntity
8
Dimension
6
CONTINUOUS
62
7
370
0
100
AcDbTrace
10
30
20
18.5
30
0
11
30.25
21
18.5416284658
31
0
12
30.25
22
18.4583715342
32
0
13
30.25
23
18.4583715342
33
0
0
SOLID
5
AA
100
AcDbEntity
8
Dimension
6
CONTINUOUS
62
7
370
0
100
AcDbTrace
10
50
20
18.5
30
0
11
49.75
21
18.4583715342
31
0
12
49.75
22
18.5416284658
32
0
13
49.75
23
18.5416284658
33
0
0
MTEXT
5
AB
100
AcDbEntity
8
Dimension
6
CONTINUOUS
62
7
370
0
100
AcDbMText
10
40
20
18.75625
30
0
40
0.5
41
0.611111111111
71
5
72
1
1
20
7
standard
210
0
220
0
230
1
50
0
73
2
44
1
0
LINE
5
AC
100
AcDbEntity
8
Dimension
6
CONTINUOUS
62
7
370
0
100
AcDbLine
10
30
20
22.99375
11
30
21
18.4875
0
LINE
5
AD
100
AcDbEntity
8
Dimension
6
CONTINUOUS
62
7
370
0
100
AcDbLine
10
50
20
22.99375
11
50
21
18.4875
0
ENDBLK
5
68
330
66
100
AcDbEntity
8
0
100
AcDbBlockEnd
0
BLOCK
5
6A
330
69
100
AcDbEntity
8
0
100
AcDbBlockBegin
2
*D7
70
1
10
0
20
0
3
*D7
1

0
LINE
5
AE
100
AcDbEntity
8
Dimension
6
CONTINUOUS
62
7
370
0
100
AcDbLine
10
63
20
43
11
63
21
48
0
SOLID
5
AF
100
AcDbEntity
8
Dimension
6
CONTINUOUS
62
7
370
0
100
AcDbTrace
10
63
20
43
30
0
11
62.9583715342
21
43.25
31
0
12
63.0416284658
22
43.25
32
0
13
63.0416284658
23
43.25
33
0
0
SOLID
5
B0
100
AcDbEntity
8
Dimension
6
CONTINUOUS
62
7
370
0
100
AcDbTrace
10
63
20
48
30
0
11
63.0416284658
21
47.75
31
0
12
62.9583715342
22
47.75
32
0
13
62.9583715342
23
47.75
33
0
0
MTEXT
5
B1
100
AcDbEntity
8
Dimension
6
CONTINUOUS
62
7
370
0
100
AcDbMText
10
62.74375
20
45.5
30
0
40
0.5
41
0.222222222222
71
5
72
1
1
5
7
standard
210
0
220
0
230
1
50
90
73
2
44
1
0
LINE
5
B2
100
AcDbEntity
8
Dimension
6
CONTINUOUS
62
7
370
0
100
AcDbLine
10
50.00625
20
43
11
63.0125
21
43
0
LINE
5
B3
100
AcDbEntity
8
Dimension
6
CONTINUOUS
62
7
370
0
100
AcDbLine
10
40.00625
20
48
11
63.0125
21
48
0
ENDBLK
5
6B
330
69
100
AcDbEntity
8
0
100
AcDbBlockEnd
0
BLOCK
5
6D
330
6C
100
AcDbEntity
8
0
100
AcDbBlockBegin
2
*D1
70
1
10
0
20
0
3
*D1
1

0
LINE
5
B4
100
AcDbEntity
8
Dimension
6
CONTINUOUS
62
7
370
0
100
AcDbLine
10
32.5
20
19.5
11
47.5
21
19.5
0
SOLID
5
B5
100
AcDbEntity
8
Dimension
6
CONTINUOUS
62
7
370
0
100
AcDbTrace
10
32.5
20
19.5
30
0
11
32.75
21
19.5416284658
31
0
12
32.75
22
19.4583715342
32
0
13
32.75
23
19.4583715342
33
0
0
SOLID
5
B6
100
AcDbEntity
8
Dimension
6
CONTINUOUS
62
7
370
0
100
AcDbTrace
10
47.5
20
19.5
30
0
11
47.25
21
19.4583715342
31
0
12
47.25
22
19.5416284658
32
0
13
47.25
23
19.5416284658
33
0
0
MTEXT
5
B7
100
AcDbEntity
8
Dimension
6
CONTINUOUS
62
7
370
0
100
AcDbMText
10
40
20
19.75625
30
0
40
0.5
41
0.5
71
5
72
1
1
15
7
standard
210
0
220
0
230
1
50
0
73
2
44
1
0
LINE
5
B8
100
AcDbEntity
8
Dimension
6
CONTINUOUS
62
7
370
0
100
AcDbLine
10
32.5
20
20.49375
11
32.5
21
19.4875
0
LINE
5
B9
100
AcDbEntity
8
Dimension
6
CONTINUOUS
62
7
370
0
100
AcDbLine
10
47.5
20
20.49375
11
47.5
21
19.4875
0
ENDBLK
5
6E
330
6C
100
AcDbEntity
8
0
100
AcDbBlockEnd
0
BLOCK
5
70
330
6F
100
AcDbEntity
8
0
100
AcDbBlockBegin
2
*D10
70
1
10
0
20
0
3
*D10
1

0
LINE
5
BA
100
AcDbEntity
8
Dimension
6
CONTINUOUS
62
7
370
0
100
AcDbLine
10
35
20
49.5
11
40
21
49.5
0
SOLID
5
BB
100
AcDbEntity
8
Dimension
6
CONTINUOUS
62
7
370
0
100
AcDbTrace
10
35
20
49.5
30
0
11
35.25
21
49.5416284658
31
0
12
35.25
22
49.4583715342
32
0
13
35.25
23
49.4583715342
33
0
0
SOLID
5
BC
100
AcDbEntity
8
Dimension
6
CONTINUOUS
62
7
370
0
100
AcDbTrace
10
40
20
49.5
30
0
11
39.75
21
49.4583715342
31
0
12
39.75
22
49.5416284658
32
0
13
39.75
23
49.5416284658
33
0
0
MTEXT
5
BD
100
AcDbEntity
8
Dimension
6
CONTINUOUS
62
7
370
0
100
AcDbMText
10
37.5
20
49.75625
30
0
40
0.5
41
0.222222222222
71
5
72
1
1
5
7
standard
210
0
220
0
230
1
50
0
73
2
44
1
0
LINE
5
BE
100
AcDbEntity
8
Dimension
6
CONTINUOUS
62
7
370
0
100
AcDbLine
10
35
20
43.00625
11
35
21
49.5125
0
LINE
5
BF
100
AcDbEntity
8
Dimension
6
CONTINUOUS
62
7
370
0
100
AcDbLine
10
40
20
43.00625
11
40
21
49.5125
0
ENDBLK
5
71
330
6F
100
AcDbEntity
8
0
100
AcDbBlockEnd
0
BLOCK
5
73
330
72
100
AcDbEntity
8
0
100
AcDbBlockBegin
2
*D8
70
1
10
0
20
0
3
*D8
1

0
LINE
5
C0
100
AcDbEntity
8
Dimension
6
CONTINUOUS
62
7
370
0
100
AcDbLine
10
60
20
38
11
60
21
43
0
SOLID
5
C1
100
AcDbEntity
8
Dimension
6
CONTINUOUS
62
7
370
0
100
AcDbTrace
10
60
20
38
30
0
11
59.9583715342
21
38.25
31
0
12
60.0416284658
22
38.25
32
0
13
60.0416284658
23
38.25
33
0
0
SOLID
5
C2
100
AcDbEntity
8
Dimension
6
CONTINUOUS
62
7
370
0
100
AcDbTrace
10
60
20
43
30
0
11
60.0416284658
21
42.75
31
0
12
59.9583715342
22
42.75
32
0
13
59.9583715342
23
42.75
33
0
0
MTEXT
5
C3
100
AcDbEntity
8
Dimension
6
CONTINUOUS
62
7
370
0
100
AcDbMText
10
59.74375
20
40.5
30
0
40
0.5
41
0.222222222222
71
5
72
1
1
5
7
standard
210
0
220
0
230
1
50
90
73
2
44
1
0
LINE
5
C4
100
AcDbEntity
8
Dimension
6
CONTINUOUS
62
7
370
0
100
AcDbLine
10
45.00625
20
38
11
60.0125
21
38
0
LINE
5
C5
100
AcDbEntity
8
Dimension
6
CONTINUOUS
62
7
370
0
100
AcDbLine
10
50.00625
20
43
11
60.0125
21
43
0
ENDBLK
5
74
330
72
100
AcDbEntity
8
0
100
AcDbBlockEnd
0
BLOCK
5
76
330
75
100
AcDbEntity
8
0
100
AcDbBlockBegin
2
*D3
70
1
10
0
20
0
3
*D3
1

0
LINE
5
C6
100
AcDbEntity
8
Dimension
6
CONTINUOUS
62
7
370
0
100
AcDbLine
10
20
20
17.5
11
60
21
17.5
0
SOLID
5
C7
100
AcDbEntity
8
Dimension
6
CONTINUOUS
62
7
370
0
100
AcDbTrace
10
20
20
17.5
30
0
11
20.25
21
17.5416284658
31
0
12
20.25
22
17.4583715342
32
0
13
20.25
23
17.4583715342
33
0
0
SOLID
5
C8
100
AcDbEntity
8
Dimension
6
CONTINUOUS
62
7
370
0
100
AcDbTrace
10
60
20
17.5
30
0
11
59.75
21
17.4583715342
31
0
12
59.75
22
17.5416284658
32
0
13
59.75
23
17.5416284658
33
0
0
MTEXT
5
C9
100
AcDbEntity
8
Dimension
6
CONTINUOUS
62
7
370
0
100
AcDbMText
10
40
20
17.75625
30
0
40
0.5
41
0.666666666667
71
5
72
1
1
40
7
standard
210
0
220
0
230
1
50
0
73
2
44
1
0
LINE
5
CA
100
AcDbEntity
8
Dimension
6
CONTINUOUS
62
7
370
0
100
AcDbLine
10
20
20
32.99375
11
20
21
17.4875
0
LINE
5
CB
100
AcDbEntity
8
Dimension
6
CONTINUOUS
62
7
370
0
100
AcDbLine
10
60
20
32.99375
11
60
21
17.4875
0
ENDBLK
5
77
330
75
100
AcDbEntity
8
0
100
AcDbBlockEnd
0
ENDSEC
0
SECTION
2
ENTITIES
0
LINE
5
CC
100
AcDbEntity
8
0
6
ByLayer
62
256
370
-1
100
AcDbLine
10
30
20
43
11
50
21
43
0
LINE
5
CD
100
AcDbEntity
8
0
6
ByLayer
62
256
370
-1
100
AcDbLine
10
20
20
33
11
60
21
33
0
LINE
5
CE
100
AcDbEntity
8
0
6
ByLayer
62
256
370
-1
100
AcDbLine
10
60
20
33
11
50
21
43
0
LINE
5
CF
100
AcDbEntity
8
0
6
ByLayer
62
256
370
-1
100
AcDbLine
10
20
20
33
11
30
21
43
0
LINE
5
D0
100
AcDbEntity
8
0
6
ByLayer
62
256
370
-1
100
AcDbLine
10
30
20
43
11
35
21
38
0
LINE
5
D1
100
AcDbEntity
8
0
6
ByLayer
62
256
370
-1
100
AcDbLine
10
35
20
38
11
45
21
38
0
LINE
5
D2
100
AcDbEntity
8
0
6
ByLayer
62
256
370
-1
100
AcDbLine
10
45
20
38
11
50
21
43
0
ARC
5
D3
100
AcDbEntity
8
0
6
ByLayer
62
256
370
-1
100
AcDbCircle
10
40
20
35.5
40
12.5
100
AcDbArc
50
36.8698976458
51
143.130102354
0
LINE
5
D4
100
AcDbEntity
8
0
6
ByLayer
62
256
370
-1
100
AcDbLine
10
50
20
23
11
60
21
33
0
LINE
5
D5
100
AcDbEntity
8
0
6
ByLayer
62
256
370
-1
100
AcDbLine
10
30
20
23
11
20
21
33
0
LINE
5
D6
100
AcDbEntity
8
0
6
ByLayer
62
256
370
-1
100
AcDbLine
10
40
20
33
11
40
21
43
0
LINE
5
D7
100
AcDbEntity
8
0
6
ByLayer
62
256
370
-1
100
AcDbLine
10
30
20
33
11
35
21
43
0
LINE
5
D8
100
AcDbEntity
8
0
6
ByLayer
62
256
370
-1
100
AcDbLine
10
50
20
33
11
45
21
43
0
LINE
5
D9
100
AcDbEntity
8
0
6
ByLayer
62
256
370
-1
100
AcDbLine
10
30
20
23
11
50
21
23
0
ARC
5
DA
100
AcDbEntity
8
0
6
ByLayer
62
256
370
-1
100
AcDbCircle
10
40
20
30.5
40
12.5
100
AcDbArc
50
306.869897646
51
323.130102354
0
ARC
5
DB
100
AcDbEntity
8
0
6
ByLayer
62
256
370
-1
100
AcDbCircle
10
40
20
30.5
40
12.5
100
AcDbArc
50
216.869897646
51
233.130102354
0
LINE
5
DC
100
AcDbEntity
8
0
6
ByLayer
62
256
370
-1
100
AcDbLine
10
32.5
20
20.5
11
47.5
21
20.5
0
DIMENSION
5
DD
100
AcDbEntity
8
Dimension
6
ByLayer
62
256
370
-1
100
AcDbDimension
2
*D1
10
47.5
20
19.5
30
0
11
40
21
19.75625
31
0
70
32
71
5
72
0
3
Standard
53
0
210
0
220
0
230
1
100
AcDbAlignedDimension
13
32.5
23
20.5
33
0
14
47.5
24
20.5
34
0
100
AcDbRotatedDimension
0
DIMENSION
5
DE
100
AcDbEntity
8
Dimension
6
ByLayer
62
256
370
-1
100
AcDbDimension
2
*D2
10
50
20
18.5
30
0
11
40
21
18.75625
31
0
70
32
71
5
72
0
3
Standard
53
0
210
0
220
0
230
1
100
AcDbAlignedDimension
13
30
23
23
33
0
14
50
24
23
34
0
100
AcDbRotatedDimension
0
DIMENSION
5
DF
100
AcDbEntity
8
Dimension
6
ByLayer
62
256
370
-1
100
AcDbDimension
2
*D3
10
60
20
17.5
30
0
11
40
21
17.75625
31
0
70
32
71
5
72
0
3
Standard
53
0
210
0
220
0
230
1
100
AcDbAlignedDimension
13
20
23
33
33
0
14
60
24
33
34
0
100
AcDbRotatedDimension
0
DIMENSION
5
E0
100
AcDbEntity
8
Dimension
6
ByLayer
62
256
370
-1
100
AcDbDimension
2
*D4
10
61
20
23
30
0
11
60.74375
21
21.75
31
0
70
32
71
5
72
0
3
Standard
53
0
210
0
220
0
230
1
100
AcDbAlignedDimension
13
47.5
23
20.5
33
0
14
50
24
23
34
0
50
90
100
AcDbRotatedDimension
0
DIMENSION
5
E1
100
AcDbEntity
8
Dimension
6
ByLayer
62
256
370
-1
100
AcDbDimension
2
*D5
10
62
20
33
30
0
11
61.74375
21
26.75
31
0
70
32
71
5
72
0
3
Standard
53
0
210
0
220
0
230
1
100
AcDbAlignedDimension
13
47.5
23
20.5
33
0
14
60
24
33
34
0
50
90
100
AcDbRotatedDimension
0
DIMENSION
5
E2
100
AcDbEntity
8
Dimension
6
ByLayer
62
256
370
-1
100
AcDbDimension
2
*D6
10
63
20
43
30
0
11
62.74375
21
31.75
31
0
70
32
71
5
72
0
3
Standard
53
0
210
0
220
0
230
1
100
AcDbAlignedDimension
13
47.5
23
20.5
33
0
14
50
24
43
34
0
50
90
100
AcDbRotatedDimension
0
DIMENSION
5
E3
100
AcDbEntity
8
Dimension
6
ByLayer
62
256
370
-1
100
AcDbDimension
2
*D7
10
63
20
48
30
0
11
62.74375
21
45.5
31
0
70
32
71
5
72
0
3
Standard
53
0
210
0
220
0
230
1
100
AcDbAlignedDimension
13
50
23
43
33
0
14
40
24
48
34
0
50
90
100
AcDbRotatedDimension
0
DIMENSION
5
E4
100
AcDbEntity
8
Dimension
6
ByLayer
62
256
370
-1
100
AcDbDimension
2
*D8
10
60
20
43
30
0
11
59.74375
21
40.5
31
0
70
32
71
5
72
0
3
Standard
53
0
210
0
220
0
230
1
100
AcDbAlignedDimension
13
45
23
38
33
0
14
50
24
43
34
0
50
90
100
AcDbRotatedDimension
0
DIMENSION
5
E5
100
AcDbEntity
8
Dimension
6
ByLayer
62
256
370
-1
100
AcDbDimension
2
*D9
10
35
20
49.5
30
0
11
32.5
21
49.75625
31
0
70
32
71
5
3
Standard
53
0
210
0
220
0
230
1
100
AcDbAlignedDimension
13
30
23
43
33
0
14
35
24
43
34
0
100
AcDbRotatedDimension
0
DIMENSION
5
E6
100
AcDbEntity
8
Dimension
6
ByLayer
62
256
370
-1
100
AcDbDimension
2
*D10
10
40
20
49.5
30
0
11
37.5
21
49.75625
31
0
70
32
71
5
3
Standard
53
0
210
0
220
0
230
1
100
AcDbAlignedDimension
13
35
23
43
33
0
14
40
24
43
34
0
100
AcDbRotatedDimension
0
DIMENSION
5
E7
100
AcDbEntity
8
Dimension
6
ByLayer
62
256
370
-1
100
AcDbDimension
2
*D11
10
30
20
50.5
30
0
11
25
21
50.75625
31
0
70
32
71
5
3
Standard
53
0
210
0
220
0
230
1
100
AcDbAlignedDimension
13
20
23
33
33
0
14
30
24
33
34
0
100
AcDbRotatedDimension
0
DIMENSION
5
E8
100
AcDbEntity
8
Dimension
6
ByLayer
62
256
370
-1
100
AcDbDimension
2
*D12
10
40
20
50.5
30
0
11
35
21
50.75625
31
0
70
32
71
5
3
Standard
53
0
210
0
220
0
230
1
100
AcDbAlignedDimension
13
30
23
33
33
0
14
40
24
33
34
0
100
AcDbRotatedDimension
0
CIRCLE
5
E9
100
AcDbEntity
8
0
6
ByLayer
62
256
370
-1
100
AcDbCircle
10
40
20
100.5
40
20
0
CIRCLE
5
EA
100
AcDbEntity
8
0
6
ByLayer
62
256
370
-1
100
AcDbCircle
10
40
20
100.5
40
10
0
CIRCLE
5
EB
100
AcDbEntity
8
0
6
ByLayer
62
256
370
-1
100
AcDbCircle
10
40
20
100.500000954
40
5
0
CIRCLE
5
EC
100
AcDbEntity
8
0
6
ByLayer
62
256
370
-1
100
AcDbCircle
10
40
20
100.500001907
40
7.50000000001
0
LINE
5
ED
100
AcDbEntity
8
Projection
6
ByLayer
62
256
370
-1
100
AcDbLine
10
32.5
20
20.5
11
32.5
21
100.5
0
LINE
5
EE
100
AcDbEntity
8
Projection
6
ByLayer
62
256
370
-1
100
AcDbLine
10
47.5
20
20.5
11
47.5
21
100.5
0
LINE
5
EF
100
AcDbEntity
8
Projection
6
ByLayer
62
256
370
-1
100
AcDbLine
10
35
20
38
11
35
21
100.5
0
LINE
5
F0
100
AcDbEntity
8
Projection
6
ByLayer
62
256
370
-1
100
AcDbLine
10
45
20
38
11
45
21
100.5
0
LINE
5
F1
100
AcDbEntity
8
Projection
6
ByLayer
62
256
370
-1
100
AcDbLine
10
30
20
100.5
11
30
21
23
0
LINE
5
F2
100
AcDbEntity
8
Projection
6
ByLayer
62
256
370
-1
100
AcDbLine
10
50
20
23
11
50
21
100.5
0
LINE
5
F3
100
AcDbEntity
8
Projection
6
ByLayer
62
256
370
-1
100
AcDbLine
10
20
20
100.5
11
20
21
33
0
LINE
5
F4
100
AcDbEntity
8
Projection
6
ByLayer
62
256
370
-1
100
AcDbLine
10
60
20
33
11
60
21
100.5
0
DIMENSION
5
F5
100
AcDbEntity
8
Dimension
6
ByLayer
62
256
370
-1
100
AcDbDimension
2
*D13
10
40
20
100.500000954
30
0
11
40.6905546978
21
102.916361496
31
0
70
36
71
5
3
Standard
53
0
210
0
220
0
230
1
100
AcDbRadialDimension
15
41.8569536871
25
105.142384286
35
0
40
0
0
DIMENSION
5
F6
100
AcDbEntity
8
Dimension
6
ByLayer
62
256
370
-1
100
AcDbDimension
2
*D14
10
40
20
100.500001907
30
0
11
42.7167830334
21
103.097549599
31
0
70
36
71
5
3
Standard
53
0
210
0
220
0
230
1
100
AcDbRadialDimension
15
45.7616604978
25
105.301383824
35
0
40
0
0
DIMENSION
5
F7
100
AcDbEntity
8
Dimension
6
ByLayer
62
256
370
-1
100
AcDbDimension
2
*D15
10
40
20
100.5
30
0
11
44.6623831252
21
102.324238925
31
0
70
36
71
5
3
Standard
53
0
210
0
220
0
230
1
100
AcDbRadialDimension
15
49.4868329805
25
103.66227766
35
0
40
0
0
DIMENSION
5
F8
100
AcDbEntity
8
Dimension
6
ByLayer
62
256
370
-1
100
AcDbDimension
2
*D16
10
40
20
100.5
30
0
11
50
21
100.75625
31
0
70
36
71
5
3
Standard
53
0
210
0
220
0
230
1
100
AcDbRadialDimension
15
60
25
100.5
35
0
40
0
0
LINE
5
F9
100
AcDbEntity
8
0
6
ByLayer
62
256
370
-1
100
AcDbLine
10
100
20
43
11
120
21
43
0
LINE
5
FA
100
AcDbEntity
8
0
6
ByLayer
62
256
370
-1
100
AcDbLine
10
90
20
33
11
130
21
33
0
LINE
5
FB
100
AcDbEntity
8
0
6
ByLayer
62
256
370
-1
100
AcDbLine
10
130
20
33
11
120
21
43
0
LINE
5
FC
100
AcDbEntity
8
0
6
ByLayer
62
256
370
-1
100
AcDbLine
10
90
20
33
11
100
21
43
0
LINE
5
FD
100
AcDbEntity
8
0
6
ByLayer
62
256
370
-1
100
AcDbLine
10
100
20
43
11
105
21
38
0
LINE
5
FE
100
AcDbEntity
8
0
6
ByLayer
62
256
370
-1
100
AcDbLine
10
105
20
38
11
115
21
38
0
LINE
5
FF
100
AcDbEntity
8
0
6
ByLayer
62
256
370
-1
100
AcDbLine
10
115
20
38
11
120
21
43
0
ARC
5
100
100
AcDbEntity
8
0
6
ByLayer
62
256
370
-1
100
AcDbCircle
10
110
20
35.5
40
12.5
100
AcDbArc
50
36.8698976458
51
143.130102354
0
LINE
5
101
100
AcDbEntity
8
0
6
ByLayer
62
256
370
-1
100
AcDbLine
10
120
20
23
11
130
21
33
0
LINE
5
102
100
AcDbEntity
8
0
6
ByLayer
62
256
370
-1
100
AcDbLine
10
100
20
23
11
90
21
33
0
LINE
5
103
100
AcDbEntity
8
0
6
ByLayer
62
256
370
-1
100
AcDbLine
10
110
20
33
11
110
21
43
0
LINE
5
104
100
AcDbEntity
8
0
6
ByLayer
62
256
370
-1
100
AcDbLine
10
100
20
33
11
105
21
43
0
LINE
5
105
100
AcDbEntity
8
0
6
ByLayer
62
256
370
-1
100
AcDbLine
10
120
20
33
11
115
21
43
0
LINE
5
106
100
AcDbEntity
8
0
6
ByLayer
62
256
370
-1
100
AcDbLine
10
100
20
23
11
120
21
23
0
ARC
5
107
100
AcDbEntity
8
0
6
ByLayer
62
256
370
-1
100
AcDbCircle
10
110
20
30.5
40
12.5
100
AcDbArc
50
306.869897646
51
323.130102354
0
ARC
5
108
100
AcDbEntity
8
0
6
ByLayer
62
256
370
-1
100
AcDbCircle
10
110
20
30.5
40
12.5
100
AcDbArc
50
216.869897646
51
233.130102354
0
LINE
5
109
100
AcDbEntity
8
0
6
ByLayer
62
256
370
-1
100
AcDbLine
10
102.5
20
20.5
11
117.5
21
20.5
0
LINE
5
10A
100
AcDbEntity
8
Projection
6
ByLayer
62
256
370
-1
100
AcDbLine
10
47.5
20
20.5
11
102.5
21
20.5
0
LINE
5
10B
100
AcDbEntity
8
Projection
6
ByLayer
62
256
370
-1
100
AcDbLine
10
50
20
23
11
100
21
23
0
LINE
5
10C
100
AcDbEntity
8
Projection
6
ByLayer
62
256
370
-1
100
AcDbLine
10
60
20
33
11
90
21
33
0
LINE
5
10D
100
AcDbEntity
8
Projection
6
ByLayer
62
256
370
-1
100
AcDbLine
10
45
20
38
11
105
21
38
0
LINE
5
10E
100
AcDbEntity
8
Projection
6
ByLayer
62
256
370
-1
100
AcDbLine
10
50
20
43
11
100
21
43
0
LINE
5
10F
100
AcDbEntity
8
Projection
6
ByLayer
62
256
370
-1
100
AcDbLine
10
40
20
48
11
110
21
48
0
LINE
5
110
100
AcDbEntity
8
0
6
ByLayer
62
256
370
-1
100
AcDbLine
10
0
20
0
11
150
21
0
0
LINE
5
111
100
AcDbEntity
8
0
6
ByLayer
62
256
370
-1
100
AcDbLine
10
150
20
0
11
150
21
130
0
LINE
5
112
100
AcDbEntity
8
0
6
ByLayer
62
256
370
-1
100
AcDbLine
10
150
20
130
11
0
21
130
0
LINE
5
113
100
AcDbEntity
8
0
6
ByLayer
62
256
370
-1
100
AcDbLine
10
0
20
130
11
0
21
0
0
LINE
5
114
100
AcDbEntity
8
0
6
ByLayer
62
256
370
-1
100
AcDbLine
10
100
20
0
11
100
21
15
0
LINE
5
115
100
AcDbEntity
8
0
6
ByLayer
62
256
370
-1
100
AcDbLine
10
100
20
15
11
150
21
15
0
LINE
5
116
100
AcDbEntity
8
0
6
ByLayer
62
256
370
-1
100
AcDbLine
10
100
20
10
11
150
21
10
0
LINE
5
117
100
AcDbEntity
8
0
6
ByLayer
62
256
370
-1
100
AcDbLine
10
100
20
5
11
150
21
5
0
LINE
5
118
100
AcDbEntity
8
0
6
ByLayer
62
256
370
-1
100
AcDbLine
10
130
20
10
11
130
21
0
0
MTEXT
5
119
100
AcDbEntity
8
0
6
ByLayer
62
256
370
-1
100
AcDbMText
10
101
20
14
30
0
40
1
41
7.30555555556
71
1
72
1
1
Drawing No
7

210
0
220
0
230
1
50
0
73
2
44
1
0
MTEXT
5
11A
100
AcDbEntity
8
0
6
ByLayer
62
256
370
-1
100
AcDbMText
10
101
20
9
30
0
40
1
41
6.86111111111
71
1
72
1
1
Part Name
7

210
0
220
0
230
1
50
0
73
2
44
1
0
MTEXT
5
11B
100
AcDbEntity
8
0
6
ByLayer
62
256
370
-1
100
AcDbMText
10
131
20
9
30
0
40
1
41
3.22222201022
71
1
72
1
1
Scale
7

210
0
220
0
230
1
50
0
73
2
44
1
0
MTEXT
5
11C
100
AcDbEntity
8
0
6
ByLayer
62
256
370
-1
100
AcDbMText
10
131
20
4
30
0
40
1
41
6.2222232508
71
1
72
1
1
Thickness
7

210
0
220
0
230
1
50
0
73
2
44
1
0
MTEXT
5
11D
100
AcDbEntity
8
0
6
ByLayer
62
256
370
-1
100
AcDbMText
10
111
20
14
30
0
40
3
41
0.666666666667
71
1
72
1
1
1
7

210
0
220
0
230
1
50
0
73
2
44
1
0
MTEXT
5
11E
100
AcDbEntity
8
0
6
ByLayer
62
256
370
-1
100
AcDbMText
10
111
20
9
30
0
40
2
41
17.7222242794
71
1
72
1
1
Assignment 2
7

210
0
220
0
230
1
50
0
73
2
44
1
0
MTEXT
5
11F
100
AcDbEntity
8
0
6
ByLayer
62
256
370
-1
100
AcDbMText
10
139
20
9
30
0
40
3
41
3.33333333333
71
1
72
1
1
1:1
7

210
0
220
0
230
1
50
0
73
2
44
1
0
ENDSEC
0
SECTION
2
OBJECTS
0
DICTIONARY
5
C
330
0
100
AcDbDictionary
281
1
3
ACAD_GROUP
350
D
0
DICTIONARY
5
D
330
C
100
AcDbDictionary
281
1
0
ENDSEC
0
EOF
