  0
SECTION
  2
HEADER
  9
$ACADVER
  1
AC1015
  9
$ACADMAINTVER
 70
     6
  9
$DWGCODEPAGE
  3
ANSI_1252
  9
$INSBASE
 10
0.0
 20
0.0
 30
0.0
  9
$EXTMIN
 10
1.000000000000000E+20
 20
1.000000000000000E+20
 30
1.000000000000000E+20
  9
$EXTMAX
 10
-1.000000000000000E+20
 20
-1.000000000000000E+20
 30
-1.000000000000000E+20
  9
$LIMMIN
 10
0.0
 20
0.0
  9
$LIMMAX
 10
420.0
 20
297.0
  9
$ORTHOMODE
 70
     0
  9
$REGENMODE
 70
     1
  9
$FILLMODE
 70
     1
  9
$QTEXTMODE
 70
     0
  9
$MIRRTEXT
 70
     0
  9
$LTSCALE
 40
1.0
  9
$ATTMODE
 70
     1
  9
$TEXTSIZE
 40
2.5
  9
$TRACEWID
 40
1.0
  9
$TEXTSTYLE
  7
Standard
  9
$CLAYER
  8
0
  9
$CELTYPE
  6
ByLayer
  9
$CECOLOR
 62
   256
  9
$CELTSCALE
 40
1.0
  9
$DISPSILH
 70
     0
  9
$DIMSCALE
 40
1.0
  9
$DIMASZ
 40
2.5
  9
$DIMEXO
 40
0.625
  9
$DIMDLI
 40
3.75
  9
$DIMRND
 40
0.0
  9
$DIMDLE
 40
0.0
  9
$DIMEXE
 40
1.25
  9
$DIMTP
 40
0.0
  9
$DIMTM
 40
0.0
  9
$DIMTXT
 40
2.5
  9
$DIMCEN
 40
2.5
  9
$DIMTSZ
 40
0.0
  9
$DIMTOL
 70
     0
  9
$DIMLIM
 70
     0
  9
$DIMTIH
 70
     0
  9
$DIMTOH
 70
     0
  9
$DIMSE1
 70
     0
  9
$DIMSE2
 70
     0
  9
$DIMTAD
 70
     1
  9
$DIMZIN
 70
     8
  9
$DIMBLK
  1

  9
$DIMASO
 70
     1
  9
$DIMSHO
 70
     1
  9
$DIMPOST
  1

  9
$DIMAPOST
  1

  9
$DIMALT
 70
     0
  9
$DIMALTD
 70
     3
  9
$DIMALTF
 40
0.03937007874016
  9
$DIMLFAC
 40
1.0
  9
$DIMTOFL
 70
     1
  9
$DIMTVP
 40
0.0
  9
$DIMTIX
 70
     0
  9
$DIMSOXD
 70
     0
  9
$DIMSAH
 70
     0
  9
$DIMBLK1
  1

  9
$DIMBLK2
  1

  9
$DIMSTYLE
  2
ISO-25
  9
$DIMCLRD
 70
     0
  9
$DIMCLRE
 70
     0
  9
$DIMCLRT
 70
     0
  9
$DIMTFAC
 40
1.0
  9
$DIMGAP
 40
0.625
  9
$DIMJUST
 70
     0
  9
$DIMSD1
 70
     0
  9
$DIMSD2
 70
     0
  9
$DIMTOLJ
 70
     0
  9
$DIMTZIN
 70
     8
  9
$DIMALTZ
 70
     0
  9
$DIMALTTZ
 70
     0
  9
$DIMUPT
 70
     0
  9
$DIMDEC
 70
     2
  9
$DIMTDEC
 70
     2
  9
$DIMALTU
 70
     2
  9
$DIMALTTD
 70
     3
  9
$DIMTXSTY
  7
Standard
  9
$DIMAUNIT
 70
     0
  9
$DIMADEC
 70
     0
  9
$DIMALTRND
 40
0.0
  9
$DIMAZIN
 70
     0
  9
$DIMDSEP
 70
    44
  9
$DIMATFIT
 70
     3
  9
$DIMFRAC
 70
     0
  9
$DIMLDRBLK
  1

  9
$DIMLUNIT
 70
     2
  9
$DIMLWD
 70
    -2
  9
$DIMLWE
 70
    -2
  9
$DIMTMOVE
 70
     0
  9
$LUNITS
 70
     2
  9
$LUPREC
 70
     3
  9
$SKETCHINC
 40
1.0
  9
$FILLETRAD
 40
10.0
  9
$AUNITS
 70
     0
  9
$AUPREC
 70
     0
  9
$MENU
  1
.
  9
$ELEVATION
 40
0.0
  9
$PELEVATION
 40
0.0
  9
$THICKNESS
 40
0.0
  9
$LIMCHECK
 70
     0
  9
$CHAMFERA
 40
10.0
  9
$CHAMFERB
 40
10.0
  9
$CHAMFERC
 40
20.0
  9
$CHAMFERD
 40
0.0
  9
$SKPOLY
 70
     0
  9
$TDCREATE
 40
2455022.720692847
  9
$TDUCREATE
 40
2455022.637359514
  9
$TDUPDATE
 40
2457518.706043507
  9
$TDUUPDATE
 40
2457518.622710173
  9
$TDINDWG
 40
0.0007345718
  9
$TDUSRTIMER
 40
2457518.597413738
  9
$USRTIMER
 70
     1
  9
$ANGBASE
 50
0.0
  9
$ANGDIR
 70
     0
  9
$PDMODE
 70
     0
  9
$PDSIZE
 40
0.0
  9
$PLINEWID
 40
0.0
  9
$SPLFRAME
 70
     0
  9
$SPLINETYPE
 70
     6
  9
$SPLINESEGS
 70
     8
  9
$HANDSEED
  5
81F
  9
$SURFTAB1
 70
     6
  9
$SURFTAB2
 70
     6
  9
$SURFTYPE
 70
     6
  9
$SURFU
 70
     6
  9
$SURFV
 70
     6
  9
$UCSBASE
  2

  9
$UCSNAME
  2

  9
$UCSORG
 10
0.0
 20
0.0
 30
0.0
  9
$UCSXDIR
 10
1.0
 20
0.0
 30
0.0
  9
$UCSYDIR
 10
0.0
 20
1.0
 30
0.0
  9
$UCSORTHOREF
  2

  9
$UCSORTHOVIEW
 70
     0
  9
$UCSORGTOP
 10
0.0
 20
0.0
 30
0.0
  9
$UCSORGBOTTOM
 10
0.0
 20
0.0
 30
0.0
  9
$UCSORGLEFT
 10
0.0
 20
0.0
 30
0.0
  9
$UCSORGRIGHT
 10
0.0
 20
0.0
 30
0.0
  9
$UCSORGFRONT
 10
0.0
 20
0.0
 30
0.0
  9
$UCSORGBACK
 10
0.0
 20
0.0
 30
0.0
  9
$PUCSBASE
  2

  9
$PUCSNAME
  2

  9
$PUCSORG
 10
0.0
 20
0.0
 30
0.0
  9
$PUCSXDIR
 10
1.0
 20
0.0
 30
0.0
  9
$PUCSYDIR
 10
0.0
 20
1.0
 30
0.0
  9
$PUCSORTHOREF
  2

  9
$PUCSORTHOVIEW
 70
     0
  9
$PUCSORGTOP
 10
0.0
 20
0.0
 30
0.0
  9
$PUCSORGBOTTOM
 10
0.0
 20
0.0
 30
0.0
  9
$PUCSORGLEFT
 10
0.0
 20
0.0
 30
0.0
  9
$PUCSORGRIGHT
 10
0.0
 20
0.0
 30
0.0
  9
$PUCSORGFRONT
 10
0.0
 20
0.0
 30
0.0
  9
$PUCSORGBACK
 10
0.0
 20
0.0
 30
0.0
  9
$USERI1
 70
     0
  9
$USERI2
 70
     0
  9
$USERI3
 70
     0
  9
$USERI4
 70
     0
  9
$USERI5
 70
     0
  9
$USERR1
 40
0.0
  9
$USERR2
 40
0.0
  9
$USERR3
 40
0.0
  9
$USERR4
 40
0.0
  9
$USERR5
 40
0.0
  9
$WORLDVIEW
 70
     1
  9
$SHADEDGE
 70
     3
  9
$SHADEDIF
 70
    70
  9
$TILEMODE
 70
     1
  9
$MAXACTVP
 70
    64
  9
$PINSBASE
 10
0.0
 20
0.0
 30
0.0
  9
$PLIMCHECK
 70
     0
  9
$PEXTMIN
 10
1.000000000000000E+20
 20
1.000000000000000E+20
 30
1.000000000000000E+20
  9
$PEXTMAX
 10
-1.000000000000000E+20
 20
-1.000000000000000E+20
 30
-1.000000000000000E+20
  9
$PLIMMIN
 10
0.0
 20
0.0
  9
$PLIMMAX
 10
0.0
 20
0.0
  9
$UNITMODE
 70
     0
  9
$VISRETAIN
 70
     1
  9
$PLINEGEN
 70
     0
  9
$PSLTSCALE
 70
     1
  9
$TREEDEPTH
 70
  3020
  9
$CMLSTYLE
  2
Standard
  9
$CMLJUST
 70
     0
  9
$CMLSCALE
 40
20.0
  9
$PROXYGRAPHICS
 70
     1
  9
$MEASUREMENT
 70
     1
  9
$CELWEIGHT
370
    -1
  9
$ENDCAPS
280
     0
  9
$JOINSTYLE
280
     0
  9
$LWDISPLAY
290
     0
  9
$INSUNITS
 70
     4
  9
$HYPERLINKBASE
  1

  9
$STYLESHEET
  1

  9
$XEDIT
290
     1
  9
$CEPSNTYPE
380
     0
  9
$PSTYLEMODE
290
     1
  9
$FINGERPRINTGUID
  2
{EC6BB858-51AA-46EC-B484-6C9CC7AB3E2E}
  9
$VERSIONGUID
  2
{FAEB1C32-E019-11D5-929B-00C0DF256EC4}
  9
$EXTNAMES
290
     1
  9
$PSVPSCALE
 40
0.0
  9
$OLESTARTUP
290
     0
  0
ENDSEC
  0
SECTION
  2
CLASSES
  0
CLASS
  1
ACDBDICTIONARYWDFLT
  2
AcDbDictionaryWithDefault
  3
ObjectDBX Classes
 90
        0
280
     0
281
     0
  0
CLASS
  1
VISUALSTYLE
  2
AcDbVisualStyle
  3
ObjectDBX Classes
 90
     4095
280
     0
281
     0
  0
CLASS
  1
TABLESTYLE
  2
AcDbTableStyle
  3
ObjectDBX Classes
 90
     4095
280
     0
281
     0
  0
CLASS
  1
DICTIONARYVAR
  2
AcDbDictionaryVar
  3
ObjectDBX Classes
 90
        0
280
     0
281
     0
  0
CLASS
  1
SCALE
  2
AcDbScale
  3
ObjectDBX Classes
 90
     1153
280
     0
281
     0
  0
CLASS
  1
CELLSTYLEMAP
  2
AcDbCellStyleMap
  3
ObjectDBX Classes
 90
     1152
280
     0
281
     0
  0
CLASS
  1
RASTERVARIABLES
  2
AcDbRasterVariables
  3
ISM
 90
        0
280
     0
281
     0
  0
CLASS
  1
MATERIAL
  2
AcDbMaterial
  3
ObjectDBX Classes
 90
     1153
280
     0
281
     0
  0
CLASS
  1
SUN
  2
AcDbSun
  3
SCENEOE
 90
     1153
280
     0
281
     0
  0
CLASS
  1
MLEADERSTYLE
  2
AcDbMLeaderStyle
  3
ACDB_MLEADERSTYLE_CLASS
 90
     4095
280
     0
281
     0
  0
CLASS
  1
DIMASSOC
  2
AcDbDimAssoc
  3
"AcDbDimAssoc|Product Desc:     AcDim ARX App For Dimension|Company:          Autodesk, Inc.|WEB Address:      www.autodesk.com"
 90
        0
280
     0
281
     0
  0
CLASS
  1
ACDBPLACEHOLDER
  2
AcDbPlaceHolder
  3
ObjectDBX Classes
 90
        0
280
     0
281
     0
  0
CLASS
  1
LAYOUT
  2
AcDbLayout
  3
ObjectDBX Classes
 90
        0
280
     0
281
     0
  0
ENDSEC
  0
SECTION
  2
TABLES
  0
TABLE
  2
VPORT
  5
8
330
0
100
AcDbSymbolTable
 70
     1
  0
VPORT
  5
29
330
8
100
AcDbSymbolTableRecord
100
AcDbViewportTableRecord
  2
*Active
 70
     0
 10
0.0
 20
0.0
 11
1.0
 21
1.0
 12
1120.582567723301
 22
93.89937720399803
 13
0.0
 23
0.0
 14
10.0
 24
10.0
 15
10.0
 25
10.0
 16
0.0
 26
0.0
 36
1.0
 17
-134.1869158878508
 27
0.0
 37
0.0
 40
1469.421386718748
 41
2.055666003976143
 42
50.0
 43
0.0
 44
0.0
 50
0.0
 51
0.0
 71
    16
 72
  1000
 73
     1
 74
     3
 75
     0
 76
     0
 77
     0
 78
     0
281
     0
 65
     1
110
0.0
120
0.0
130
0.0
111
1.0
121
0.0
131
0.0
112
0.0
122
1.0
132
0.0
 79
     0
146
0.0
  0
ENDTAB
  0
TABLE
  2
LTYPE
  5
5
330
0
100
AcDbSymbolTable
 70
     1
  0
LTYPE
  5
14
330
5
100
AcDbSymbolTableRecord
100
AcDbLinetypeTableRecord
  2
ByBlock
 70
     0
  3

 72
    65
 73
     0
 40
0.0
  0
LTYPE
  5
15
330
5
100
AcDbSymbolTableRecord
100
AcDbLinetypeTableRecord
  2
ByLayer
 70
     0
  3

 72
    65
 73
     0
 40
0.0
  0
LTYPE
  5
16
330
5
100
AcDbSymbolTableRecord
100
AcDbLinetypeTableRecord
  2
Continuous
 70
     0
  3
Solid line
 72
    65
 73
     0
 40
0.0
  0
ENDTAB
  0
TABLE
  2
LAYER
  5
2
330
0
100
AcDbSymbolTable
 70
     2
  0
LAYER
  5
10
330
2
100
AcDbSymbolTableRecord
100
AcDbLayerTableRecord
  2
0
 70
     0
 62
     7
  6
Continuous
370
    -3
390
F
  0
LAYER
  5
70E
330
2
100
AcDbSymbolTableRecord
100
AcDbLayerTableRecord
  2
Defpoints
 70
     0
 62
     7
  6
Continuous
290
     0
370
    -3
390
F
  0
ENDTAB
  0
TABLE
  2
STYLE
  5
3
330
0
100
AcDbSymbolTable
 70
     1
  0
STYLE
  5
11
330
3
100
AcDbSymbolTableRecord
100
AcDbTextStyleTableRecord
  2
Standard
 70
     0
 40
0.0
 41
1.0
 50
0.0
 71
     0
 42
2.5
  3
arial.ttf
  4

1001
ACAD
1000
Arial
1071
        0
  0
ENDTAB
  0
TABLE
  2
VIEW
  5
6
330
0
100
AcDbSymbolTable
 70
     0
  0
ENDTAB
  0
TABLE
  2
UCS
  5
7
330
0
100
AcDbSymbolTable
 70
     0
  0
ENDTAB
  0
TABLE
  2
APPID
  5
9
330
0
100
AcDbSymbolTable
 70
     1
  0
APPID
  5
12
330
9
100
AcDbSymbolTableRecord
100
AcDbRegAppTableRecord
  2
ACAD
 70
     0
  0
ENDTAB
  0
TABLE
  2
DIMSTYLE
  5
A
330
0
100
AcDbSymbolTable
 70
     1
100
AcDbDimStyleTable
  0
DIMSTYLE
105
27
102
{ACAD_REACTORS
330
70F
330
71E
330
800
330
80F
102
}
330
A
100
AcDbSymbolTableRecord
100
AcDbDimStyleTableRecord
  2
ISO-25
 70
     0
 41
2.5
 42
0.625
 43
3.75
 44
1.25
 73
     0
 74
     0
 77
     1
 78
     8
140
2.5
141
2.5
143
0.03937007874016
147
0.625
171
     3
172
     1
178
     0
271
     2
272
     2
274
     3
278
    44
283
     0
284
     8
340
11
  0
ENDTAB
  0
TABLE
  2
BLOCK_RECORD
  5
1
330
0
100
AcDbSymbolTable
 70
    27
  0
BLOCK_RECORD
  5
1F
330
1
100
AcDbSymbolTableRecord
100
AcDbBlockTableRecord
  2
*Model_Space
340
22
  0
BLOCK_RECORD
  5
1B
330
1
100
AcDbSymbolTableRecord
100
AcDbBlockTableRecord
  2
*Paper_Space
340
1E
  0
BLOCK_RECORD
  5
23
330
1
100
AcDbSymbolTableRecord
100
AcDbBlockTableRecord
  2
*Paper_Space0
340
26
  0
BLOCK_RECORD
  5
555
330
1
100
AcDbSymbolTableRecord
100
AcDbBlockTableRecord
  2
banda1
340
0
102
{BLKREFS
331
0
331
58B
331
5A0
102
}
  0
BLOCK_RECORD
  5
5FF
330
1
100
AcDbSymbolTableRecord
100
AcDbBlockTableRecord
  2
fibergrallstrain
340
0
102
{BLKREFS
331
60A
331
62D
331
63C
331
65F
331
66E
102
}
  0
BLOCK_RECORD
  5
66F
330
1
100
AcDbSymbolTableRecord
100
AcDbBlockTableRecord
  2
tira2
340
0
102
{BLKREFS
331
0
331
69C
331
0
331
6CD
331
0
331
6FE
331
0
331
7F0
331
7FE
102
}
  0
BLOCK_RECORD
  5
712
330
1
100
AcDbSymbolTableRecord
100
AcDbBlockTableRecord
  2
*D18
340
0
  0
BLOCK_RECORD
  5
721
330
1
100
AcDbSymbolTableRecord
100
AcDbBlockTableRecord
  2
*D19
340
0
  0
BLOCK_RECORD
  5
731
330
1
100
AcDbSymbolTableRecord
100
AcDbBlockTableRecord
  2
*D20
340
0
  0
BLOCK_RECORD
  5
803
330
1
100
AcDbSymbolTableRecord
100
AcDbBlockTableRecord
  2
*D25
340
0
  0
BLOCK_RECORD
  5
812
330
1
100
AcDbSymbolTableRecord
100
AcDbBlockTableRecord
  2
*D26
340
0
  0
ENDTAB
  0
ENDSEC
  0
SECTION
  2
BLOCKS
  0
BLOCK
  5
20
330
1F
100
AcDbEntity
  8
0
100
AcDbBlockBegin
  2
*Model_Space
 70
     0
 10
0.0
 20
0.0
 30
0.0
  3
*Model_Space
  1
*Model_Space
  0
ENDBLK
  5
21
330
1F
100
AcDbEntity
  8
0
100
AcDbBlockEnd
  0
BLOCK
  5
1C
330
1B
100
AcDbEntity
 67
     1
  8
0
100
AcDbBlockBegin
  2
*Paper_Space
 70
     0
 10
0.0
 20
0.0
 30
0.0
  3
*Paper_Space
  1
*Paper_Space
  0
ENDBLK
  5
1D
330
1B
100
AcDbEntity
 67
     1
  8
0
100
AcDbBlockEnd
  0
BLOCK
  5
24
330
23
100
AcDbEntity
  8
0
100
AcDbBlockBegin
  2
*Paper_Space0
 70
     0
 10
0.0
 20
0.0
 30
0.0
  3
*Paper_Space0
  1
*Paper_Space0
  0
ENDBLK
  5
25
330
23
100
AcDbEntity
  8
0
100
AcDbBlockEnd
  0
BLOCK
  5
564
330
555
100
AcDbEntity
  8
0
100
AcDbBlockBegin
  2
banda1
 70
     0
 10
0.0
 20
0.0
 30
0.0
  3
banda1
  1
banda1
  0
SPLINE
  5
556
330
555
100
AcDbEntity
  8
0
  6
Continuous
 62
     7
370
    15
100
AcDbSpline
210
0.0
220
0.0
230
1.0
 70
    24
 71
     3
 72
     8
 73
     4
 74
     0
 42
0.000000001
 43
0.00000001
 40
0.0
 40
0.0
 40
0.0
 40
0.0
 40
1.0
 40
1.0
 40
1.0
 40
1.0
 10
21.15556559931289
 20
243.477392805474
 30
0.0
 10
21.08140821263822
 20
241.7575898896044
 30
0.0
 10
21.00725082596344
 20
240.0377869737348
 30
0.0
 10
20.93309343928866
 20
238.3179840578652
 30
0.0
  0
SPLINE
  5
557
330
555
100
AcDbEntity
  8
0
  6
Continuous
 62
     7
370
    15
100
AcDbSpline
210
0.0
220
0.0
230
1.0
 70
     8
 71
     3
 72
    14
 73
    10
 74
     0
 42
0.000000001
 43
0.00000001
 40
0.0
 40
0.0
 40
0.0
 40
0.0
 40
0.25
 40
0.25
 40
0.5
 40
0.5
 40
0.75
 40
0.75
 40
1.0
 40
1.0
 40
1.0
 40
1.0
 10
20.93309343928866
 20
238.3179840578652
 30
0.0
 10
20.6714775909429
 20
231.560481449364
 30
0.0
 10
20.56207191143163
 20
227.9053473671949
 30
0.0
 10
20.36220116846832
 20
218.314131162006
 30
0.0
 10
20.30622375933712
 20
212.8249888691782
 30
0.0
 10
20.3968118612419
 20
202.9647513616725
 30
0.0
 10
20.58155480465361
 20
197.3161343120223
 30
0.0
 10
21.2425400315413
 20
188.0631876017427
 30
0.0
 10
24.11547735187673
 20
182.9282604629338
 30
0.0
 10
18.27981984336526
 20
178.7500474513846
 30
0.0
  0
SPLINE
  5
558
330
555
100
AcDbEntity
  8
0
  6
Continuous
 62
     7
370
    15
100
AcDbSpline
210
0.0
220
0.0
230
1.0
 70
     8
 71
     3
 72
    20
 73
    16
 74
     0
 42
0.000000001
 43
0.00000001
 40
0.0
 40
0.0
 40
0.0
 40
0.0
 40
0.1250000000000006
 40
0.1250000000000006
 40
0.250000000000001
 40
0.250000000000001
 40
0.3750000000000011
 40
0.3750000000000011
 40
0.5000000000000011
 40
0.5000000000000011
 40
0.7500000000000006
 40
0.7500000000000006
 40
0.8750000000000002
 40
0.8750000000000002
 40
1.0
 40
1.0
 40
1.0
 40
1.0
 10
139.2738265495484
 20
239.8112039806287
 30
0.0
 10
132.7094570961845
 20
239.9255377805468
 30
0.0
 10
128.8109002623244
 20
240.0225546913535
 30
0.0
 10
120.1993952729934
 20
240.2399159611577
 30
0.0
 10
113.6679833305621
 20
240.4166092612314
 30
0.0
 10
105.8083587726545
 20
240.6317792591608
 30
0.0
 10
100.600184592563
 20
240.7751372990932
 30
0.0
 10
89.34293152648729
 20
241.0870006241902
 30
0.0
 10
85.41437268861958
 20
241.1964557108261
 30
0.0
 10
69.786844135782
 20
241.6466976627858
 30
0.0
 10
60.79946389068288
 20
241.9235114937586
 30
0.0
 10
45.61374666045986
 20
242.4614263158967
 30
0.0
 10
40.8716066684979
 20
242.6402029055167
 30
0.0
 10
30.95638706369056
 20
243.0398458000971
 30
0.0
 10
27.71412919020606
 20
243.1772545184289
 30
0.0
 10
21.15556559931289
 20
243.477392805474
 30
0.0
  0
SPLINE
  5
559
330
555
100
AcDbEntity
  8
0
  6
Continuous
 62
     7
370
    15
100
AcDbSpline
210
0.0
220
0.0
230
1.0
 70
     8
 71
     3
 72
    16
 73
    12
 74
     0
 42
0.000000001
 43
0.00000001
 40
0.0
 40
0.0
 40
0.0
 40
0.0
 40
0.125
 40
0.125
 40
0.25
 40
0.25
 40
0.5
 40
0.5
 40
0.75
 40
0.75
 40
1.0
 40
1.0
 40
1.0
 40
1.0
 10
18.27981984336526
 20
178.7500474513846
 30
0.0
 10
24.81572962443293
 20
178.4829863721235
 30
0.0
 10
27.93230810936817
 20
178.3338574427282
 30
0.0
 10
38.03752279247033
 20
177.931791345701
 30
0.0
 10
42.75476780042165
 20
177.7592951303816
 30
0.0
 10
57.56943593772936
 20
177.2558507623856
 30
0.0
 10
67.44972744855855
 20
176.9758985502758
 30
0.0
 10
86.78412439346013
 20
176.5237280037344
 30
0.0
 10
94.33680153196923
 20
176.3862051308177
 30
0.0
 10
118.7583229841759
 20
175.9851574318808
 30
0.0
 10
123.0425409992723
 20
177.2185786091901
 30
0.0
 10
135.9228774878125
 20
174.8466943791708
 30
0.0
  0
SPLINE
  5
55A
330
555
100
AcDbEntity
  8
0
  6
Continuous
 62
     7
370
    15
100
AcDbSpline
210
0.0
220
0.0
230
1.0
 70
     8
 71
     3
 72
    18
 73
    14
 74
     0
 42
0.000000001
 43
0.00000001
 40
0.0
 40
0.0
 40
0.0
 40
0.0
 40
0.1250000000000002
 40
0.1250000000000002
 40
0.2500000000000004
 40
0.2500000000000004
 40
0.5000000000000003
 40
0.5000000000000003
 40
0.7500000000000002
 40
0.7500000000000002
 40
0.8750000000000001
 40
0.8750000000000001
 40
1.0
 40
1.0
 40
1.0
 40
1.0
 10
348.1260510413775
 20
173.7667699355081
 30
0.0
 10
354.5006839197926
 20
174.7878112077094
 30
0.0
 10
357.2575394460923
 20
174.4703602958509
 30
0.0
 10
367.9412484931835
 20
174.3882765389807
 30
0.0
 10
371.8688200245081
 20
174.3106782340752
 30
0.0
 10
387.5822541138431
 20
173.9757282220689
 30
0.0
 10
396.7991480428995
 20
173.7192479019763
 30
0.0
 10
415.4309043474876
 20
173.1680009989072
 30
0.0
 10
425.7729516524554
 20
172.8293943026534
 30
0.0
 10
439.7897304241671
 20
172.3145806576349
 30
0.0
 10
445.1140161812211
 20
172.1080831378296
 30
0.0
 10
454.1171775111252
 20
171.7338613587379
 30
0.0
 10
457.6692934854464
 20
171.5852644316354
 30
0.0
 10
464.1100744358581
 20
171.2693289610266
 30
0.0
  0
SPLINE
  5
55B
330
555
100
AcDbEntity
  8
0
  6
Continuous
 62
     7
370
    15
100
AcDbSpline
210
0.0
220
0.0
230
1.0
 70
     8
 71
     3
 72
    14
 73
    10
 74
     0
 42
0.000000001
 43
0.00000001
 40
0.0
 40
0.0
 40
0.0
 40
0.0
 40
0.25
 40
0.25
 40
0.4999999999999999
 40
0.4999999999999999
 40
0.7499999999999998
 40
0.7499999999999998
 40
1.0
 40
1.0
 40
1.0
 40
1.0
 10
464.1100738011491
 20
171.2693295087815
 30
0.0
 10
458.6718508590386
 20
175.9625251686361
 30
0.0
 10
461.9403138669851
 20
180.7712164697849
 30
0.0
 10
463.3253060661328
 20
190.0775115226383
 30
0.0
 10
463.9166514094423
 20
195.6612422362699
 30
0.0
 10
464.7193256114465
 20
205.4735368902006
 30
0.0
 10
465.054583654751
 20
210.9121097001366
 30
0.0
 10
465.5583560954038
 20
220.631529634834
 30
0.0
 10
465.7142678973612
 20
224.227071327793
 30
0.0
 10
465.967881530361
 20
230.9943269975363
 30
0.0
  0
SPLINE
  5
55C
330
555
100
AcDbEntity
  8
0
  6
Continuous
 62
     7
370
    15
100
AcDbSpline
210
0.0
220
0.0
230
1.0
 70
    24
 71
     3
 72
     8
 73
     4
 74
     0
 42
0.000000001
 43
0.00000001
 40
0.0
 40
0.0
 40
0.0
 40
0.0
 40
1.0
 40
1.0
 40
1.0
 40
1.0
 10
465.9678827554226
 20
230.9943611353477
 30
0.0
 10
466.0296182104109
 20
232.7146936880769
 30
0.0
 10
466.0913536653992
 20
234.4350262408062
 30
0.0
 10
466.1530891203877
 20
236.1553587935354
 30
0.0
  0
SPLINE
  5
55D
330
555
100
AcDbEntity
  8
0
  6
Continuous
 62
     7
370
    15
100
AcDbSpline
210
0.0
220
0.0
230
1.0
 70
     8
 71
     3
 72
    20
 73
    16
 74
     0
 42
0.000000001
 43
0.00000001
 40
0.0
 40
0.0
 40
0.0
 40
0.0
 40
0.125
 40
0.125
 40
0.25
 40
0.25
 40
0.5
 40
0.5
 40
0.75
 40
0.75
 40
0.875
 40
0.875
 40
0.9375
 40
0.9375
 40
1.0
 40
1.0
 40
1.0
 40
1.0
 10
466.1530886047025
 20
236.155358811563
 30
0.0
 10
459.501793959898
 20
236.3878777933146
 30
0.0
 10
456.6745231310445
 20
236.499013914858
 30
0.0
 10
445.702486344587
 20
236.9040645868833
 30
0.0
 10
441.4413686637553
 20
237.057530369198
 30
0.0
 10
425.7876288468298
 20
237.589305324724
 30
0.0
 10
416.4958997433836
 20
237.8676399742303
 30
0.0
 10
396.0785525648533
 20
238.3490237969799
 30
0.0
 10
385.8750127100965
 20
238.5150237597521
 30
0.0
 10
371.5762372478351
 20
238.6503138771224
 30
0.0
 10
365.3358833902342
 20
238.6871096396526
 30
0.0
 10
359.3844974402783
 20
238.7145337757441
 30
0.0
 10
356.8850081963451
 20
238.7247487513725
 30
0.0
 10
350.8771640662322
 20
238.7505919068562
 30
0.0
 10
349.7215344492461
 20
238.757271484264
 30
0.0
 10
346.393925263854
 20
238.7788652379918
 30
0.0
  0
SPLINE
  5
55E
330
555
100
AcDbEntity
  8
0
  6
Continuous
 62
     7
370
    15
100
AcDbSpline
210
0.0
220
0.0
230
1.0
 70
     8
 71
     3
 72
    16
 73
    12
 74
     0
 42
0.000000001
 43
0.00000001
 40
0.0
 40
0.0
 40
0.0
 40
0.0
 40
0.2499999999999998
 40
0.2499999999999998
 40
0.4999999999999994
 40
0.4999999999999994
 40
0.7499999999999993
 40
0.7499999999999993
 40
0.8749999999999997
 40
0.8749999999999997
 40
1.0
 40
1.0
 40
1.0
 40
1.0
 10
260.4284157600031
 20
174.7641693209172
 30
0.0
 10
270.1786427582211
 20
174.5492392954196
 30
0.0
 10
273.6815598775472
 20
174.6852247425459
 30
0.0
 10
291.0587015136053
 20
174.6834899450824
 30
0.0
 10
298.0792275986302
 20
174.6832774840202
 30
0.0
 10
310.5457318674299
 20
174.6591587402525
 30
0.0
 10
319.8527793818322
 20
174.6205990416722
 30
0.0
 10
329.4538866382959
 20
174.3931945611948
 30
0.0
 10
333.3129627415888
 20
174.2602265425934
 30
0.0
 10
341.1049373623492
 20
173.5615384816605
 30
0.0
 10
343.3049863960421
 20
172.8915028436501
 30
0.0
 10
348.1260510413775
 20
173.7667699355081
 30
0.0
  0
SPLINE
  5
55F
330
555
100
AcDbEntity
  8
0
  6
Continuous
 62
     7
370
    15
100
AcDbSpline
210
0.0
220
0.0
230
1.0
 70
     8
 71
     3
 72
    10
 73
     6
 74
     0
 42
0.000000001
 43
0.00000001
 40
0.0
 40
0.0
 40
0.0
 40
0.0
 40
0.5000000000000001
 40
0.5000000000000001
 40
1.0
 40
1.0
 40
1.0
 40
1.0
 10
224.2743678713335
 20
174.8328332728956
 30
0.0
 10
232.3069611267385
 20
174.6448166073858
 30
0.0
 10
235.8192034394461
 20
174.7372074048401
 30
0.0
 10
248.8831500490541
 20
174.7223829085322
 30
0.0
 10
252.3947370821335
 20
174.6306697498447
 30
0.0
 10
260.4284157600031
 20
174.7641693209172
 30
0.0
  0
SPLINE
  5
560
330
555
100
AcDbEntity
  8
0
  6
Continuous
 62
     7
370
    15
100
AcDbSpline
210
0.0
220
0.0
230
1.0
 70
     8
 71
     3
 72
    18
 73
    14
 74
     0
 42
0.000000001
 43
0.00000001
 40
0.0
 40
0.0
 40
0.0
 40
0.0
 40
0.1249999999999999
 40
0.1249999999999999
 40
0.2499999999999997
 40
0.2499999999999997
 40
0.4999999999999998
 40
0.4999999999999998
 40
0.7499999999999999
 40
0.7499999999999999
 40
0.875
 40
0.875
 40
1.0
 40
1.0
 40
1.0
 40
1.0
 10
135.9228774878122
 20
174.8466943791708
 30
0.0
 10
140.7589501897846
 20
173.8616425900798
 30
0.0
 10
143.6448850099723
 20
174.522002833217
 30
0.0
 10
150.1960941420085
 20
174.974575068888
 30
0.0
 10
154.1018125675256
 20
175.0814179291031
 30
0.0
 10
165.6914923136593
 20
175.1719528940966
 30
0.0
 10
172.0860521721498
 20
175.096867368314
 30
0.0
 10
188.0505826799773
 20
174.9649200602274
 30
0.0
 10
195.9893539408875
 20
174.9033631913438
 30
0.0
 10
205.262303710367
 20
174.8451565447014
 30
0.0
 10
209.5390927888757
 20
174.8221210529483
 30
0.0
 10
216.9068479226651
 20
174.7890325970602
 30
0.0
 10
219.3630110329231
 20
174.7441275235823
 30
0.0
 10
224.2743554258138
 20
174.8328335642044
 30
0.0
  0
SPLINE
  5
561
330
555
100
AcDbEntity
  8
0
  6
Continuous
 62
     7
370
    15
100
AcDbSpline
210
0.0
220
0.0
230
1.0
 70
     8
 71
     3
 72
    18
 73
    14
 74
     0
 42
0.000000001
 43
0.00000001
 40
0.0
 40
0.0
 40
0.0
 40
0.0
 40
0.1250000000000001
 40
0.1250000000000001
 40
0.2500000000000001
 40
0.2500000000000001
 40
0.5000000000000002
 40
0.5000000000000002
 40
0.6250000000000002
 40
0.6250000000000002
 40
0.7500000000000001
 40
0.7500000000000001
 40
1.0
 40
1.0
 40
1.0
 40
1.0
 10
224.4213565377994
 20
239.465521560737
 30
0.0
 10
219.6275885122137
 20
239.4734680571573
 30
0.0
 10
217.364680188662
 20
239.4748902564269
 30
0.0
 10
210.190761766842
 20
239.4849808810394
 30
0.0
 10
206.6819630566073
 20
239.4889042955395
 30
0.0
 10
196.0383230209083
 20
239.4997036327109
 30
0.0
 10
188.9425637202305
 20
239.5074168449443
 30
0.0
 10
178.2989195623574
 20
239.514221885197
 30
0.0
 10
173.7608176949743
 20
239.522216959167
 30
0.0
 10
168.6455171700806
 20
239.5326101706075
 30
0.0
 10
165.1278504786113
 20
239.5382844446394
 30
0.0
 10
151.4230927705247
 20
239.6195029646652
 30
0.0
 10
148.7338807774366
 20
239.6725527892364
 30
0.0
 10
139.2738774883584
 20
239.8112030934107
 30
0.0
  0
SPLINE
  5
562
330
555
100
AcDbEntity
  8
0
  6
Continuous
 62
     7
370
    15
100
AcDbSpline
210
0.0
220
0.0
230
1.0
 70
     8
 71
     3
 72
    24
 73
    20
 74
     0
 42
0.000000001
 43
0.00000001
 40
0.0
 40
0.0
 40
0.0
 40
0.0
 40
0.1250000000000003
 40
0.1250000000000003
 40
0.1875000000000001
 40
0.1875000000000001
 40
0.25
 40
0.25
 40
0.3124999999999999
 40
0.3124999999999999
 40
0.3749999999999998
 40
0.3749999999999998
 40
0.4374999999999996
 40
0.4374999999999996
 40
0.4999999999999994
 40
0.4999999999999994
 40
0.7499999999999997
 40
0.7499999999999997
 40
1.0
 40
1.0
 40
1.0
 40
1.0
 10
346.3939252638542
 20
238.7788652379918
 30
0.0
 10
341.6290815002941
 20
238.8196389361625
 30
0.0
 10
339.1897995613612
 20
238.8233846500182
 30
0.0
 10
333.9144199858986
 20
238.8611821691754
 30
0.0
 10
332.3667720817817
 20
238.8752774838441
 30
0.0
 10
328.2581254161203
 20
238.9159972738399
 30
0.0
 10
325.5788445733346
 20
238.9437359589436
 30
0.0
 10
324.3253292869021
 20
238.9565258627217
 30
0.0
 10
321.9293028768364
 20
238.9811019569667
 30
0.0
 10
317.2541748365004
 20
239.0308129998731
 30
0.0
 10
317.3814779463301
 20
239.0294104937707
 30
0.0
 10
311.0813132472285
 20
239.0950789920116
 30
0.0
 10
310.4822765132901
 20
239.101437408912
 30
0.0
 10
307.2598016905951
 20
239.1330669627709
 30
0.0
 10
305.4370950996767
 20
239.1501640855416
 30
0.0
 10
295.8047978295403
 20
239.2367750893432
 30
0.0
 10
289.6409279225687
 20
239.2792547613234
 30
0.0
 10
274.4963176556986
 20
239.3568809093042
 30
0.0
 10
270.1562111473052
 20
239.3720746322867
 30
0.0
 10
260.6262210959425
 20
239.3977536649144
 30
0.0
  0
SPLINE
  5
563
330
555
100
AcDbEntity
  8
0
  6
Continuous
 62
     7
370
    15
100
AcDbSpline
210
0.0
220
0.0
230
1.0
 70
     8
 71
     3
 72
    10
 73
     6
 74
     0
 42
0.000000001
 43
0.00000001
 40
0.0
 40
0.0
 40
0.0
 40
0.0
 40
0.5
 40
0.5
 40
1.0
 40
1.0
 40
1.0
 40
1.0
 10
260.6186977927617
 20
239.3977734208289
 30
0.0
 10
252.082256615565
 20
239.4201888176183
 30
0.0
 10
250.2325196492264
 20
239.42096351169
 30
0.0
 10
234.8082822471492
 20
239.4530304589029
 30
0.0
 10
230.9648533870646
 20
239.455798222598
 30
0.0
 10
224.4213565377994
 20
239.465521560737
 30
0.0
  0
ENDBLK
  5
565
330
555
100
AcDbEntity
  8
0
100
AcDbBlockEnd
  0
BLOCK
  5
608
330
5FF
100
AcDbEntity
  8
0
100
AcDbBlockBegin
  2
fibergrallstrain
 70
     0
 10
0.0
 20
0.0
 30
0.0
  3
fibergrallstrain
  1
fibergrallstrain
  0
SPLINE
  5
600
330
5FF
100
AcDbEntity
  8
0
  6
Continuous
 62
     7
370
    15
100
AcDbSpline
210
0.0
220
0.0
230
1.0
 70
     8
 71
     3
 72
    22
 73
    18
 74
     0
 42
0.000000001
 43
0.00000001
 40
0.0
 40
0.0
 40
0.0
 40
0.0
 40
0.0625000000000002
 40
0.0625000000000002
 40
0.1250000000000003
 40
0.1250000000000003
 40
0.1875000000000006
 40
0.1875000000000006
 40
0.2500000000000007
 40
0.2500000000000007
 40
0.5000000000000004
 40
0.5000000000000004
 40
0.7500000000000002
 40
0.7500000000000002
 40
0.8750000000000001
 40
0.8750000000000001
 40
1.0
 40
1.0
 40
1.0
 40
1.0
 10
-338.6659005980986
 20
300.1593291755733
 30
0.0
 10
-335.1795313948937
 20
299.9505622384488
 30
0.0
 10
-333.5073331213311
 20
299.850419173172
 30
0.0
 10
-327.8652279616346
 20
299.5133852406856
 30
0.0
 10
-323.9153516064862
 20
299.2783774933129
 30
0.0
 10
-321.4977141105336
 20
299.1348537316181
 30
0.0
 10
-316.0741961226744
 20
298.8132276050337
 30
0.0
 10
-313.3792611156611
 20
298.6513376693813
 30
0.0
 10
-309.5603944660944
 20
298.4291307229265
 30
0.0
 10
-295.4902900181965
 20
297.6202406238079
 30
0.0
 10
-285.8584136151224
 20
297.087012102749
 30
0.0
 10
-263.7780421621358
 20
295.968688089759
 30
0.0
 10
-253.800470559018
 20
295.5092525716128
 30
0.0
 10
-237.4130999723085
 20
294.868174022555
 30
0.0
 10
-232.2860384687525
 20
294.6855587934205
 30
0.0
 10
-221.509684417061
 20
294.3447539725664
 30
0.0
 10
-218.0198993688369
 20
294.241995093883
 30
0.0
 10
-210.9161276901949
 20
294.0773191268683
 30
0.0
  0
SPLINE
  5
601
330
5FF
100
AcDbEntity
  8
0
  6
Continuous
 62
     7
370
    15
100
AcDbSpline
210
0.0
220
0.0
230
1.0
 70
     8
 71
     3
 72
    14
 73
    10
 74
     0
 42
0.000000001
 43
0.00000001
 40
0.0
 40
0.0
 40
0.0
 40
0.0
 40
0.25
 40
0.25
 40
0.5
 40
0.5
 40
0.75
 40
0.75
 40
1.0
 40
1.0
 40
1.0
 40
1.0
 10
-210.9161276901949
 20
294.0773191268683
 30
0.0
 10
-203.1396361491046
 20
293.9002773103733
 30
0.0
 10
-199.1899889594721
 20
293.8380354919456
 30
0.0
 10
-187.6446339606932
 20
293.6974439584049
 30
0.0
 10
-181.6397438140002
 20
293.6591762698809
 30
0.0
 10
-170.1924896191968
 20
293.6592025696196
 30
0.0
 10
-164.3593897706509
 20
293.6954140491318
 30
0.0
 10
-152.4704551862231
 20
293.840233676148
 30
0.0
 10
-148.6925982327222
 20
293.9003887498516
 30
0.0
 10
-140.916106538958
 20
294.077423848432
 30
0.0
  0
SPLINE
  5
602
330
5FF
100
AcDbEntity
  8
0
  6
Continuous
 62
     7
370
    15
100
AcDbSpline
210
0.0
220
0.0
230
1.0
 70
     8
 71
     3
 72
    22
 73
    18
 74
     0
 42
0.000000001
 43
0.00000001
 40
0.0
 40
0.0
 40
0.0
 40
0.0
 40
0.1249999999999999
 40
0.1249999999999999
 40
0.2499999999999999
 40
0.2499999999999999
 40
0.5
 40
0.5
 40
0.7500000000000002
 40
0.7500000000000002
 40
0.8125000000000001
 40
0.8125000000000001
 40
0.8750000000000001
 40
0.8750000000000001
 40
0.9375
 40
0.9375
 40
1.0
 40
1.0
 40
1.0
 40
1.0
 10
-140.916106538958
 20
294.077423848432
 30
0.0
 10
-133.8123360304733
 20
294.2420927627908
 30
0.0
 10
-130.3225161908734
 20
294.344845111731
 30
0.0
 10
-119.5462339606736
 20
294.6856260662477
 30
0.0
 10
-114.4190758662977
 20
294.8682332630201
 30
0.0
 10
-98.0318926409004
 20
295.5092681724423
 30
0.0
 10
-88.05408475845798
 20
295.9686918595301
 30
0.0
 10
-65.9739415089989
 20
297.0869534165896
 30
0.0
 10
-56.34187746964722
 20
297.6201706511821
 30
0.0
 10
-42.27186747361372
 20
298.4290227716179
 30
0.0
 10
-37.88618920392832
 20
298.6851809889673
 30
0.0
 10
-36.32484063520326
 20
298.7791430241229
 30
0.0
 10
-30.35316739830171
 20
299.1336030708753
 30
0.0
 10
-27.89825387135147
 20
299.2793338550159
 30
0.0
 10
-23.96991831557773
 20
299.513053263306
 30
0.0
 10
-18.32200785142697
 20
299.850417685984
 30
0.0
 10
-16.67158915302548
 20
299.9492556015552
 30
0.0
 10
-13.16634316671662
 20
300.159141290879
 30
0.0
  0
SPLINE
  5
603
330
5FF
100
AcDbEntity
  8
0
  6
Continuous
 62
     7
370
    15
100
AcDbSpline
210
0.0
220
0.0
230
1.0
 70
    24
 71
     3
 72
     8
 73
     4
 74
     0
 42
0.000000001
 43
0.00000001
 40
0.0
 40
0.0
 40
0.0
 40
0.0
 40
1.0
 40
1.0
 40
1.0
 40
1.0
 10
-13.16634316671662
 20
300.159141290879
 30
0.0
 10
-13.1663432912419
 20
304.1591328409837
 30
0.0
 10
-13.16634341576707
 20
308.1591243910884
 30
0.0
 10
-13.16634354029236
 20
312.1591159411931
 30
0.0
  0
SPLINE
  5
604
330
5FF
100
AcDbEntity
  8
0
  6
Continuous
 62
     7
370
    15
100
AcDbSpline
210
0.0
220
0.0
230
1.0
 70
     8
 71
     3
 72
    22
 73
    18
 74
     0
 42
0.000000001
 43
0.00000001
 40
0.0
 40
0.0
 40
0.0
 40
0.0
 40
0.0624999999999998
 40
0.0624999999999998
 40
0.1249999999999996
 40
0.1249999999999996
 40
0.1874999999999992
 40
0.1874999999999992
 40
0.249999999999999
 40
0.249999999999999
 40
0.4999999999999993
 40
0.4999999999999993
 40
0.7499999999999997
 40
0.7499999999999997
 40
0.8749999999999998
 40
0.8749999999999998
 40
1.0
 40
1.0
 40
1.0
 40
1.0
 10
-13.1663440402923
 20
312.1591159711325
 30
0.0
 10
-16.65216538654317
 20
312.3678429506717
 30
0.0
 10
-18.32393175062782
 20
312.4679567414038
 30
0.0
 10
-23.9679959869701
 20
312.8050964889387
 30
0.0
 10
-27.84717163344806
 20
313.0359002931207
 30
0.0
 10
-30.40425076794781
 20
313.1876977458371
 30
0.0
 10
-35.79068060165173
 20
313.5071180393163
 30
0.0
 10
-38.42035076873515
 20
313.665096584192
 30
0.0
 10
-42.27132375206554
 20
313.8892478544379
 30
0.0
 10
-56.34404833433405
 20
314.6982670267145
 30
0.0
 10
-65.97382475528127
 20
315.2313840129727
 30
0.0
 10
-88.05419528237076
 20
316.3497075688609
 30
0.0
 10
-98.03177786087994
 20
316.8091435370345
 30
0.0
 10
-114.4191254819611
 20
317.4502211657172
 30
0.0
 10
-119.5461840487613
 20
317.6328362803443
 30
0.0
 10
-130.3225544798709
 20
317.973641667398
 30
0.0
 10
-133.8123300016987
 20
318.0764002330394
 30
0.0
 10
-140.9161006120235
 20
318.2410761605418
 30
0.0
  0
SPLINE
  5
605
330
5FF
100
AcDbEntity
  8
0
  6
Continuous
 62
     7
370
    15
100
AcDbSpline
210
0.0
220
0.0
230
1.0
 70
     8
 71
     3
 72
    14
 73
    10
 74
     0
 42
0.000000001
 43
0.00000001
 40
0.0
 40
0.0
 40
0.0
 40
0.0
 40
0.25
 40
0.25
 40
0.4999999999999999
 40
0.4999999999999999
 40
0.75
 40
0.75
 40
1.0
 40
1.0
 40
1.0
 40
1.0
 10
-140.9161006120235
 20
318.2410761605418
 30
0.0
 10
-148.6925921718839
 20
318.4181179149393
 30
0.0
 10
-152.6422331152519
 20
318.4803596824644
 30
0.0
 10
-164.1876006510556
 20
318.6209512313945
 30
0.0
 10
-170.1924959552988
 20
318.6592190118597
 30
0.0
 10
-181.639727376599
 20
318.6591927008337
 30
0.0
 10
-187.472834127958
 20
318.6229812042067
 30
0.0
 10
-199.3617777594497
 20
318.4781615201099
 30
0.0
 10
-203.1396302114439
 20
318.4180064738459
 30
0.0
 10
-210.916121919959
 20
318.2409712450733
 30
0.0
  0
SPLINE
  5
606
330
5FF
100
AcDbEntity
  8
0
  6
Continuous
 62
     7
370
    15
100
AcDbSpline
210
0.0
220
0.0
230
1.0
 70
     8
 71
     3
 72
    22
 73
    18
 74
     0
 42
0.000000001
 43
0.00000001
 40
0.0
 40
0.0
 40
0.0
 40
0.0
 40
0.1249999999999998
 40
0.1249999999999998
 40
0.2499999999999997
 40
0.2499999999999997
 40
0.4999999999999993
 40
0.4999999999999993
 40
0.7499999999999991
 40
0.7499999999999991
 40
0.8124999999999993
 40
0.8124999999999993
 40
0.8749999999999996
 40
0.8749999999999996
 40
0.9374999999999998
 40
0.9374999999999998
 40
1.0
 40
1.0
 40
1.0
 40
1.0
 10
-210.9161219199591
 20
318.2409712450733
 30
0.0
 10
-218.0198918119587
 20
318.0763022536146
 30
0.0
 10
-221.5097103623856
 20
317.9735500681961
 30
0.0
 10
-232.2859936417035
 20
317.6327690671876
 30
0.0
 10
-237.4131428271287
 20
317.450162147847
 30
0.0
 10
-253.8003470594933
 20
316.809126566091
 30
0.0
 10
-263.7781429588723
 20
316.3497035488436
 30
0.0
 10
-285.8582766790867
 20
315.2314426378751
 30
0.0
 10
-295.4894904093066
 20
314.6982681181991
 30
0.0
 10
-309.5605664202104
 20
313.8893734105909
 30
0.0
 10
-313.9679187462932
 20
313.6318913672893
 30
0.0
 10
-315.485489351141
 20
313.5405591500341
 30
0.0
 10
-321.4031471475357
 20
313.1893155286133
 30
0.0
 10
-324.0098714134064
 20
313.0345773924749
 30
0.0
 10
-327.8626538038875
 20
312.80534978414
 30
0.0
 10
-333.5098601363424
 20
312.468037009712
 30
0.0
 10
-335.1635300343345
 20
312.3690086166253
 30
0.0
 10
-338.6658771686482
 20
312.1593038646341
 30
0.0
  0
SPLINE
  5
607
330
5FF
100
AcDbEntity
  8
0
  6
Continuous
 62
     7
370
    15
100
AcDbSpline
210
0.0
220
0.0
230
1.0
 70
    24
 71
     3
 72
     8
 73
     4
 74
     0
 42
0.000000001
 43
0.00000001
 40
0.0
 40
0.0
 40
0.0
 40
0.0
 40
1.0
 40
1.0
 40
1.0
 40
1.0
 10
-338.6658771686492
 20
312.1593033640677
 30
0.0
 10
-338.6658851451323
 20
308.1593119778831
 30
0.0
 10
-338.6658931216154
 20
304.1593205916984
 30
0.0
 10
-338.6659010980985
 20
300.1593292055138
 30
0.0
  0
ENDBLK
  5
609
330
5FF
100
AcDbEntity
  8
0
100
AcDbBlockEnd
  0
BLOCK
  5
677
330
66F
100
AcDbEntity
  8
0
100
AcDbBlockBegin
  2
tira2
 70
     0
 10
0.0
 20
0.0
 30
0.0
  3
tira2
  1
tira2
  0
SPLINE
  5
670
330
66F
100
AcDbEntity
  8
0
  6
Continuous
 62
     7
370
    15
100
AcDbSpline
210
0.0
220
0.0
230
1.0
 70
     8
 71
     3
 72
    24
 73
    20
 74
     0
 42
0.000000001
 43
0.00000001
 40
0.0
 40
0.0
 40
0.0
 40
0.0
 40
0.0625000000000006
 40
0.0625000000000006
 40
0.1250000000000012
 40
0.1250000000000012
 40
0.2500000000000014
 40
0.2500000000000014
 40
0.5000000000000011
 40
0.5000000000000011
 40
0.6250000000000009
 40
0.6250000000000009
 40
0.7500000000000008
 40
0.7500000000000008
 40
0.8750000000000007
 40
0.8750000000000007
 40
0.9375000000000003
 40
0.9375000000000003
 40
1.0
 40
1.0
 40
1.0
 40
1.0
 10
883.6060077572122
 20
-216.2139995368881
 30
0.0
 10
889.3059205738839
 20
-217.2905938030145
 30
0.0
 10
892.4294758272301
 20
-217.9172197554167
 30
0.0
 10
900.4887704824478
 20
-219.0400408676526
 30
0.0
 10
905.4208292918671
 20
-219.7373884692487
 30
0.0
 10
917.3233002415085
 20
-221.3296376991926
 30
0.0
 10
926.8590107599136
 20
-222.3876633798885
 30
0.0
 10
952.2704464902544
 20
-224.7351550216805
 30
0.0
 10
971.4595230440909
 20
-225.894786372524
 30
0.0
 10
995.3861268748744
 20
-227.231821133429
 30
0.0
 10
1003.551208112308
 20
-227.670601960405
 30
0.0
 10
1023.402241804613
 20
-228.7374559134957
 30
0.0
 10
1030.216263180865
 20
-229.110345018224
 30
0.0
 10
1048.874323944354
 20
-230.0421054035934
 30
0.0
 10
1056.637783447149
 20
-230.4000776483416
 30
0.0
 10
1070.123182255533
 20
-230.7463878361573
 30
0.0
 10
1074.111934795694
 20
-230.8094592472235
 30
0.0
 10
1083.245842803212
 20
-230.8077697464211
 30
0.0
 10
1085.930178436902
 20
-230.7541310029892
 30
0.0
 10
1091.72875260217
 20
-230.5811694169297
 30
0.0
  0
SPLINE
  5
671
330
66F
100
AcDbEntity
  8
0
  6
Continuous
 62
     7
370
    15
100
AcDbSpline
210
0.0
220
0.0
230
1.0
 70
     8
 71
     3
 72
    22
 73
    18
 74
     0
 42
0.000000001
 43
0.00000001
 40
0.0
 40
0.0
 40
0.0
 40
0.0
 40
0.1249999999999998
 40
0.1249999999999998
 40
0.2499999999999999
 40
0.2499999999999999
 40
0.375
 40
0.375
 40
0.5000000000000001
 40
0.5000000000000001
 40
0.625
 40
0.625
 40
0.75
 40
0.75
 40
0.875
 40
0.875
 40
1.0
 40
1.0
 40
1.0
 40
1.0
 10
1091.72875260217
 20
-230.5811694169297
 30
0.0
 10
1100.16674861852
 20
-230.2916694818736
 30
0.0
 10
1104.409537391863
 20
-229.9969420277043
 30
0.0
 10
1116.976063148155
 20
-229.0252000713983
 30
0.0
 10
1123.023594691123
 20
-228.4526010039929
 30
0.0
 10
1136.194869850095
 20
-227.1074587178269
 30
0.0
 10
1141.671382917092
 20
-226.5083462809955
 30
0.0
 10
1155.322629215726
 20
-225.0049297395849
 30
0.0
 10
1161.891004693018
 20
-224.2738771342519
 30
0.0
 10
1172.863989380322
 20
-223.0580936148735
 30
0.0
 10
1179.380686999079
 20
-222.3375877394014
 30
0.0
 10
1193.13603477614
 20
-220.8198164145753
 30
0.0
 10
1197.54788755051
 20
-220.3335295087983
 30
0.0
 10
1212.731765761111
 20
-218.6602092239785
 30
0.0
 10
1218.230277946239
 20
-218.0547299886571
 30
0.0
 10
1229.813227551923
 20
-216.7837048151474
 30
0.0
 10
1234.512299200427
 20
-216.2703089977808
 30
0.0
 10
1242.905703195834
 20
-215.3600602055251
 30
0.0
  0
SPLINE
  5
672
330
66F
100
AcDbEntity
  8
0
  6
Continuous
 62
     7
370
    15
100
AcDbSpline
210
0.0
220
0.0
230
1.0
 70
     8
 71
     3
 72
    24
 73
    20
 74
     0
 42
0.000000001
 43
0.00000001
 40
0.0
 40
0.0
 40
0.0
 40
0.0
 40
0.1250000000000001
 40
0.1250000000000001
 40
0.1875000000000002
 40
0.1875000000000002
 40
0.2500000000000003
 40
0.2500000000000003
 40
0.3750000000000003
 40
0.3750000000000003
 40
0.5000000000000003
 40
0.5000000000000003
 40
0.7500000000000002
 40
0.7500000000000002
 40
0.8750000000000001
 40
0.8750000000000001
 40
0.9375
 40
0.9375
 40
1.0
 40
1.0
 40
1.0
 40
1.0
 10
1236.230209404817
 20
-153.0750459420988
 30
0.0
 10
1228.077126686383
 20
-153.9349286858034
 30
0.0
 10
1225.42448539323
 20
-154.2820179638562
 30
0.0
 10
1214.134134234642
 20
-155.5337272279071
 30
0.0
 10
1212.101539669741
 20
-155.7577273096051
 30
0.0
 10
1205.359064506497
 20
-156.4998572085496
 30
0.0
 10
1202.183584871279
 20
-156.8484787035028
 30
0.0
 10
1194.319940141142
 20
-157.708632589184
 30
0.0
 10
1186.92916269273
 20
-158.510962554094
 30
0.0
 10
1175.518530524176
 20
-159.7362577344973
 30
0.0
 10
1169.459536855627
 20
-160.3809969429871
 30
0.0
 10
1149.72509611926
 20
-162.4642367042777
 30
0.0
 10
1138.425006900919
 20
-163.6798807961626
 30
0.0
 10
1120.090051623276
 20
-165.70096041754
 30
0.0
 10
1113.418658298797
 20
-166.4355852905754
 30
0.0
 10
1105.093933536057
 20
-167.3830013494003
 30
0.0
 10
1101.401706789728
 20
-167.8235381156749
 30
0.0
 10
1096.014490906306
 20
-168.452012794139
 30
0.0
 10
1093.61495408199
 20
-168.6967043861083
 30
0.0
 10
1089.532794857803
 20
-169.0716316167654
 30
0.0
  0
SPLINE
  5
673
330
66F
100
AcDbEntity
  8
0
  6
Continuous
 62
     7
370
    15
100
AcDbSpline
210
0.0
220
0.0
230
1.0
 70
     8
 71
     3
 72
    34
 73
    30
 74
     0
 42
0.000000001
 43
0.00000001
 40
0.0
 40
0.0
 40
0.0
 40
0.0
 40
0.0624999999999991
 40
0.0624999999999991
 40
0.1249999999999982
 40
0.1249999999999982
 40
0.1562499999999979
 40
0.1562499999999979
 40
0.1874999999999976
 40
0.1874999999999976
 40
0.2499999999999967
 40
0.2499999999999967
 40
0.2812499999999966
 40
0.2812499999999966
 40
0.3124999999999964
 40
0.3124999999999964
 40
0.3749999999999966
 40
0.3749999999999966
 40
0.4374999999999968
 40
0.4374999999999968
 40
0.4999999999999969
 40
0.4999999999999969
 40
0.6249999999999977
 40
0.6249999999999977
 40
0.7499999999999984
 40
0.7499999999999984
 40
0.8749999999999992
 40
0.8749999999999992
 40
1.0
 40
1.0
 40
1.0
 40
1.0
 10
1089.532787553423
 20
-169.0716317694652
 30
0.0
 10
1084.270959290819
 20
-169.1816315754628
 30
0.0
 10
1083.078308666238
 20
-169.174595504207
 30
0.0
 10
1072.327009077693
 20
-168.5384268077983
 30
0.0
 10
1068.727541353971
 20
-168.3518838288135
 30
0.0
 10
1064.462910960221
 20
-168.1232796917066
 30
0.0
 10
1062.767149810178
 20
-168.0331317349622
 30
0.0
 10
1058.827192139173
 20
-167.8249426660556
 30
0.0
 10
1055.200798470491
 20
-167.6344619178521
 30
0.0
 10
1051.792156648257
 20
-167.4558182465909
 30
0.0
 10
1045.091727578227
 20
-167.105529406757
 30
0.0
 10
1040.820701729554
 20
-166.8826479659815
 30
0.0
 10
1039.234690734777
 20
-166.8000398705376
 30
0.0
 10
1033.433721271511
 20
-166.4983617564108
 30
0.0
 10
1032.673930243973
 20
-166.4588569850098
 30
0.0
 10
1025.924200668955
 20
-166.1077607021329
 30
0.0
 10
1022.187858491854
 20
-165.9122275523869
 30
0.0
 10
1015.019392458068
 20
-165.5427593996121
 30
0.0
 10
1011.313798427313
 20
-165.3556265244474
 30
0.0
 10
1002.25142987764
 20
-164.8945944195232
 30
0.0
 10
999.7837029001308
 20
-164.7680442815063
 30
0.0
 10
985.3179669586207
 20
-164.0211000812827
 30
0.0
 10
979.5895008104953
 20
-163.7200379670458
 30
0.0
 10
963.0594715730359
 20
-162.7324893237541
 30
0.0
 10
955.554260607433
 20
-162.2280602074505
 30
0.0
 10
939.8611173396084
 20
-160.9830702400147
 30
0.0
 10
933.6878743935966
 20
-160.4244580138621
 30
0.0
 10
914.5808590756792
 20
-158.464964555103
 30
0.0
 10
910.8823374155103
 20
-159.003299058638
 30
0.0
 10
900.7366604816133
 20
-156.1092460071948
 30
0.0
  0
SPLINE
  5
674
330
66F
100
AcDbEntity
  8
0
  6
Continuous
 62
     7
370
    15
100
AcDbSpline
210
0.0
220
0.0
230
1.0
 70
     8
 71
     3
 72
    16
 73
    12
 74
     0
 42
0.000000001
 43
0.00000001
 40
0.0
 40
0.0
 40
0.0
 40
0.0
 40
0.125
 40
0.125
 40
0.25
 40
0.25
 40
0.5
 40
0.5
 40
0.75
 40
0.75
 40
1.0
 40
1.0
 40
1.0
 40
1.0
 10
900.7366566511612
 20
-156.1092454511422
 30
0.0
 10
896.7884495779984
 20
-155.5360988430208
 30
0.0
 10
894.9553521967177
 20
-155.6620982597245
 30
0.0
 10
892.8568263609154
 20
-159.8726504379814
 30
0.0
 10
892.328127891867
 20
-163.9951168517003
 30
0.0
 10
891.1480830631592
 20
-168.910372723607
 30
0.0
 10
889.8613041154024
 20
-176.0350400439201
 30
0.0
 10
888.4216792424663
 20
-185.3415836630573
 30
0.0
 10
887.7446886645918
 20
-190.0894900829323
 30
0.0
 10
886.0783468906213
 20
-201.7726963607056
 30
0.0
 10
885.6910016057132
 20
-204.4028789464912
 30
0.0
 10
884.5432557548847
 20
-211.1531816093923
 30
0.0
  0
SPLINE
  5
675
330
66F
100
AcDbEntity
  8
0
  6
Continuous
 62
     7
370
    15
100
AcDbSpline
210
0.0
220
0.0
230
1.0
 70
    24
 71
     3
 72
     8
 73
     4
 74
     0
 42
0.000000001
 43
0.00000001
 40
0.0
 40
0.0
 40
0.0
 40
0.0
 40
1.0
 40
1.0
 40
1.0
 40
1.0
 10
884.5432548409652
 20
-211.1531865442417
 30
0.0
 10
884.2308389773681
 20
-212.8401241765342
 30
0.0
 10
883.9184231137709
 20
-214.5270618088268
 30
0.0
 10
883.6060072501739
 20
-216.2139994411193
 30
0.0
  0
LINE
  5
676
330
66F
100
AcDbEntity
  8
0
100
AcDbLine
 10
1236.230209404817
 20
-153.0750459420988
 30
0.0
 11
1242.905809072422
 21
-215.3600488473296
 31
0.0
  0
ENDBLK
  5
678
330
66F
100
AcDbEntity
  8
0
100
AcDbBlockEnd
  0
BLOCK
  5
713
330
712
100
AcDbEntity
  8
0
100
AcDbBlockBegin
  2
*D18
 70
     1
 10
0.0
 20
0.0
 30
0.0
  3
*D18
  1
*D18
  0
LINE
  5
715
330
712
100
AcDbEntity
  8
0
 62
     0
370
    -2
100
AcDbLine
 10
1053.765389317147
 20
210.5309399202712
 30
0.0
 11
1203.961711384742
 21
210.5309399202712
 31
0.0
  0
LINE
  5
716
330
712
100
AcDbEntity
  8
0
 62
     0
370
    -2
100
AcDbLine
 10
1053.765389317147
 20
7.207423984635284
 30
0.0
 11
1203.961711384742
 21
7.207423984635275
 31
0.0
  0
LINE
  5
717
330
712
100
AcDbEntity
  8
0
 62
     0
370
    -2
100
AcDbLine
 10
1202.711711384742
 20
208.0309399202712
 30
0.0
 11
1202.711711384742
 21
9.707423984635275
 31
0.0
  0
SOLID
  5
718
330
712
100
AcDbEntity
  8
0
 62
     0
100
AcDbTrace
 10
1203.128378051408
 20
208.0309399202712
 30
0.0
 11
1202.295044718075
 21
208.0309399202712
 31
0.0
 12
1202.711711384742
 22
210.5309399202712
 32
0.0
 13
1202.711711384742
 23
210.5309399202712
 33
0.0
  0
SOLID
  5
719
330
712
100
AcDbEntity
  8
0
 62
     0
100
AcDbTrace
 10
1202.295044718075
 20
9.707423984635275
 30
0.0
 11
1203.128378051408
 21
9.707423984635275
 31
0.0
 12
1202.711711384742
 22
7.207423984635275
 32
0.0
 13
1202.711711384742
 23
7.207423984635275
 33
0.0
  0
MTEXT
  5
71A
330
712
100
AcDbEntity
  8
0
 62
     0
100
AcDbMText
 10
1200.585461384742
 20
108.8691819524532
 30
0.0
 40
2.5
 41
0.0
 71
     5
 72
     1
  1
203,32
 11
0.0
 21
1.0
 31
0.0
 73
     1
 44
1.0
  0
POINT
  5
71B
330
712
100
AcDbEntity
  8
Defpoints
 62
     0
100
AcDbPoint
 10
1053.140389317147
 20
210.5309399202712
 30
0.0
  0
POINT
  5
71C
330
712
100
AcDbEntity
  8
Defpoints
 62
     0
100
AcDbPoint
 10
1053.140389317147
 20
7.207423984635284
 30
0.0
  0
POINT
  5
71D
330
712
100
AcDbEntity
  8
Defpoints
 62
     0
100
AcDbPoint
 10
1202.711711384742
 20
7.207423984635275
 30
0.0
  0
ENDBLK
  5
714
330
712
100
AcDbEntity
  8
0
100
AcDbBlockEnd
  0
BLOCK
  5
722
330
721
100
AcDbEntity
  8
0
100
AcDbBlockBegin
  2
*D19
 70
     1
 10
0.0
 20
0.0
 30
0.0
  3
*D19
  1
*D19
  0
LINE
  5
724
330
721
100
AcDbEntity
  8
0
 62
     0
370
    -2
100
AcDbLine
 10
1053.140389317147
 20
209.9059399202712
 30
0.0
 11
1053.140389317147
 21
-19.75014699573251
 31
0.0
  0
LINE
  5
725
330
721
100
AcDbEntity
  8
0
 62
     0
370
    -2
100
AcDbLine
 10
721.2790184796726
 20
209.9059399202712
 30
0.0
 11
721.2790184796726
 21
-19.75014699573251
 31
0.0
  0
LINE
  5
726
330
721
100
AcDbEntity
  8
0
 62
     0
370
    -2
100
AcDbLine
 10
1050.640389317147
 20
-18.50014699573251
 30
0.0
 11
723.7790184796726
 21
-18.50014699573251
 31
0.0
  0
SOLID
  5
727
330
721
100
AcDbEntity
  8
0
 62
     0
100
AcDbTrace
 10
1050.640389317147
 20
-18.91681366239917
 30
0.0
 11
1050.640389317147
 21
-18.08348032906584
 31
0.0
 12
1053.140389317147
 22
-18.50014699573251
 32
0.0
 13
1053.140389317147
 23
-18.50014699573251
 33
0.0
  0
SOLID
  5
728
330
721
100
AcDbEntity
  8
0
 62
     0
100
AcDbTrace
 10
723.7790184796726
 20
-18.08348032906584
 30
0.0
 11
723.7790184796726
 21
-18.91681366239917
 31
0.0
 12
721.2790184796726
 22
-18.50014699573251
 32
0.0
 13
721.2790184796726
 23
-18.50014699573251
 33
0.0
  0
MTEXT
  5
729
330
721
100
AcDbEntity
  8
0
 62
     0
100
AcDbMText
 10
887.20970389841
 20
-16.37389699573251
 30
0.0
 40
2.5
 41
0.0
 71
     5
 72
     1
  1
331,86
 73
     1
 44
1.0
  0
POINT
  5
72A
330
721
100
AcDbEntity
  8
Defpoints
 62
     0
100
AcDbPoint
 10
1053.140389317147
 20
210.5309399202712
 30
0.0
  0
POINT
  5
72B
330
721
100
AcDbEntity
  8
Defpoints
 62
     0
100
AcDbPoint
 10
721.2790184796726
 20
210.5309399202712
 30
0.0
  0
POINT
  5
72C
330
721
100
AcDbEntity
  8
Defpoints
 62
     0
100
AcDbPoint
 10
721.2790184796726
 20
-18.50014699573251
 30
0.0
  0
ENDBLK
  5
723
330
721
100
AcDbEntity
  8
0
100
AcDbBlockEnd
  0
BLOCK
  5
732
330
731
100
AcDbEntity
  8
0
100
AcDbBlockBegin
  2
*D20
 70
     1
 10
0.0
 20
0.0
 30
0.0
  3
*D20
  1
*D20
  0
LINE
  5
734
330
731
100
AcDbEntity
  8
0
 62
     0
370
    -2
100
AcDbLine
 10
24.34474582450957
 20
-151.6560173025933
 30
0.0
 11
24.34474582450957
 21
-124.1081793304263
 31
0.0
  0
LINE
  5
735
330
731
100
AcDbEntity
  8
0
 62
     0
370
    -2
100
AcDbLine
 10
347.4188014905132
 20
-151.6560173025933
 30
0.0
 11
347.4188014905132
 21
-124.1081793304263
 31
0.0
  0
LINE
  5
736
330
731
100
AcDbEntity
  8
0
 62
     0
370
    -2
100
AcDbLine
 10
26.84474582450957
 20
-125.3581793304263
 30
0.0
 11
344.9188014905132
 21
-125.3581793304263
 31
0.0
  0
SOLID
  5
737
330
731
100
AcDbEntity
  8
0
 62
     0
100
AcDbTrace
 10
26.84474582450957
 20
-124.9415126637596
 30
0.0
 11
26.84474582450957
 21
-125.7748459970929
 31
0.0
 12
24.34474582450957
 22
-125.3581793304263
 32
0.0
 13
24.34474582450957
 23
-125.3581793304263
 33
0.0
  0
SOLID
  5
738
330
731
100
AcDbEntity
  8
0
 62
     0
100
AcDbTrace
 10
344.9188014905132
 20
-125.7748459970929
 30
0.0
 11
344.9188014905132
 21
-124.9415126637596
 31
0.0
 12
347.4188014905132
 22
-125.3581793304263
 32
0.0
 13
347.4188014905132
 23
-125.3581793304263
 33
0.0
  0
MTEXT
  5
739
330
731
100
AcDbEntity
  8
0
 62
     0
100
AcDbMText
 10
185.8817736575114
 20
-123.2319293304263
 30
0.0
 40
2.5
 41
0.0
 71
     5
 72
     1
  1
323,07
 73
     1
 44
1.0
  0
POINT
  5
73A
330
731
100
AcDbEntity
  8
Defpoints
 62
     0
100
AcDbPoint
 10
24.34474582450957
 20
-152.2810173025933
 30
0.0
  0
POINT
  5
73B
330
731
100
AcDbEntity
  8
Defpoints
 62
     0
100
AcDbPoint
 10
347.4188014905132
 20
-152.2810173025933
 30
0.0
  0
POINT
  5
73C
330
731
100
AcDbEntity
  8
Defpoints
 62
     0
100
AcDbPoint
 10
347.4188014905132
 20
-125.3581793304263
 30
0.0
  0
ENDBLK
  5
733
330
731
100
AcDbEntity
  8
0
100
AcDbBlockEnd
  0
BLOCK
  5
804
330
803
100
AcDbEntity
  8
0
100
AcDbBlockBegin
  2
*D25
 70
     1
 10
0.0
 20
0.0
 30
0.0
  3
*D25
  1
*D25
  0
LINE
  5
806
330
803
100
AcDbEntity
  8
0
 62
     0
370
    -2
100
AcDbLine
 10
15.73937886870431
 20
302.8224954103534
 30
0.0
 11
15.73937886870431
 21
346.6712704359809
 31
0.0
  0
LINE
  5
807
330
803
100
AcDbEntity
  8
0
 62
     0
370
    -2
100
AcDbLine
 10
485.3933301609505
 20
302.8224954103534
 30
0.0
 11
485.3933301609505
 21
346.6712704359809
 31
0.0
  0
LINE
  5
808
330
803
100
AcDbEntity
  8
0
 62
     0
370
    -2
100
AcDbLine
 10
18.23937886870431
 20
345.4212704359809
 30
0.0
 11
482.8933301609505
 21
345.4212704359809
 31
0.0
  0
SOLID
  5
809
330
803
100
AcDbEntity
  8
0
 62
     0
100
AcDbTrace
 10
18.23937886870431
 20
345.8379371026476
 30
0.0
 11
18.23937886870431
 21
345.0046037693142
 31
0.0
 12
15.73937886870431
 22
345.4212704359809
 32
0.0
 13
15.73937886870431
 23
345.4212704359809
 33
0.0
  0
SOLID
  5
80A
330
803
100
AcDbEntity
  8
0
 62
     0
100
AcDbTrace
 10
482.8933301609505
 20
345.0046037693142
 30
0.0
 11
482.8933301609505
 21
345.8379371026476
 31
0.0
 12
485.3933301609505
 22
345.4212704359809
 32
0.0
 13
485.3933301609505
 23
345.4212704359809
 33
0.0
  0
MTEXT
  5
80B
330
803
100
AcDbEntity
  8
0
 62
     0
100
AcDbMText
 10
250.5663545148274
 20
347.5475204359809
 30
0.0
 40
2.5
 41
0.0
 71
     5
 72
     1
  1
469,65
 73
     1
 44
1.0
  0
POINT
  5
80C
330
803
100
AcDbEntity
  8
Defpoints
 62
     0
100
AcDbPoint
 10
15.73937886870431
 20
302.1974954103534
 30
0.0
  0
POINT
  5
80D
330
803
100
AcDbEntity
  8
Defpoints
 62
     0
100
AcDbPoint
 10
485.3933301609505
 20
302.1974954103534
 30
0.0
  0
POINT
  5
80E
330
803
100
AcDbEntity
  8
Defpoints
 62
     0
100
AcDbPoint
 10
485.3933301609505
 20
345.4212704359809
 30
0.0
  0
ENDBLK
  5
805
330
803
100
AcDbEntity
  8
0
100
AcDbBlockEnd
  0
BLOCK
  5
813
330
812
100
AcDbEntity
  8
0
100
AcDbBlockBegin
  2
*D26
 70
     1
 10
0.0
 20
0.0
 30
0.0
  3
*D26
  1
*D26
  0
LINE
  5
815
330
812
100
AcDbEntity
  8
0
 62
     0
370
    -2
100
AcDbLine
 10
486.0183301609505
 20
302.1974954103534
 30
0.0
 11
521.4093143340369
 21
302.1974954103534
 31
0.0
  0
LINE
  5
816
330
812
100
AcDbEntity
  8
0
 62
     0
370
    -2
100
AcDbLine
 10
486.0183301609505
 20
58.39624044017478
 30
0.0
 11
521.4093143340369
 21
58.39624044017478
 31
0.0
  0
LINE
  5
817
330
812
100
AcDbEntity
  8
0
 62
     0
370
    -2
100
AcDbLine
 10
520.1593143340369
 20
299.6974954103534
 30
0.0
 11
520.1593143340369
 21
60.89624044017478
 31
0.0
  0
SOLID
  5
818
330
812
100
AcDbEntity
  8
0
 62
     0
100
AcDbTrace
 10
520.5759810007036
 20
299.6974954103534
 30
0.0
 11
519.7426476673703
 21
299.6974954103534
 31
0.0
 12
520.1593143340369
 22
302.1974954103534
 32
0.0
 13
520.1593143340369
 23
302.1974954103534
 33
0.0
  0
SOLID
  5
819
330
812
100
AcDbEntity
  8
0
 62
     0
100
AcDbTrace
 10
519.7426476673703
 20
60.89624044017478
 30
0.0
 11
520.5759810007036
 21
60.89624044017478
 31
0.0
 12
520.1593143340369
 22
58.39624044017478
 32
0.0
 13
520.1593143340369
 23
58.39624044017478
 33
0.0
  0
MTEXT
  5
81A
330
812
100
AcDbEntity
  8
0
 62
     0
100
AcDbMText
 10
518.0330643340369
 20
180.2968679252641
 30
0.0
 40
2.5
 41
0.0
 71
     5
 72
     1
  1
243,8
 11
0.0
 21
1.0
 31
0.0
 73
     1
 44
1.0
  0
POINT
  5
81B
330
812
100
AcDbEntity
  8
Defpoints
 62
     0
100
AcDbPoint
 10
485.3933301609505
 20
302.1974954103534
 30
0.0
  0
POINT
  5
81C
330
812
100
AcDbEntity
  8
Defpoints
 62
     0
100
AcDbPoint
 10
485.3933301609505
 20
58.39624044017478
 30
0.0
  0
POINT
  5
81D
330
812
100
AcDbEntity
  8
Defpoints
 62
     0
100
AcDbPoint
 10
520.1593143340369
 20
58.39624044017478
 30
0.0
  0
ENDBLK
  5
814
330
812
100
AcDbEntity
  8
0
100
AcDbBlockEnd
  0
ENDSEC
  0
SECTION
  2
ENTITIES
  0
SPLINE
  5
50F
330
1F
100
AcDbEntity
  8
0
  6
Continuous
 62
     7
370
    15
100
AcDbSpline
210
0.0
220
0.0
230
1.0
 70
     8
 71
     3
 72
   107
 73
   103
 74
     0
 42
0.000000001
 43
0.00000001
 40
0.0
 40
0.0
 40
0.0
 40
0.0
 40
0.0156249999999877
 40
0.0156249999999877
 40
0.0234374999999813
 40
0.0234374999999813
 40
0.0253906249999798
 40
0.0253906249999798
 40
0.0273437499999782
 40
0.0273437499999782
 40
0.0278320312499779
 40
0.0278320312499779
 40
0.0283203124999776
 40
0.0283203124999776
 40
0.0285644531249775
 40
0.0285644531249775
 40
0.0288085937499774
 40
0.0288085937499774
 40
0.0288696289062272
 40
0.0288696289062272
 40
0.0289306640624772
 40
0.0289306640624772
 40
0.0289611816406022
 40
0.0289611816406022
 40
0.0289764404296647
 40
0.0289764404296647
 40
0.0289916992187272
 40
0.0290222167968522
 40
0.0290222167968522
 40
0.0290527343749771
 40
0.0290527343749771
 40
0.0291137695312271
 40
0.0291442871093521
 40
0.0291442871093521
 40
0.0291748046874771
 40
0.0291748046874771
 40
0.0292968749999771
 40
0.0292968749999771
 40
0.0297851562499771
 40
0.0297851562499771
 40
0.0302734374999771
 40
0.0302734374999771
 40
0.031249999999977
 40
0.031249999999977
 40
0.0351562499999771
 40
0.0351562499999771
 40
0.0390624999999772
 40
0.0390624999999772
 40
0.0468749999999776
 40
0.0468749999999776
 40
0.0624999999999781
 40
0.0624999999999781
 40
0.0937499999999789
 40
0.0937499999999789
 40
0.1249999999999797
 40
0.1249999999999797
 40
0.1562499999999805
 40
0.1562499999999805
 40
0.1874999999999813
 40
0.1874999999999813
 40
0.2499999999999827
 40
0.2499999999999827
 40
0.3124999999999841
 40
0.3124999999999841
 40
0.3749999999999855
 40
0.3749999999999855
 40
0.4999999999999885
 40
0.4999999999999885
 40
0.6249999999999915
 40
0.6249999999999915
 40
0.7499999999999944
 40
0.7499999999999944
 40
0.8124999999999959
 40
0.8124999999999959
 40
0.8749999999999973
 40
0.8749999999999973
 40
0.9062499999999979
 40
0.9062499999999979
 40
0.9374999999999984
 40
0.9374999999999984
 40
0.9531249999999988
 40
0.9531249999999988
 40
0.960937499999999
 40
0.960937499999999
 40
0.9687499999999992
 40
0.9687499999999992
 40
0.9726562499999993
 40
0.9726562499999993
 40
0.9765624999999994
 40
0.9765624999999994
 40
0.9804687499999996
 40
0.9804687499999996
 40
0.9843749999999997
 40
0.9843749999999997
 40
0.9921875000000002
 40
0.9960937500000004
 40
0.9980468750000006
 40
0.9990234375000006
 40
0.9990234375000006
 40
0.9995117187500002
 40
0.9995117187500002
 40
1.0
 40
1.0
 40
1.0
 40
1.0
 10
983.6256423741308
 20
187.9016569573993
 30
0.0
 10
984.1440933324045
 20
188.7119745807096
 30
0.0
 10
984.6578109884284
 20
189.5217573527146
 30
0.0
 10
985.5077226358771
 20
190.8060702278098
 30
0.0
 10
985.7955488123671
 20
191.2387280105862
 30
0.0
 10
986.2677989350193
 20
191.8728670094452
 30
0.0
 10
986.3687471072899
 20
192.0050152228895
 30
0.0
 10
986.6002811924996
 20
192.2930865570297
 30
0.0
 10
986.726710996636
 20
192.4459872709028
 30
0.0
 10
986.9521125769313
 20
192.6887180404553
 30
0.0
 10
986.9996626050998
 20
192.7393046583819
 30
0.0
 10
987.1125758076685
 20
192.8533029428557
 30
0.0
 10
987.1789830915723
 20
192.9173298705641
 30
0.0
 10
987.298365193906
 20
193.0276354041867
 30
0.0
 10
987.3391978377553
 20
193.0654656156176
 30
0.0
 10
987.4491633218047
 20
193.1595204038663
 30
0.0
 10
987.5173461700424
 20
193.2151332501653
 30
0.0
 10
987.6391164284464
 20
193.3079093832361
 30
0.0
 10
987.6660535247522
 20
193.3280738820112
 30
0.0
 10
987.7314135189793
 20
193.3751888456934
 30
0.0
 10
987.7687727469438
 20
193.4015793992674
 30
0.0
 10
987.8418574433056
 20
193.4509149046122
 30
0.0
 10
987.8697696737936
 20
193.4693336735908
 30
0.0
 10
987.9211174975219
 20
193.5020091523608
 30
0.0
 10
987.9392802902814
 20
193.5134817349049
 30
0.0
 10
987.9832209950789
 20
193.5403228398528
 30
0.0
 10
988.0593004447355
 20
193.5857089013874
 30
0.0
 10
988.1545833095907
 20
193.6391120243426
 30
0.0
 10
988.2786048101524
 20
193.704364863476
 30
0.0
 10
988.337000214485
 20
193.7327765540669
 30
0.0
 10
988.4805670678832
 20
193.8011129409975
 30
0.0
 10
988.5759221522994
 20
193.8406009466214
 30
0.0
 10
988.6421828561342
 20
193.864627315173
 30
0.0
 10
988.6846938266615
 20
193.8802990787347
 30
0.0
 10
988.7053580504132
 20
193.8881133412767
 30
0.0
 10
988.8010777348436
 20
193.9230513676978
 30
0.0
 10
988.8582810148489
 20
193.9416555551521
 30
0.0
 10
989.1228666976112
 20
194.0256537191525
 30
0.0
 10
989.2417292566233
 20
194.0511959417801
 30
0.0
 10
989.4718106582238
 20
194.1010684073246
 30
0.0
 10
989.5680557875785
 20
194.1182657495561
 30
0.0
 10
989.8350760164569
 20
194.1612920389378
 30
0.0
 10
989.98181348005
 20
194.1774992693034
 30
0.0
 10
990.6651838455814
 20
194.2384329702796
 30
0.0
 10
991.0583577580819
 20
194.224307659421
 30
0.0
 10
991.8163079930034
 20
194.1792920062092
 30
0.0
 10
992.1615633211077
 20
194.1404130064063
 30
0.0
 10
993.1551356358675
 20
193.9980145758732
 30
0.0
 10
993.7601910247098
 20
193.8679966771231
 30
0.0
 10
995.5097131669415
 20
193.4211082853174
 30
0.0
 10
996.5870819302669
 20
193.0441720999154
 30
0.0
 10
999.688501475385
 20
191.7807367157068
 30
0.0
 10
1001.588419558768
 20
190.7528032399533
 30
0.0
 10
1005.198560854856
 20
188.455232882088
 30
0.0
 10
1006.88364682985
 20
187.1939070292336
 30
0.0
 10
1010.076786159389
 20
184.4830012343731
 30
0.0
 10
1011.590756294232
 20
183.0239771242703
 30
0.0
 10
1014.415977710747
 20
179.9794689962253
 30
0.0
 10
1015.727179810623
 20
178.3960540010778
 30
0.0
 10
1019.39464695149
 20
173.4825403735091
 30
0.0
 10
1021.48598348575
 20
169.9890412591228
 30
0.0
 10
1025.058588522657
 20
162.636931029134
 30
0.0
 10
1026.506759783416
 20
158.8380156528502
 30
0.0
 10
1028.849480187598
 20
151.1556149667614
 30
0.0
 10
1029.752252090584
 20
147.2456199502308
 30
0.0
 10
1031.877136709322
 20
135.5055262833789
 30
0.0
 10
1032.532355572165
 20
127.7275808796897
 30
0.0
 10
1033.600279794938
 20
112.323098218358
 30
0.0
 10
1034.023511247178
 20
104.6947408125078
 30
0.0
 10
1035.19033405643
 20
89.4838404290034
 30
0.0
 10
1035.931834725862
 20
81.89602774967085
 30
0.0
 10
1037.021135792391
 20
70.40687654292981
 30
0.0
 10
1037.374132557149
 20
66.55929862284162
 30
0.0
 10
1037.922289127734
 20
58.79103312955304
 30
0.0
 10
1038.122354841903
 20
54.87345002020919
 30
0.0
 10
1038.093174019367
 20
48.87243610120014
 30
0.0
 10
1038.026505979672
 20
46.84437837309514
 30
0.0
 10
1037.699132562946
 20
42.74958520734276
 30
0.0
 10
1037.443256035419
 20
40.68827547462249
 30
0.0
 10
1036.771135304265
 20
37.52509963170614
 30
0.0
 10
1036.497442277625
 20
36.4580242032135
 30
0.0
 10
1035.955083269746
 20
34.8151598931405
 30
0.0
 10
1035.753015666751
 20
34.26135818071555
 30
0.0
 10
1035.281406526394
 20
33.14266321077055
 30
0.0
 10
1035.012825007128
 20
32.57849653940247
 30
0.0
 10
1034.537560613388
 20
31.72251647120966
 30
0.0
 10
1034.36601639178
 20
31.43501533510428
 30
0.0
 10
1033.992745266109
 20
30.86093672391635
 30
0.0
 10
1033.790530432511
 20
30.57333857214209
 30
0.0
 10
1033.354213359111
 20
30.00915365948308
 30
0.0
 10
1033.121659412777
 20
29.73433361708686
 30
0.0
 10
1032.644423279287
 20
29.21240311891553
 30
0.0
 10
1032.400251095646
 20
28.96674011470476
 30
0.0
 10
1031.671001043431
 20
28.28084766880116
 30
0.0
 10
1030.939882310926
 20
27.68054695077522
 30
0.0
 10
1030.085621382746
 20
27.07815163278687
 30
0.0
 10
1029.658416289872
 20
26.79496410321005
 30
0.0
 10
1029.47533893386
 20
26.67676318071203
 30
0.0
 10
1029.383804223744
 20
26.61813240041072
 30
0.0
 10
1029.35331768878
 20
26.59867764146793
 30
0.0
 10
1029.290715975004
 20
26.55893355651078
 30
0.0
 10
1029.25938821551
 20
26.53913589696944
 30
0.0
 10
1029.231230253604
 20
26.52142152310994
 30
0.0
  0
SPLINE
  5
510
330
1F
100
AcDbEntity
  8
0
  6
Continuous
 62
     7
370
    15
100
AcDbSpline
210
0.0
220
0.0
230
1.0
 70
     8
 71
     3
 72
    41
 73
    37
 74
     0
 42
0.000000001
 43
0.00000001
 40
0.0
 40
0.0
 40
0.0
 40
0.0
 40
0.0004882812500002
 40
0.0004882812500002
 40
0.0009765625000003
 40
0.0009765625000003
 40
0.0019531250000006
 40
0.0039062500000008
 40
0.007812500000001
 40
0.0156250000000013
 40
0.0156250000000013
 40
0.0234375000000017
 40
0.0234375000000017
 40
0.0312500000000019
 40
0.0312500000000019
 40
0.0625000000000019
 40
0.0625000000000019
 40
0.1250000000000018
 40
0.1250000000000018
 40
0.1875000000000016
 40
0.1875000000000016
 40
0.2500000000000014
 40
0.2500000000000014
 40
0.3750000000000012
 40
0.3750000000000012
 40
0.500000000000001
 40
0.500000000000001
 40
0.6250000000000008
 40
0.6250000000000008
 40
0.7500000000000006
 40
0.7500000000000006
 40
0.8750000000000002
 40
0.8750000000000002
 40
0.9375000000000001
 40
0.9375000000000001
 40
1.0
 40
1.0
 40
1.0
 40
1.0
 10
1029.231230253604
 20
26.52142152310994
 30
0.0
 10
1029.201473846921
 20
26.50514623223663
 30
0.0
 10
1029.159949958353
 20
26.48282896385091
 30
0.0
 10
1029.076626911565
 20
26.438784696813
 30
0.0
 10
1029.037843516212
 20
26.41872259162294
 30
0.0
 10
1028.922839041585
 20
26.36010534213766
 30
0.0
 10
1028.694649973344
 20
26.24737807123284
 30
0.0
 10
1028.174547810537
 20
26.0142924693739
 30
0.0
 10
1027.180498105245
 20
25.65505285700819
 30
0.0
 10
1026.39660159716
 20
25.48639695847126
 30
0.0
 10
1025.392467476888
 20
25.30700572370586
 30
0.0
 10
1024.907392882141
 20
25.24237606417086
 30
0.0
 10
1023.960984967112
 20
25.15436028804275
 30
0.0
 10
1023.500454840604
 20
25.13003574424106
 30
0.0
 10
1021.248257456452
 20
25.06967997991336
 30
0.0
 10
1019.589041071798
 20
25.20853124345186
 30
0.0
 10
1014.727422254024
 20
25.83082708226357
 30
0.0
 10
1011.6770132458
 20
26.52813355162047
 30
0.0
 10
1005.710948589106
 20
28.06546156029763
 30
0.0
 10
1002.797887807599
 20
28.92254329453309
 30
0.0
 10
997.0487932976532
 20
30.62856238383739
 30
0.0
 10
994.1887144001505
 20
31.48702566243414
 30
0.0
 10
985.637239017856
 20
33.98383342888442
 30
0.0
 10
979.9705118649478
 20
35.52023984825315
 30
0.0
 10
968.5740874232316
 20
37.95344549396947
 30
0.0
 10
962.8142914934137
 20
38.86339001789
 30
0.0
 10
951.1594455146466
 20
40.35510756175232
 30
0.0
 10
945.2793119672158
 20
40.93870149934619
 30
0.0
 10
933.4682789057042
 20
41.94648081547845
 30
0.0
 10
927.5439505769928
 20
42.37019219570941
 30
0.0
 10
915.6870638389848
 20
43.12772561888683
 30
0.0
 10
909.7535555776667
 20
43.46044274227994
 30
0.0
 10
900.8612553918356
 20
43.8716121901479
 30
0.0
 10
897.8981345400621
 20
43.9938937768088
 30
0.0
 10
891.9854331656898
 20
44.18746663482727
 30
0.0
 10
889.0313610703229
 20
44.26589838250116
 30
0.0
 10
886.1256423741307
 20
44.26589838250115
 30
0.0
  0
SPLINE
  5
511
330
1F
100
AcDbEntity
  8
0
  6
Continuous
 62
     7
370
    15
100
AcDbSpline
210
0.0
220
0.0
230
1.0
 70
     8
 71
     3
 72
    56
 73
    52
 74
     0
 42
0.000000001
 43
0.00000001
 40
0.0
 40
0.0
 40
0.0
 40
0.0
 40
0.0020854538961882
 40
0.0042021732838946
 40
0.0063526053380884
 40
0.0085390840398751
 40
0.0107638299236283
 40
0.0130289509847275
 40
0.0153364445677831
 40
0.0176882000590061
 40
0.020086002216275
 40
0.0225315349845189
 40
0.0250263856606029
 40
0.027572049289523
 40
0.0301699331913756
 40
0.0328213615354294
 40
0.0355275798932208
 40
0.0382897597166015
 40
0.0411090026989611
 40
0.0522399419608284
 40
0.0643349287752422
 40
0.0774308298714721
 40
0.0915566773609344
 40
0.1179157010022228
 40
0.1484734051836648
 40
0.1734434971215991
 40
0.2063605950762203
 40
0.2243900408828961
 40
0.2424194866232107
 40
0.2604489324298853
 40
0.2776809665092664
 40
0.2947861892388685
 40
0.3117654997433796
 40
0.3481449643720362
 40
0.3829741026364315
 40
0.4162766146244046
 40
0.4538767842578388
 40
0.4946628726833467
 40
0.538658881399399
 40
0.6084165143277204
 40
0.6890688855378634
 40
0.7462464938176138
 40
0.8039088856651474
 40
0.8620600323817392
 40
0.8870364507453623
 40
0.9102548898485501
 40
0.9317158306101914
 40
0.9514198826359407
 40
0.9693678345515422
 40
0.9855607315612979
 40
0.9999999999999999
 40
0.9999999999999999
 40
0.9999999999999999
 40
0.9999999999999999
 10
743.0200544946574
 20
26.52142152310996
 30
0.0
 10
743.1091335118574
 20
26.47388992310552
 30
0.0
 10
743.2886270345471
 20
26.3781141209914
 30
0.0
 10
743.566151340769
 20
26.24540617580502
 30
0.0
 10
743.8520719585797
 20
26.11938331814939
 30
0.0
 10
744.1468760689352
 20
26.00093758664624
 30
0.0
 10
744.450429047892
 20
25.88982253201016
 30
0.0
 10
744.7627672393094
 20
25.78610428046323
 30
0.0
 10
745.0838802251328
 20
25.68976309144911
 30
0.0
 10
745.4137706548199
 20
25.60080292371505
 30
0.0
 10
745.7524377511103
 20
25.51922130295434
 30
0.0
 10
746.0998818251318
 20
25.44501763328306
 30
0.0
 10
746.4561030006313
 20
25.37819091327735
 30
0.0
 10
746.8211015567932
 20
25.31874036709885
 30
0.0
 10
747.1948777508712
 20
25.26666527210806
 30
0.0
 10
747.5774320815949
 20
25.22196498974566
 30
0.0
 10
747.9687643011642
 20
25.18463899932246
 30
0.0
 10
748.3688771341915
 20
25.15468669554735
 30
0.0
 10
749.1767291774294
 20
25.11007725353525
 30
0.0
 10
750.4385586932376
 20
25.09845368679666
 30
0.0
 10
752.1954908414359
 20
25.18660319586965
 30
0.0
 10
754.0898943980794
 20
25.37778299602235
 30
0.0
 10
756.6576528117331
 20
25.74954324086112
 30
0.0
 10
760.033206528018
 20
26.41755303910971
 30
0.0
 10
763.8846779216324
 20
27.35997586836515
 30
0.0
 10
768.010556096749
 20
28.50524984695251
 30
0.0
 10
771.5372614302455
 20
29.5392771052886
 30
0.0
 10
774.7378811153839
 20
30.4909881228573
 30
0.0
 10
777.2483280685931
 20
31.23513513560134
 30
0.0
 10
779.7208517608308
 20
31.97136970134514
 30
0.0
 10
782.1530291437031
 20
32.68633787112383
 30
0.0
 10
784.5421816825772
 20
33.36714372733377
 30
0.0
 10
787.8287693490913
 20
34.28061969837684
 30
0.0
 10
791.9590993865658
 20
35.36219363525312
 30
0.0
 10
796.8849086511427
 20
36.51957378769478
 30
0.0
 10
801.898532460518
 20
37.55383279474998
 30
0.0
 10
807.2262872547345
 20
38.47999625247922
 30
0.0
 10
813.0879105756743
 20
39.34460472156937
 30
0.0
 10
820.5122038480193
 20
40.27048586680229
 30
0.0
 10
829.8769380953596
 20
41.21386434158961
 30
0.0
 10
839.8940320722481
 20
42.02318463628517
 30
0.0
 10
849.3351794354998
 20
42.67851346092873
 30
0.0
 10
857.6941118387688
 20
43.19035202454528
 30
0.0
 10
864.5003032240107
 20
43.55056975637866
 30
0.0
 10
869.6428061729101
 20
43.7929887546272
 30
0.0
 10
873.0117478452734
 20
43.93765033275345
 30
0.0
 10
876.1263049244429
 20
44.0561507182304
 30
0.0
 10
878.9864827816267
 20
44.14881930624811
 30
0.0
 10
881.5922896087709
 20
44.21466352949484
 30
0.0
 10
883.9437321140824
 20
44.25706270384167
 30
0.0
 10
885.4266367016494
 20
44.26306774843873
 30
0.0
 10
886.1256423741307
 20
44.26589838250115
 30
0.0
  0
SPLINE
  5
512
330
1F
100
AcDbEntity
  8
0
  6
Continuous
 62
     7
370
    15
100
AcDbSpline
210
0.0
220
0.0
230
1.0
 70
     8
 71
     3
 72
    63
 73
    59
 74
     0
 42
0.000000001
 43
0.00000001
 40
0.0
 40
0.0
 40
0.0
 40
0.0
 40
0.0075752959273919
 40
0.0123992130507814
 40
0.0173545373417326
 40
0.0212843813777293
 40
0.0279755336264358
 40
0.0331829120812322
 40
0.0379190863346379
 40
0.0427306476935775
 40
0.0481844067715397
 40
0.0544417533413168
 40
0.0620768719549338
 40
0.0705884675949368
 40
0.0809390154124918
 40
0.092014035733051
 40
0.1187567591864064
 40
0.1503811833191028
 40
0.1871148954201539
 40
0.2251784693780972
 40
0.2527767771117323
 40
0.2810425079870605
 40
0.3101651017281921
 40
0.3537423266794452
 40
0.400944665799492
 40
0.4235052814854701
 40
0.4477272053752241
 40
0.4700744515183034
 40
0.4951232024227026
 40
0.5160515767890371
 40
0.5429408496263386
 40
0.5660406010274268
 40
0.5820613883891481
 40
0.5910032191837581
 40
0.6150819702454996
 40
0.6390867974570551
 40
0.6630185877301249
 40
0.6868782361212052
 40
0.704976668298961
 40
0.7337636210039817
 40
0.759547869152991
 40
0.778876166326504
 40
0.8013850613412947
 40
0.8210902496209234
 40
0.8410592058192824
 40
0.8591909732687185
 40
0.884086809790586
 40
0.9062531582267117
 40
0.9257978739406723
 40
0.9418555657371486
 40
0.9560441097100754
 40
0.9669047794340263
 40
0.9772173440577969
 40
0.9813644848904356
 40
0.9857038819331146
 40
0.9902488125670866
 40
0.9950108352892664
 40
1.0
 40
1.0
 40
1.0
 40
1.0
 10
788.6256423741308
 20
187.9016569573993
 30
0.0
 10
788.354927433613
 20
188.324351873323
 30
0.0
 10
787.9118223383559
 20
189.0162171639012
 30
0.0
 10
787.2888140021337
 20
189.9827865209552
 30
0.0
 10
786.7876931704674
 20
190.740487528156
 30
0.0
 10
786.203262728086
 20
191.5913040880498
 30
0.0
 10
785.5643821142079
 20
192.4243434414389
 30
0.0
 10
784.7897015523
 20
193.2165521365596
 30
0.0
 10
783.9587754818288
 20
193.7487813942848
 30
0.0
 10
783.0150751913513
 20
194.0848904078476
 30
0.0
 10
781.9244838135727
 20
194.2343929642535
 30
0.0
 10
780.6393868395655
 20
194.2174681341513
 30
0.0
 10
779.1645914097126
 20
194.0229375438705
 30
0.0
 10
777.4524609375885
 20
193.6244884421885
 30
0.0
 10
775.5624456483174
 20
193.0143604135653
 30
0.0
 10
772.6085778217076
 20
191.7986805930643
 30
0.0
 10
768.5622870292748
 20
189.5719655779684
 30
0.0
 10
763.4913146119256
 20
185.8007055492881
 30
0.0
 10
758.431216492437
 20
180.8568596490968
 30
0.0
 10
754.2429682030074
 20
175.4943220167693
 30
0.0
 10
750.9397018602396
 20
170.2114055870015
 30
0.0
 10
748.3647213865695
 20
165.1958440172515
 30
0.0
 10
745.7883918003624
 20
159.0146382007291
 30
0.0
 10
743.4202735908636
 20
151.4158655360537
 30
0.0
 10
741.857320318498
 20
144.0605843972811
 30
0.0
 10
740.9012403640323
 20
137.9061388023629
 30
0.0
 10
740.3311034250669
 20
133.3603981988593
 30
0.0
 10
739.8539762636065
 20
128.6386313959977
 30
0.0
 10
739.4758431187832
 20
124.1269459170854
 30
0.0
 10
739.1319717157829
 20
119.3108849949929
 30
0.0
 10
738.8267278451603
 20
114.6216680960497
 30
0.0
 10
738.5496068671921
 20
110.2565153138325
 30
0.0
 10
738.3453966898443
 20
107.0783605081728
 30
0.0
 10
738.1345867088762
 20
103.8356243997079
 30
0.0
 10
737.8689294869677
 20
100.066324264695
 30
0.0
 10
737.507093684349
 20
95.30815624339486
 30
0.0
 10
737.1166499892431
 20
90.56681133010423
 30
0.0
 10
736.7322756640876
 20
86.21773716437735
 30
0.0
 10
736.2925034536156
 20
81.55069466029738
 30
0.0
 10
735.8329743515922
 20
76.75743968509175
 30
0.0
 10
735.3699117282047
 20
71.88264937417543
 30
0.0
 10
734.9674567678312
 20
67.41999896355651
 30
0.0
 10
734.6423265089311
 20
63.35494310151456
 30
0.0
 10
734.3723951761565
 20
59.24324739035056
 30
0.0
 10
734.1998777945953
 20
55.41640999715069
 30
0.0
 10
734.1188190512426
 20
51.24248171461269
 30
0.0
 10
734.2058839127515
 20
46.92127979235239
 30
0.0
 10
734.562302828161
 20
42.5189361358956
 30
0.0
 10
735.1652254301902
 20
38.73361369810814
 30
0.0
 10
735.9977421181894
 20
35.53555177484847
 30
0.0
 10
736.9866800744715
 20
32.98820948305845
 30
0.0
 10
738.1451680214077
 20
30.94248366919294
 30
0.0
 10
739.193823069536
 20
29.62228691712143
 30
0.0
 10
740.0774767124184
 20
28.74345733610885
 30
0.0
 10
740.7237303824444
 20
28.17004630467838
 30
0.0
 10
741.4315354901203
 20
27.60681504512141
 30
0.0
 10
742.1990742073007
 20
27.05082475156779
 30
0.0
 10
742.7421774237454
 20
26.70060855198354
 30
0.0
 10
743.0200544946574
 20
26.52142152310998
 30
0.0
  0
LINE
  5
513
330
1F
100
AcDbEntity
  8
0
100
AcDbLine
 10
788.6256423741308
 20
187.9016569573993
 30
0.0
 11
983.6256423741307
 21
187.9016569573993
 31
0.0
  0
INSERT
  5
5A0
330
1F
100
AcDbEntity
  8
0
100
AcDbBlockReference
  2
banda1
 10
3.421443992296645
 20
48.50481952037771
 30
0.0
  0
SPLINE
  5
5FA
330
1F
100
AcDbEntity
  8
0
  6
Continuous
 62
     7
370
    15
100
AcDbSpline
210
0.0
220
0.0
230
1.0
 70
     8
 71
     3
 72
   107
 73
   103
 74
     0
 42
0.000000001
 43
0.00000001
 40
0.0
 40
0.0
 40
0.0
 40
0.0
 40
0.0156249999999877
 40
0.0156249999999877
 40
0.0234374999999813
 40
0.0234374999999813
 40
0.0253906249999798
 40
0.0253906249999798
 40
0.0273437499999782
 40
0.0273437499999782
 40
0.0278320312499779
 40
0.0278320312499779
 40
0.0283203124999776
 40
0.0283203124999776
 40
0.0285644531249775
 40
0.0285644531249775
 40
0.0288085937499774
 40
0.0288085937499774
 40
0.0288696289062272
 40
0.0288696289062272
 40
0.0289306640624772
 40
0.0289306640624772
 40
0.0289611816406022
 40
0.0289611816406022
 40
0.0289764404296647
 40
0.0289764404296647
 40
0.0289916992187272
 40
0.0290222167968522
 40
0.0290222167968522
 40
0.0290527343749771
 40
0.0290527343749771
 40
0.0291137695312271
 40
0.0291442871093521
 40
0.0291442871093521
 40
0.0291748046874771
 40
0.0291748046874771
 40
0.0292968749999771
 40
0.0292968749999771
 40
0.0297851562499771
 40
0.0297851562499771
 40
0.0302734374999771
 40
0.0302734374999771
 40
0.031249999999977
 40
0.031249999999977
 40
0.0351562499999771
 40
0.0351562499999771
 40
0.0390624999999772
 40
0.0390624999999772
 40
0.0468749999999776
 40
0.0468749999999776
 40
0.0624999999999781
 40
0.0624999999999781
 40
0.0937499999999789
 40
0.0937499999999789
 40
0.1249999999999797
 40
0.1249999999999797
 40
0.1562499999999805
 40
0.1562499999999805
 40
0.1874999999999813
 40
0.1874999999999813
 40
0.2499999999999827
 40
0.2499999999999827
 40
0.3124999999999841
 40
0.3124999999999841
 40
0.3749999999999855
 40
0.3749999999999855
 40
0.4999999999999885
 40
0.4999999999999885
 40
0.6249999999999915
 40
0.6249999999999915
 40
0.7499999999999944
 40
0.7499999999999944
 40
0.8124999999999959
 40
0.8124999999999959
 40
0.8749999999999973
 40
0.8749999999999973
 40
0.9062499999999979
 40
0.9062499999999979
 40
0.9374999999999984
 40
0.9374999999999984
 40
0.9531249999999988
 40
0.9531249999999988
 40
0.960937499999999
 40
0.960937499999999
 40
0.9687499999999992
 40
0.9687499999999992
 40
0.9726562499999993
 40
0.9726562499999993
 40
0.9765624999999994
 40
0.9765624999999994
 40
0.9804687499999996
 40
0.9804687499999996
 40
0.9843749999999997
 40
0.9843749999999997
 40
0.9921875000000002
 40
0.9960937500000004
 40
0.9980468750000006
 40
0.9990234375000006
 40
0.9990234375000006
 40
0.9995117187500002
 40
0.9995117187500002
 40
1.0
 40
1.0
 40
1.0
 40
1.0
 10
996.6289991863823
 20
403.1721822431844
 30
0.0
 10
997.147450144656
 20
403.9824998664947
 30
0.0
 10
997.6611678006799
 20
404.7922826384997
 30
0.0
 10
998.5110794481286
 20
406.0765955135949
 30
0.0
 10
998.7989056246186
 20
406.5092532963713
 30
0.0
 10
999.2711557472708
 20
407.1433922952303
 30
0.0
 10
999.3721039195414
 20
407.2755405086747
 30
0.0
 10
999.603638004751
 20
407.5636118428149
 30
0.0
 10
999.7300678088875
 20
407.7165125566879
 30
0.0
 10
999.9554693891828
 20
407.9592433262405
 30
0.0
 10
1000.003019417351
 20
408.0098299441671
 30
0.0
 10
1000.11593261992
 20
408.1238282286409
 30
0.0
 10
1000.182339903824
 20
408.1878551563493
 30
0.0
 10
1000.301722006157
 20
408.2981606899718
 30
0.0
 10
1000.342554650007
 20
408.3359909014027
 30
0.0
 10
1000.452520134056
 20
408.4300456896514
 30
0.0
 10
1000.520702982294
 20
408.4856585359504
 30
0.0
 10
1000.642473240698
 20
408.5784346690212
 30
0.0
 10
1000.669410337004
 20
408.5985991677963
 30
0.0
 10
1000.734770331231
 20
408.6457141314786
 30
0.0
 10
1000.772129559195
 20
408.6721046850525
 30
0.0
 10
1000.845214255557
 20
408.7214401903974
 30
0.0
 10
1000.873126486045
 20
408.7398589593759
 30
0.0
 10
1000.924474309773
 20
408.7725344381459
 30
0.0
 10
1000.942637102533
 20
408.7840070206901
 30
0.0
 10
1000.98657780733
 20
408.8108481256379
 30
0.0
 10
1001.062657256987
 20
408.8562341871726
 30
0.0
 10
1001.157940121842
 20
408.9096373101278
 30
0.0
 10
1001.281961622404
 20
408.9748901492612
 30
0.0
 10
1001.340357026736
 20
409.003301839852
 30
0.0
 10
1001.483923880135
 20
409.0716382267826
 30
0.0
 10
1001.579278964551
 20
409.1111262324065
 30
0.0
 10
1001.645539668386
 20
409.1351526009581
 30
0.0
 10
1001.688050638913
 20
409.1508243645198
 30
0.0
 10
1001.708714862665
 20
409.1586386270619
 30
0.0
 10
1001.804434547095
 20
409.193576653483
 30
0.0
 10
1001.8616378271
 20
409.2121808409373
 30
0.0
 10
1002.126223509863
 20
409.2961790049377
 30
0.0
 10
1002.245086068875
 20
409.3217212275653
 30
0.0
 10
1002.475167470475
 20
409.3715936931098
 30
0.0
 10
1002.57141259983
 20
409.3887910353412
 30
0.0
 10
1002.838432828708
 20
409.4318173247229
 30
0.0
 10
1002.985170292302
 20
409.4480245550885
 30
0.0
 10
1003.668540657833
 20
409.5089582560648
 30
0.0
 10
1004.061714570333
 20
409.4948329452061
 30
0.0
 10
1004.819664805255
 20
409.4498172919943
 30
0.0
 10
1005.164920133359
 20
409.4109382921914
 30
0.0
 10
1006.158492448119
 20
409.2685398616584
 30
0.0
 10
1006.763547836961
 20
409.1385219629082
 30
0.0
 10
1008.513069979193
 20
408.6916335711026
 30
0.0
 10
1009.590438742518
 20
408.3146973857005
 30
0.0
 10
1012.691858287636
 20
407.0512620014919
 30
0.0
 10
1014.591776371019
 20
406.0233285257384
 30
0.0
 10
1018.201917667107
 20
403.7257581678731
 30
0.0
 10
1019.887003642102
 20
402.4644323150187
 30
0.0
 10
1023.080142971641
 20
399.7535265201582
 30
0.0
 10
1024.594113106484
 20
398.2945024100554
 30
0.0
 10
1027.419334522998
 20
395.2499942820104
 30
0.0
 10
1028.730536622874
 20
393.6665792868629
 30
0.0
 10
1032.398003763742
 20
388.7530656592942
 30
0.0
 10
1034.489340298001
 20
385.259566544908
 30
0.0
 10
1038.061945334909
 20
377.9074563149191
 30
0.0
 10
1039.510116595667
 20
374.1085409386353
 30
0.0
 10
1041.85283699985
 20
366.4261402525466
 30
0.0
 10
1042.755608902836
 20
362.516145236016
 30
0.0
 10
1044.880493521573
 20
350.776051569164
 30
0.0
 10
1045.535712384416
 20
342.9981061654748
 30
0.0
 10
1046.603636607189
 20
327.5936235041432
 30
0.0
 10
1047.02686805943
 20
319.9652660982929
 30
0.0
 10
1048.193690868681
 20
304.7543657147885
 30
0.0
 10
1048.935191538114
 20
297.166553035456
 30
0.0
 10
1050.024492604642
 20
285.6774018287149
 30
0.0
 10
1050.377489369401
 20
281.8298239086267
 30
0.0
 10
1050.925645939985
 20
274.0615584153382
 30
0.0
 10
1051.125711654155
 20
270.1439753059943
 30
0.0
 10
1051.096530831619
 20
264.1429613869853
 30
0.0
 10
1051.029862791924
 20
262.1149036588803
 30
0.0
 10
1050.702489375197
 20
258.0201104931279
 30
0.0
 10
1050.446612847671
 20
255.9588007604076
 30
0.0
 10
1049.774492116517
 20
252.7956249174913
 30
0.0
 10
1049.500799089877
 20
251.7285494889986
 30
0.0
 10
1048.958440081998
 20
250.0856851789256
 30
0.0
 10
1048.756372479002
 20
249.5318834665007
 30
0.0
 10
1048.284763338645
 20
248.4131884965557
 30
0.0
 10
1048.01618181938
 20
247.8490218251876
 30
0.0
 10
1047.540917425639
 20
246.9930417569948
 30
0.0
 10
1047.369373204031
 20
246.7055406208894
 30
0.0
 10
1046.996102078361
 20
246.1314620097015
 30
0.0
 10
1046.793887244762
 20
245.8438638579272
 30
0.0
 10
1046.357570171362
 20
245.2796789452682
 30
0.0
 10
1046.125016225029
 20
245.004858902872
 30
0.0
 10
1045.647780091538
 20
244.4829284047007
 30
0.0
 10
1045.403607907897
 20
244.2372654004899
 30
0.0
 10
1044.674357855683
 20
243.5513729545863
 30
0.0
 10
1043.943239123178
 20
242.9510722365604
 30
0.0
 10
1043.088978194997
 20
242.348676918572
 30
0.0
 10
1042.661773102124
 20
242.0654893889952
 30
0.0
 10
1042.478695746111
 20
241.9472884664972
 30
0.0
 10
1042.387161035996
 20
241.8886576861959
 30
0.0
 10
1042.356674501032
 20
241.8692029272531
 30
0.0
 10
1042.294072787256
 20
241.8294588422959
 30
0.0
 10
1042.262745027762
 20
241.8096611827546
 30
0.0
 10
1042.234587065856
 20
241.7919468088951
 30
0.0
  0
SPLINE
  5
5FB
330
1F
100
AcDbEntity
  8
0
  6
Continuous
 62
     7
370
    15
100
AcDbSpline
210
0.0
220
0.0
230
1.0
 70
     8
 71
     3
 72
    41
 73
    37
 74
     0
 42
0.000000001
 43
0.00000001
 40
0.0
 40
0.0
 40
0.0
 40
0.0
 40
0.0004882812500002
 40
0.0004882812500002
 40
0.0009765625000003
 40
0.0009765625000003
 40
0.0019531250000006
 40
0.0039062500000008
 40
0.007812500000001
 40
0.0156250000000013
 40
0.0156250000000013
 40
0.0234375000000017
 40
0.0234375000000017
 40
0.0312500000000019
 40
0.0312500000000019
 40
0.0625000000000019
 40
0.0625000000000019
 40
0.1250000000000018
 40
0.1250000000000018
 40
0.1875000000000016
 40
0.1875000000000016
 40
0.2500000000000014
 40
0.2500000000000014
 40
0.3750000000000012
 40
0.3750000000000012
 40
0.500000000000001
 40
0.500000000000001
 40
0.6250000000000008
 40
0.6250000000000008
 40
0.7500000000000006
 40
0.7500000000000006
 40
0.8750000000000002
 40
0.8750000000000002
 40
0.9375000000000001
 40
0.9375000000000001
 40
1.0
 40
1.0
 40
1.0
 40
1.0
 10
1042.234587065856
 20
241.7919468088951
 30
0.0
 10
1042.204830659172
 20
241.7756715180218
 30
0.0
 10
1042.163306770604
 20
241.7533542496361
 30
0.0
 10
1042.079983723816
 20
241.7093099825981
 30
0.0
 10
1042.041200328464
 20
241.6892478774081
 30
0.0
 10
1041.926195853837
 20
241.6306306279228
 30
0.0
 10
1041.698006785596
 20
241.517903357018
 30
0.0
 10
1041.177904622788
 20
241.2848177551591
 30
0.0
 10
1040.183854917496
 20
240.9255781427933
 30
0.0
 10
1039.399958409412
 20
240.7569222442564
 30
0.0
 10
1038.39582428914
 20
240.577531009491
 30
0.0
 10
1037.910749694393
 20
240.512901349956
 30
0.0
 10
1036.964341779363
 20
240.4248855738279
 30
0.0
 10
1036.503811652856
 20
240.4005610300262
 30
0.0
 10
1034.251614268704
 20
240.3402052656985
 30
0.0
 10
1032.59239788405
 20
240.479056529237
 30
0.0
 10
1027.730779066275
 20
241.1013523680487
 30
0.0
 10
1024.680370058051
 20
241.7986588374056
 30
0.0
 10
1018.714305401357
 20
243.3359868460828
 30
0.0
 10
1015.801244619851
 20
244.1930685803182
 30
0.0
 10
1010.052150109905
 20
245.8990876696225
 30
0.0
 10
1007.192071212402
 20
246.7575509482193
 30
0.0
 10
998.6405958301075
 20
249.2543587146696
 30
0.0
 10
992.9738686771992
 20
250.7907651340383
 30
0.0
 10
981.5774442354831
 20
253.2239707797546
 30
0.0
 10
975.8176483056652
 20
254.1339153036751
 30
0.0
 10
964.162802326898
 20
255.6256328475375
 30
0.0
 10
958.2826687794673
 20
256.2092267851314
 30
0.0
 10
946.4716357179557
 20
257.2170061012636
 30
0.0
 10
940.5473073892442
 20
257.6407174814946
 30
0.0
 10
928.6904206512363
 20
258.398250904672
 30
0.0
 10
922.7569123899182
 20
258.7309680280651
 30
0.0
 10
913.864612204087
 20
259.1421374759331
 30
0.0
 10
910.9014913523135
 20
259.264419062594
 30
0.0
 10
904.9887899779412
 20
259.4579919206124
 30
0.0
 10
902.0347178825743
 20
259.5364236682863
 30
0.0
 10
899.1289991863822
 20
259.5364236682863
 30
0.0
  0
SPLINE
  5
5FC
330
1F
100
AcDbEntity
  8
0
  6
Continuous
 62
     7
370
    15
100
AcDbSpline
210
0.0
220
0.0
230
1.0
 70
     8
 71
     3
 72
    56
 73
    52
 74
     0
 42
0.000000001
 43
0.00000001
 40
0.0
 40
0.0
 40
0.0
 40
0.0
 40
0.0020854538961882
 40
0.0042021732838946
 40
0.0063526053380884
 40
0.0085390840398751
 40
0.0107638299236283
 40
0.0130289509847275
 40
0.0153364445677831
 40
0.0176882000590061
 40
0.020086002216275
 40
0.0225315349845189
 40
0.0250263856606029
 40
0.027572049289523
 40
0.0301699331913756
 40
0.0328213615354294
 40
0.0355275798932208
 40
0.0382897597166015
 40
0.0411090026989611
 40
0.0522399419608284
 40
0.0643349287752422
 40
0.0774308298714721
 40
0.0915566773609344
 40
0.1179157010022228
 40
0.1484734051836648
 40
0.1734434971215991
 40
0.2063605950762203
 40
0.2243900408828961
 40
0.2424194866232107
 40
0.2604489324298853
 40
0.2776809665092664
 40
0.2947861892388685
 40
0.3117654997433796
 40
0.3481449643720362
 40
0.3829741026364315
 40
0.4162766146244046
 40
0.4538767842578388
 40
0.4946628726833467
 40
0.538658881399399
 40
0.6084165143277204
 40
0.6890688855378634
 40
0.7462464938176138
 40
0.8039088856651474
 40
0.8620600323817392
 40
0.8870364507453623
 40
0.9102548898485501
 40
0.9317158306101914
 40
0.9514198826359407
 40
0.9693678345515422
 40
0.9855607315612979
 40
0.9999999999999999
 40
0.9999999999999999
 40
0.9999999999999999
 40
0.9999999999999999
 10
756.0234113069089
 20
241.7919468088951
 30
0.0
 10
756.1124903241089
 20
241.7444152088906
 30
0.0
 10
756.2919838467985
 20
241.6486394067765
 30
0.0
 10
756.5695081530205
 20
241.5159314615902
 30
0.0
 10
756.8554287708312
 20
241.3899086039345
 30
0.0
 10
757.1502328811866
 20
241.2714628724314
 30
0.0
 10
757.4537858601435
 20
241.1603478177953
 30
0.0
 10
757.7661240515608
 20
241.0566295662484
 30
0.0
 10
758.0872370373843
 20
240.9602883772342
 30
0.0
 10
758.4171274670714
 20
240.8713282095002
 30
0.0
 10
758.7557945633617
 20
240.7897465887395
 30
0.0
 10
759.1032386373832
 20
240.7155429190682
 30
0.0
 10
759.4594598128828
 20
240.6487161990625
 30
0.0
 10
759.8244583690447
 20
240.589265652884
 30
0.0
 10
760.1982345631227
 20
240.5371905578932
 30
0.0
 10
760.5807888938464
 20
240.4924902755308
 30
0.0
 10
760.9721211134157
 20
240.4551642851076
 30
0.0
 10
761.372233946443
 20
240.4252119813325
 30
0.0
 10
762.1800859896808
 20
240.3806025393204
 30
0.0
 10
763.4419155054891
 20
240.3689789725818
 30
0.0
 10
765.1988476536874
 20
240.4571284816548
 30
0.0
 10
767.0932512103309
 20
240.6483082818075
 30
0.0
 10
769.6610096239846
 20
241.0200685266462
 30
0.0
 10
773.0365633402695
 20
241.6880783248948
 30
0.0
 10
776.8880347338838
 20
242.6305011541503
 30
0.0
 10
781.0139129090005
 20
243.7757751327376
 30
0.0
 10
784.540618242497
 20
244.8098023910737
 30
0.0
 10
787.7412379276353
 20
245.7615134086424
 30
0.0
 10
790.2516848808446
 20
246.5056604213865
 30
0.0
 10
792.7242085730823
 20
247.2418949871303
 30
0.0
 10
795.1563859559545
 20
247.956863156909
 30
0.0
 10
797.5455384948286
 20
248.6376690131189
 30
0.0
 10
800.8321261613428
 20
249.551144984162
 30
0.0
 10
804.9624561988172
 20
250.6327189210382
 30
0.0
 10
809.8882654633942
 20
251.7900990734799
 30
0.0
 10
814.9018892727695
 20
252.8243580805351
 30
0.0
 10
820.229644066986
 20
253.7505215382644
 30
0.0
 10
826.0912673879258
 20
254.6151300073545
 30
0.0
 10
833.5155606602708
 20
255.5410111525874
 30
0.0
 10
842.8802949076111
 20
256.4843896273748
 30
0.0
 10
852.8973888844996
 20
257.2937099220703
 30
0.0
 10
862.3385362477512
 20
257.9490387467139
 30
0.0
 10
870.6974686510202
 20
258.4608773103304
 30
0.0
 10
877.5036600362622
 20
258.8210950421638
 30
0.0
 10
882.6461629851616
 20
259.0635140404123
 30
0.0
 10
886.0151046575248
 20
259.2081756185386
 30
0.0
 10
889.1296617366944
 20
259.3266760040156
 30
0.0
 10
891.9898395938782
 20
259.4193445920333
 30
0.0
 10
894.5956464210224
 20
259.48518881528
 30
0.0
 10
896.9470889263339
 20
259.5275879896268
 30
0.0
 10
898.4299935139009
 20
259.5335930342239
 30
0.0
 10
899.1289991863822
 20
259.5364236682863
 30
0.0
  0
SPLINE
  5
5FD
330
1F
100
AcDbEntity
  8
0
  6
Continuous
 62
     7
370
    15
100
AcDbSpline
210
0.0
220
0.0
230
1.0
 70
     8
 71
     3
 72
    63
 73
    59
 74
     0
 42
0.000000001
 43
0.00000001
 40
0.0
 40
0.0
 40
0.0
 40
0.0
 40
0.0075752959273919
 40
0.0123992130507814
 40
0.0173545373417326
 40
0.0212843813777293
 40
0.0279755336264358
 40
0.0331829120812322
 40
0.0379190863346379
 40
0.0427306476935775
 40
0.0481844067715397
 40
0.0544417533413168
 40
0.0620768719549338
 40
0.0705884675949368
 40
0.0809390154124918
 40
0.092014035733051
 40
0.1187567591864064
 40
0.1503811833191028
 40
0.1871148954201539
 40
0.2251784693780972
 40
0.2527767771117323
 40
0.2810425079870605
 40
0.3101651017281921
 40
0.3537423266794452
 40
0.400944665799492
 40
0.4235052814854701
 40
0.4477272053752241
 40
0.4700744515183034
 40
0.4951232024227026
 40
0.5160515767890371
 40
0.5429408496263386
 40
0.5660406010274268
 40
0.5820613883891481
 40
0.5910032191837581
 40
0.6150819702454996
 40
0.6390867974570551
 40
0.6630185877301249
 40
0.6868782361212052
 40
0.704976668298961
 40
0.7337636210039817
 40
0.759547869152991
 40
0.778876166326504
 40
0.8013850613412947
 40
0.8210902496209234
 40
0.8410592058192824
 40
0.8591909732687185
 40
0.884086809790586
 40
0.9062531582267117
 40
0.9257978739406723
 40
0.9418555657371486
 40
0.9560441097100754
 40
0.9669047794340263
 40
0.9772173440577969
 40
0.9813644848904356
 40
0.9857038819331146
 40
0.9902488125670866
 40
0.9950108352892664
 40
1.0
 40
1.0
 40
1.0
 40
1.0
 10
801.6289991863823
 20
403.1721822431844
 30
0.0
 10
801.3582842458645
 20
403.5948771591081
 30
0.0
 10
800.9151791506074
 20
404.2867424496864
 30
0.0
 10
800.2921708143851
 20
405.2533118067403
 30
0.0
 10
799.7910499827188
 20
406.0110128139411
 30
0.0
 10
799.2066195403374
 20
406.861829373835
 30
0.0
 10
798.5677389264594
 20
407.694868727224
 30
0.0
 10
797.7930583645515
 20
408.4870774223448
 30
0.0
 10
796.9621322940802
 20
409.0193066800699
 30
0.0
 10
796.0184320036028
 20
409.3554156936327
 30
0.0
 10
794.9278406258242
 20
409.5049182500386
 30
0.0
 10
793.642743651817
 20
409.4879934199364
 30
0.0
 10
792.167948221964
 20
409.2934628296556
 30
0.0
 10
790.45581774984
 20
408.8950137279736
 30
0.0
 10
788.5658024605689
 20
408.2848856993505
 30
0.0
 10
785.6119346339591
 20
407.0692058788495
 30
0.0
 10
781.5656438415263
 20
404.8424908637535
 30
0.0
 10
776.4946714241771
 20
401.0712308350732
 30
0.0
 10
771.4345733046885
 20
396.127384934882
 30
0.0
 10
767.2463250152589
 20
390.7648473025545
 30
0.0
 10
763.943058672491
 20
385.4819308727866
 30
0.0
 10
761.368078198821
 20
380.4663693030367
 30
0.0
 10
758.7917486126139
 20
374.2851634865143
 30
0.0
 10
756.4236304031151
 20
366.6863908218388
 30
0.0
 10
754.8606771307494
 20
359.3311096830662
 30
0.0
 10
753.9045971762838
 20
353.1766640881481
 30
0.0
 10
753.3344602373184
 20
348.6309234846444
 30
0.0
 10
752.8573330758579
 20
343.9091566817829
 30
0.0
 10
752.4791999310347
 20
339.3974712028705
 30
0.0
 10
752.1353285280344
 20
334.5814102807781
 30
0.0
 10
751.8300846574118
 20
329.8921933818348
 30
0.0
 10
751.5529636794436
 20
325.5270405996176
 30
0.0
 10
751.3487535020957
 20
322.3488857939579
 30
0.0
 10
751.1379435211277
 20
319.1061496854931
 30
0.0
 10
750.8722862992191
 20
315.3368495504801
 30
0.0
 10
750.5104504966005
 20
310.57868152918
 30
0.0
 10
750.1200068014946
 20
305.8373366158894
 30
0.0
 10
749.7356324763391
 20
301.4882624501625
 30
0.0
 10
749.2958602658671
 20
296.8212199460825
 30
0.0
 10
748.8363311638436
 20
292.0279649708769
 30
0.0
 10
748.3732685404561
 20
287.1531746599605
 30
0.0
 10
747.9708135800827
 20
282.6905242493416
 30
0.0
 10
747.6456833211826
 20
278.6254683872997
 30
0.0
 10
747.375751988408
 20
274.5137726761357
 30
0.0
 10
747.2032346068468
 20
270.6869352829358
 30
0.0
 10
747.122175863494
 20
266.5130070003978
 30
0.0
 10
747.2092407250029
 20
262.1918050781375
 30
0.0
 10
747.5656596404125
 20
257.7894614216808
 30
0.0
 10
748.1685822424416
 20
254.0041389838933
 30
0.0
 10
749.0010989304409
 20
250.8060770606336
 30
0.0
 10
749.9900368867229
 20
248.2587347688436
 30
0.0
 10
751.1485248336592
 20
246.2130089549781
 30
0.0
 10
752.1971798817875
 20
244.8928122029066
 30
0.0
 10
753.0808335246699
 20
244.013982621894
 30
0.0
 10
753.7270871946959
 20
243.4405715904635
 30
0.0
 10
754.4348923023717
 20
242.8773403309065
 30
0.0
 10
755.2024310195521
 20
242.3213500373529
 30
0.0
 10
755.7455342359968
 20
241.9711338377687
 30
0.0
 10
756.0234113069089
 20
241.7919468088951
 30
0.0
  0
LINE
  5
5FE
330
1F
100
AcDbEntity
  8
0
100
AcDbLine
 10
801.6289991863823
 20
403.1721822431844
 30
0.0
 11
996.6289991863822
 21
403.1721822431844
 31
0.0
  0
INSERT
  5
60A
330
1F
100
AcDbEntity
  8
0
100
AcDbBlockReference
  2
fibergrallstrain
 10
0.0
 20
0.0
 30
0.0
  0
INSERT
  5
63C
330
1F
100
AcDbEntity
  8
0
100
AcDbBlockReference
  2
fibergrallstrain
 10
0.0000239294492985
 20
36.2653756636048
 30
0.0
  0
INSERT
  5
66E
330
1F
100
AcDbEntity
  8
0
100
AcDbBlockReference
  2
fibergrallstrain
 10
0.0000478588996202
 20
68.81209534551334
 30
0.0
  0
LWPOLYLINE
  5
70D
102
{ACAD_REACTORS
102
}
330
1F
100
AcDbEntity
  8
0
100
AcDbPolyline
 90
        4
 70
     1
 43
0.0
 10
721.2790184796726
 20
7.207423984635284
 10
721.2790184796726
 20
210.5309399202712
 10
1053.140389317147
 20
210.5309399202712
 10
1053.140389317147
 20
7.207423984635284
  0
DIMENSION
  5
70F
102
{ACAD_REACTORS
102
}
102
{ACAD_XDICTIONARY
360
710
102
}
330
1F
100
AcDbEntity
  8
0
100
AcDbDimension
  2
*D18
 10
1202.711711384742
 20
7.207423984635275
 30
0.0
 11
1200.585461384742
 21
108.8691819524532
 31
0.0
 70
    32
 71
     5
 42
203.3235159356359
  3
ISO-25
100
AcDbAlignedDimension
 13
1053.140389317147
 23
210.5309399202712
 33
0.0
 14
1053.140389317147
 24
7.207423984635284
 34
0.0
 50
90.0
100
AcDbRotatedDimension
  0
DIMENSION
  5
71E
102
{ACAD_REACTORS
102
}
102
{ACAD_XDICTIONARY
360
71F
102
}
330
1F
100
AcDbEntity
  8
0
100
AcDbDimension
  2
*D19
 10
721.2790184796726
 20
-18.50014699573251
 30
0.0
 11
887.20970389841
 21
-16.37389699573251
 31
0.0
 70
    32
 71
     5
 42
331.8613708374747
  3
ISO-25
100
AcDbAlignedDimension
 13
1053.140389317147
 23
210.5309399202712
 33
0.0
 14
721.2790184796726
 24
210.5309399202712
 34
0.0
100
AcDbRotatedDimension
  0
LWPOLYLINE
  5
763
330
1F
100
AcDbEntity
  8
0
100
AcDbPolyline
 90
        4
 70
     1
 43
0.0
 10
9.999999999999837
 20
-615.2680279169667
 10
9.999999999999837
 20
-411.9445119813308
 10
341.8613708374746
 20
-411.9445119813308
 10
341.8613708374746
 20
-615.2680279169667
  0
SPLINE
  5
792
330
1F
100
AcDbEntity
  8
0
  6
Continuous
 62
     7
370
    15
100
AcDbSpline
210
0.0
220
0.0
230
1.0
 70
     8
 71
     3
 72
    24
 73
    20
 74
     0
 42
0.000000001
 43
0.00000001
 40
0.0
 40
0.0
 40
0.0
 40
0.0
 40
0.1249999999999999
 40
0.1249999999999999
 40
0.2499999999999999
 40
0.2499999999999999
 40
0.3749999999999998
 40
0.3749999999999998
 40
0.4374999999999998
 40
0.4374999999999998
 40
0.4999999999999998
 40
0.4999999999999998
 40
0.7499999999999998
 40
0.7499999999999998
 40
0.8749999999999998
 40
0.8749999999999998
 40
0.9374999999999999
 40
0.9374999999999999
 40
1.0
 40
1.0
 40
1.0
 40
1.0
 10
321.2279543626999
 20
-595.2360792545734
 30
0.0
 10
328.6724635893481
 20
-590.4867514788823
 30
0.0
 10
328.2330475620362
 20
-583.1959464803464
 30
0.0
 10
328.4279318926053
 20
-565.2199818869024
 30
0.0
 10
327.8519729109902
 20
-560.6039725520664
 30
0.0
 10
326.1208039807256
 20
-541.969847359645
 30
0.0
 10
325.3913470895445
 20
-534.6130404867056
 30
0.0
 10
324.5151809050116
 20
-523.4360118382142
 30
0.0
 10
324.3530925068466
 20
-521.0286464216733
 30
0.0
 10
323.7830652265657
 20
-512.3401829585514
 30
0.0
 10
323.4128844230249
 20
-506.4839389389836
 30
0.0
 10
322.2024869556775
 20
-488.8578132354765
 30
0.0
 10
320.4077966992685
 20
-471.713980686893
 30
0.0
 10
311.1843176826867
 20
-451.2757089901507
 30
0.0
 10
306.9133927232201
 20
-444.7163274950847
 30
0.0
 10
298.2742237529566
 20
-436.540829820383
 30
0.0
 10
295.1563574243888
 20
-434.2102428574972
 30
0.0
 10
288.268888049504
 20
-430.6165545574566
 30
0.0
 10
284.1285642390098
 20
-427.7852644324035
 30
0.0
 10
281.4025415503111
 20
-431.8815844535066
 30
0.0
  0
SPLINE
  5
793
330
1F
100
AcDbEntity
  8
0
  6
Continuous
 62
     7
370
    15
100
AcDbSpline
210
0.0
220
0.0
230
1.0
 70
    24
 71
     3
 72
     8
 73
     4
 74
     0
 42
0.000000001
 43
0.00000001
 40
0.0
 40
0.0
 40
0.0
 40
0.0
 40
1.0
 40
1.0
 40
1.0
 40
1.0
 10
281.4025189291997
 20
-431.881618445663
 30
0.0
 10
281.4025189291997
 20
-471.5680427008463
 30
0.0
 10
281.4025189291997
 20
-511.2544669560294
 30
0.0
 10
281.4025189291997
 20
-550.9408912112124
 30
0.0
  0
SPLINE
  5
794
330
1F
100
AcDbEntity
  8
0
  6
Continuous
 62
     7
370
    15
100
AcDbSpline
210
0.0
220
0.0
230
1.0
 70
     8
 71
     3
 72
    16
 73
    12
 74
     0
 42
0.000000001
 43
0.00000001
 40
0.0
 40
0.0
 40
0.0
 40
0.0
 40
0.1250000000000002
 40
0.1250000000000002
 40
0.2500000000000003
 40
0.2500000000000003
 40
0.3750000000000004
 40
0.3750000000000004
 40
0.5000000000000004
 40
0.5000000000000004
 40
1.0
 40
1.0
 40
1.0
 40
1.0
 10
281.4025189291997
 20
-550.9408912112124
 30
0.0
 10
281.4025189258018
 20
-554.8901999073157
 30
0.0
 10
277.5305588500775
 20
-558.696356480049
 30
0.0
 10
272.2268278285438
 20
-561.3472740409029
 30
0.0
 10
266.5052409589582
 20
-562.774571226583
 30
0.0
 10
260.7906617347106
 20
-563.7685491707041
 30
0.0
 10
257.4260582908115
 20
-564.2042982041319
 30
0.0
 10
249.6822237394622
 20
-564.9533163937218
 30
0.0
 10
243.3321244500631
 20
-565.3682353601135
 30
0.0
 10
228.7537406636834
 20
-566.1201323966128
 30
0.0
 10
213.1757644091543
 20
-566.4208912112124
 30
0.0
 10
193.6825189291997
 20
-566.4208912112124
 30
0.0
  0
SPLINE
  5
795
330
1F
100
AcDbEntity
  8
0
  6
Continuous
 62
     7
370
    15
100
AcDbSpline
210
0.0
220
0.0
230
1.0
 70
    24
 71
     3
 72
     8
 73
     4
 74
     0
 42
0.000000001
 43
0.00000001
 40
0.0
 40
0.0
 40
0.0
 40
0.0
 40
1.0
 40
1.0
 40
1.0
 40
1.0
 10
193.6825189291995
 20
-566.4208912112124
 30
0.0
 10
181.6425189291996
 20
-566.4208912112124
 30
0.0
 10
169.6025189291998
 20
-566.4208912112124
 30
0.0
 10
157.5625189291997
 20
-566.4208912112124
 30
0.0
  0
SPLINE
  5
796
330
1F
100
AcDbEntity
  8
0
  6
Continuous
 62
     7
370
    15
100
AcDbSpline
210
0.0
220
0.0
230
1.0
 70
     8
 71
     3
 72
    19
 73
    15
 74
     0
 42
0.000000001
 43
0.00000001
 40
0.0
 40
0.0
 40
0.0
 40
0.0
 40
0.2500000000000002
 40
0.3750000000000002
 40
0.3750000000000002
 40
0.5000000000000002
 40
0.5000000000000002
 40
0.6250000000000002
 40
0.6250000000000002
 40
0.7500000000000002
 40
0.7500000000000002
 40
0.8750000000000002
 40
0.8750000000000002
 40
1.0
 40
1.0
 40
1.0
 40
1.0
 10
157.5625189291997
 20
-566.4208912112124
 30
0.0
 10
147.8003305962229
 20
-566.4208912112124
 30
0.0
 10
134.6294258386119
 20
-566.3077181606209
 30
0.0
 10
123.6670876937818
 20
-566.024785534142
 30
0.0
 10
116.8496548445129
 20
-565.7984394329591
 30
0.0
 10
115.6702463991059
 20
-565.7690001396014
 30
0.0
 10
105.8665753332368
 20
-565.262013473359
 30
0.0
 10
101.4755161840548
 20
-564.9466655399841
 30
0.0
 10
93.71495065319561
 20
-564.1922604727267
 30
0.0
 10
92.31273013078936
 20
-564.0979146519182
 30
0.0
 10
82.66069841639882
 20
-562.4066685574978
 30
0.0
 10
80.21531435669678
 20
-561.9674926194584
 30
0.0
 10
72.3561844844065
 20
-557.9951199505715
 30
0.0
 10
69.84251893094094
 20
-554.8616851158031
 30
0.0
 10
69.84251892919971
 20
-550.9408912112124
 30
0.0
  0
SPLINE
  5
797
330
1F
100
AcDbEntity
  8
0
  6
Continuous
 62
     7
370
    15
100
AcDbSpline
210
0.0
220
0.0
230
1.0
 70
    24
 71
     3
 72
     8
 73
     4
 74
     0
 42
0.000000001
 43
0.00000001
 40
0.0
 40
0.0
 40
0.0
 40
0.0
 40
1.0
 40
1.0
 40
1.0
 40
1.0
 10
69.84251892919971
 20
-550.9408912112124
 30
0.0
 10
69.84251892919971
 20
-511.2545124204933
 30
0.0
 10
69.84251892919971
 20
-471.5681336297742
 30
0.0
 10
69.84251892919971
 20
-431.8817548390548
 30
0.0
  0
SPLINE
  5
798
330
1F
100
AcDbEntity
  8
0
  6
Continuous
 62
     7
370
    15
100
AcDbSpline
210
0.0
220
0.0
230
1.0
 70
     8
 71
     3
 72
    24
 73
    20
 74
     0
 42
0.000000001
 43
0.00000001
 40
0.0
 40
0.0
 40
0.0
 40
0.0
 40
0.0625000000000001
 40
0.0625000000000001
 40
0.1250000000000001
 40
0.1250000000000001
 40
0.2500000000000002
 40
0.2500000000000002
 40
0.5000000000000001
 40
0.5000000000000001
 40
0.5625000000000001
 40
0.5625000000000001
 40
0.6250000000000001
 40
0.6250000000000001
 40
0.75
 40
0.75
 40
0.875
 40
0.875
 40
1.0
 40
1.0
 40
1.0
 40
1.0
 10
69.84245203173231
 20
-431.8816543258025
 30
0.0
 10
67.28296058617062
 20
-428.0360346394951
 30
0.0
 10
63.07176739841879
 20
-430.578605538846
 30
0.0
 10
56.15855994193552
 20
-434.1619542130355
 30
0.0
 10
53.04074597105924
 20
-436.4831250943071
 30
0.0
 10
44.36203384796883
 20
-444.6713455251118
 30
0.0
 10
40.11743842250897
 20
-451.1728142236569
 30
0.0
 10
30.83924960646436
 20
-471.6675964094343
 30
0.0
 10
29.04986633212806
 20
-488.7454485589054
 30
0.0
 10
27.82981927094025
 20
-506.5174752953822
 30
0.0
 10
27.46235211208062
 20
-512.3324397004728
 30
0.0
 10
26.89384028828422
 20
-521.0008428459878
 30
0.0
 10
26.73392850074617
 20
-523.3799318000861
 30
0.0
 10
25.85786185594463
 20
-534.5660937557491
 30
0.0
 10
25.12994450687168
 20
-541.9143839655892
 30
0.0
 10
23.39871887335812
 20
-560.5394178463473
 30
0.0
 10
22.82442675168531
 20
-565.1203370250254
 30
0.0
 10
23.00285447618103
 20
-583.1130562873498
 30
0.0
 10
22.49930151058732
 20
-590.4400061091644
 30
0.0
 10
30.01708349570049
 20
-595.236079254574
 30
0.0
  0
SPLINE
  5
799
330
1F
100
AcDbEntity
  8
0
  6
Continuous
 62
     7
370
    15
100
AcDbSpline
210
0.0
220
0.0
230
1.0
 70
     8
 71
     3
 72
    24
 73
    20
 74
     0
 42
0.000000001
 43
0.00000001
 40
0.0
 40
0.0
 40
0.0
 40
0.0
 40
0.1250000000000004
 40
0.1250000000000004
 40
0.1875000000000006
 40
0.1875000000000006
 40
0.2187500000000007
 40
0.2187500000000007
 40
0.2500000000000008
 40
0.2500000000000008
 40
0.3750000000000006
 40
0.3750000000000006
 40
0.5000000000000003
 40
0.5000000000000003
 40
0.7500000000000001
 40
0.7500000000000001
 40
0.875
 40
0.875
 40
1.0
 40
1.0
 40
1.0
 40
1.0
 10
30.0170834957006
 20
-595.236079254574
 30
0.0
 10
33.91859614656863
 20
-597.2529571263265
 30
0.0
 10
43.98091063072394
 20
-595.0721101613576
 30
0.0
 10
50.30437699360559
 20
-593.4388587614296
 30
0.0
 10
51.82557640756215
 20
-593.0279642040401
 30
0.0
 10
59.73046890697924
 20
-590.6818799505409
 30
0.0
 10
61.78716777276492
 20
-590.071873917222
 30
0.0
 10
64.74403490296297
 20
-589.195905952946
 30
0.0
 10
64.24873142364376
 20
-589.3371799365641
 30
0.0
 10
72.83560496093028
 20
-586.8313009648059
 30
0.0
 10
78.44370882548222
 20
-585.3658454780967
 30
0.0
 10
89.27835025061754
 20
-583.0571725056261
 30
0.0
 10
97.26218329287119
 20
-581.8057485804588
 30
0.0
 10
111.549071392862
 20
-579.9796442889639
 30
0.0
 10
126.01783683987
 20
-578.7510128030716
 30
0.0
 10
145.1331685049792
 20
-577.5301601827227
 30
0.0
 10
149.2169040373737
 20
-577.2851816541237
 30
0.0
 10
165.1422254003147
 20
-576.5490315824413
 30
0.0
 10
171.2898768037664
 20
-576.364994063183
 30
0.0
 10
175.6225189291997
 20
-576.3649940605072
 30
0.0
  0
SPLINE
  5
79A
330
1F
100
AcDbEntity
  8
0
  6
Continuous
 62
     7
370
    15
100
AcDbSpline
210
0.0
220
0.0
230
1.0
 70
     8
 71
     3
 72
    27
 73
    23
 74
     0
 42
0.000000001
 43
0.00000001
 40
0.0
 40
0.0
 40
0.0
 40
0.0
 40
0.1249999999999999
 40
0.1249999999999999
 40
0.2499999999999997
 40
0.2499999999999997
 40
0.3749999999999995
 40
0.3749999999999995
 40
0.4999999999999993
 40
0.4999999999999993
 40
0.624999999999999
 40
0.624999999999999
 40
0.687499999999999
 40
0.7187499999999989
 40
0.7187499999999989
 40
0.7499999999999989
 40
0.7499999999999989
 40
0.8124999999999992
 40
0.8124999999999992
 40
0.8749999999999994
 40
0.8749999999999994
 40
1.0
 40
1.0
 40
1.0
 40
1.0
 10
175.6225189291997
 20
-576.3649940605072
 30
0.0
 10
179.9492251302064
 20
-576.3649940631493
 30
0.0
 10
188.1398722461398
 20
-576.6433987351471
 30
0.0
 10
199.9348608489453
 20
-577.1882170083546
 30
0.0
 10
204.9709743388846
 20
-577.4576403167018
 30
0.0
 10
219.8989161624293
 20
-578.4103631635821
 30
0.0
 10
226.6861764803324
 20
-578.9191635639305
 30
0.0
 10
238.9072759283997
 20
-580.0016423184436
 30
0.0
 10
242.3997684235883
 20
-580.3279689703994
 30
0.0
 10
255.7967187661299
 20
-582.034907036963
 30
0.0
 10
262.1909898001688
 20
-583.1084313558954
 30
0.0
 10
269.8097428152216
 20
-584.7267162909583
 30
0.0
 10
273.9555954360423
 20
-585.7094793273284
 30
0.0
 10
278.6061622268046
 20
-586.9526732169566
 30
0.0
 10
281.8186987917438
 20
-587.8393426663217
 30
0.0
 10
284.8388281234302
 20
-588.7076341115467
 30
0.0
 10
285.9207639931308
 20
-589.0231989772249
 30
0.0
 10
290.2430853561987
 20
-590.3043451952943
 30
0.0
 10
297.9231794587718
 20
-592.5840539328344
 30
0.0
 10
299.3876301030257
 20
-593.0361100989846
 30
0.0
 10
310.2111768084807
 20
-595.8365017008575
 30
0.0
 10
316.808418852566
 20
-597.5207478643722
 30
0.0
 10
321.2279543626999
 20
-595.2360792545734
 30
0.0
  0
SPLINE
  5
7C7
330
1F
100
AcDbEntity
  8
0
  6
Continuous
 62
     7
370
    15
100
AcDbSpline
210
0.0
220
0.0
230
1.0
 70
     8
 71
     3
 72
    26
 73
    22
 74
     0
 42
0.000000001
 43
0.00000001
 40
0.0
 40
0.0
 40
0.0
 40
0.0
 40
0.0625000000000001
 40
0.0625000000000001
 40
0.1250000000000003
 40
0.1250000000000003
 40
0.2500000000000002
 40
0.2500000000000002
 40
0.3125000000000002
 40
0.3125000000000002
 40
0.3750000000000002
 40
0.3750000000000002
 40
0.5000000000000001
 40
0.5000000000000001
 40
0.75
 40
0.75
 40
0.8749999999999996
 40
0.8749999999999996
 40
0.9374999999999998
 40
0.9374999999999998
 40
1.0
 40
1.0
 40
1.0
 40
1.0
 10
179.5062383125553
 20
143.0892770904437
 30
0.0
 10
185.2994935950321
 20
142.9758825802129
 30
0.0
 10
188.3639775716895
 20
142.9507784465118
 30
0.0
 10
196.7217823788894
 20
143.0161869557907
 30
0.0
 10
201.4506456263957
 20
143.119873608971
 30
0.0
 10
213.8309237051897
 20
143.5148902731533
 30
0.0
 10
223.7712887489138
 20
144.0144056939845
 30
0.0
 10
235.5515512480956
 20
144.654637660727
 30
0.0
 10
241.1099381342613
 20
144.9681230022158
 30
0.0
 10
248.1740054406398
 20
145.3705053239967
 30
0.0
 10
252.2925683889023
 20
145.6067683319991
 30
0.0
 10
268.3894777041774
 20
146.5305828094645
 30
0.0
 10
274.4362707731443
 20
146.8732389569035
 30
0.0
 10
302.1963816203793
 20
148.5197992954496
 30
0.0
 10
318.0510654090767
 20
149.5225140529351
 30
0.0
 10
344.5232744220864
 20
152.0529647908171
 30
0.0
 10
353.0604812828067
 20
153.0189638600046
 30
0.0
 10
365.8734462642765
 20
154.7649855179932
 30
0.0
 10
370.3708330702634
 20
155.4301973290047
 30
0.0
 10
378.6302683472097
 20
156.7356429809312
 30
0.0
 10
381.6521744070658
 20
157.2339517153703
 30
0.0
 10
387.3361887129711
 20
158.3622701632816
 30
0.0
  0
SPLINE
  5
7C8
330
1F
100
AcDbEntity
  8
0
  6
Continuous
 62
     7
370
    15
100
AcDbSpline
210
0.0
220
0.0
230
1.0
 70
    24
 71
     3
 72
     8
 73
     4
 74
     0
 42
0.000000001
 43
0.00000001
 40
0.0
 40
0.0
 40
0.0
 40
0.0
 40
1.0
 40
1.0
 40
1.0
 40
1.0
 10
387.3361887129711
 20
158.3622701632816
 30
0.0
 10
387.0180877552029
 20
160.0504126859549
 30
0.0
 10
386.699986797435
 20
161.7385552086281
 30
0.0
 10
386.3818858396667
 20
163.4266977313013
 30
0.0
  0
SPLINE
  5
7C9
330
1F
100
AcDbEntity
  8
0
  6
Continuous
 62
     7
370
    15
100
AcDbSpline
210
0.0
220
0.0
230
1.0
 70
     8
 71
     3
 72
    16
 73
    12
 74
     0
 42
0.000000001
 43
0.00000001
 40
0.0
 40
0.0
 40
0.0
 40
0.0
 40
0.1249999999999998
 40
0.1249999999999998
 40
0.2499999999999996
 40
0.2499999999999996
 40
0.4999999999999998
 40
0.4999999999999998
 40
0.75
 40
0.75
 40
1.0
 40
1.0
 40
1.0
 40
1.0
 10
386.3818769472032
 20
163.4267477096582
 30
0.0
 10
385.7828521534395
 20
166.793449864216
 30
0.0
 10
385.4654052741794
 20
168.6037179119871
 30
0.0
 10
384.6871515131973
 20
173.4141559760682
 30
0.0
 10
384.1217630445224
 20
177.1543453952236
 30
0.0
 10
383.4645849079577
 20
181.5302061853079
 30
0.0
 10
382.3095598697478
 20
189.2338441614882
 30
0.0
 10
380.821197847682
 20
198.4092205734149
 30
0.0
 10
380.1164441951894
 20
203.1144482843567
 30
0.0
 10
377.4005687224515
 20
214.5977990168424
 30
0.0
 10
377.8541301160874
 20
219.5092563833605
 30
0.0
 10
369.9679957486205
 20
218.3628113932386
 30
0.0
  0
SPLINE
  5
7CA
330
1F
100
AcDbEntity
  8
0
  6
Continuous
 62
     7
370
    15
100
AcDbSpline
210
0.0
220
0.0
230
1.0
 70
     8
 71
     3
 72
    24
 73
    20
 74
     0
 42
0.000000001
 43
0.00000001
 40
0.0
 40
0.0
 40
0.0
 40
0.0
 40
0.1250000000000002
 40
0.1250000000000002
 40
0.2500000000000004
 40
0.2500000000000004
 40
0.5000000000000009
 40
0.5000000000000009
 40
0.6250000000000009
 40
0.6250000000000009
 40
0.750000000000001
 40
0.750000000000001
 40
0.8125000000000008
 40
0.8125000000000008
 40
0.8750000000000004
 40
0.8750000000000004
 40
0.9375000000000002
 40
0.9375000000000002
 40
1.0
 40
1.0
 40
1.0
 40
1.0
 10
369.9679950870595
 20
218.3628112040111
 30
0.0
 10
359.8079895442147
 20
215.4567283268309
 30
0.0
 10
355.6791157551615
 20
215.9263268854119
 30
0.0
 10
337.3993282251324
 20
213.9872549349969
 30
0.0
 10
330.6504303399131
 20
213.352317064152
 30
0.0
 10
307.5000860934445
 20
211.4445085062461
 30
0.0
 10
291.3599659551005
 20
210.5108643321739
 30
0.0
 10
267.7355680237349
 20
209.2107355913856
 30
0.0
 10
260.0322369215867
 20
208.7992503871599
 30
0.0
 10
243.8344248850274
 20
207.9063217864729
 30
0.0
 10
234.5721707709727
 20
207.3892581732459
 30
0.0
 10
225.1005882124457
 20
206.8570603622736
 30
0.0
 10
220.3355152498982
 20
206.5885724118173
 30
0.0
 10
212.5055272380887
 20
206.14367945624
 30
0.0
 10
208.8366251106711
 20
205.9351814175724
 30
0.0
 10
200.3312329243133
 20
205.436510671654
 30
0.0
 10
197.7445814209439
 20
205.2869525476198
 30
0.0
 10
187.755683998028
 20
204.6268680996505
 30
0.0
 10
186.173400831065
 20
204.5861287340547
 30
0.0
 10
180.9020826469894
 20
204.6484926677144
 30
0.0
  0
SPLINE
  5
7CB
330
1F
100
AcDbEntity
  8
0
  6
Continuous
 62
     7
370
    15
100
AcDbSpline
210
0.0
220
0.0
230
1.0
 70
     8
 71
     3
 72
    18
 73
    14
 74
     0
 42
0.000000001
 43
0.00000001
 40
0.0
 40
0.0
 40
0.0
 40
0.0
 40
0.125
 40
0.125
 40
0.2500000000000001
 40
0.2500000000000001
 40
0.5000000000000001
 40
0.5000000000000001
 40
0.7500000000000002
 40
0.7500000000000002
 40
0.8750000000000001
 40
0.8750000000000001
 40
1.0
 40
1.0
 40
1.0
 40
1.0
 10
29.10731577849549
 20
152.3547789586011
 30
0.0
 10
37.4672446335511
 20
151.9099795204167
 30
0.0
 10
41.36258733705938
 20
151.7004825807074
 30
0.0
 10
54.47035857713956
 20
150.9770509342106
 30
0.0
 10
59.9929441414497
 20
150.6660565715216
 30
0.0
 10
80.18332626943322
 20
149.4960107462154
 30
0.0
 10
91.81424745150616
 20
148.7832391986785
 30
0.0
 10
116.8322053802542
 20
147.0838521448116
 30
0.0
 10
128.2331206726244
 20
146.1981545160739
 30
0.0
 10
148.7264574220929
 20
144.666490850293
 30
0.0
 10
154.4661858820741
 20
144.2537215524683
 30
0.0
 10
166.9089159913508
 20
143.5200511288832
 30
0.0
 10
171.1362388372938
 20
143.2838082367473
 30
0.0
 10
179.5060975957024
 20
143.089279844772
 30
0.0
  0
SPLINE
  5
7CC
330
1F
100
AcDbEntity
  8
0
  6
Continuous
 62
     7
370
    15
100
AcDbSpline
210
0.0
220
0.0
230
1.0
 70
     8
 71
     3
 72
    20
 73
    16
 74
     0
 42
0.000000001
 43
0.00000001
 40
0.0
 40
0.0
 40
0.0
 40
0.0
 40
0.125
 40
0.125
 40
0.2499999999999999
 40
0.2499999999999999
 40
0.4999999999999998
 40
0.4999999999999998
 40
0.6249999999999998
 40
0.6249999999999998
 40
0.7499999999999999
 40
0.7499999999999999
 40
0.875
 40
0.875
 40
1.0
 40
1.0
 40
1.0
 40
1.0
 10
180.9020826469896
 20
204.6484926677143
 30
0.0
 10
172.6593784541565
 20
205.3022616919681
 30
0.0
 10
168.5779513221871
 20
205.7878788615476
 30
0.0
 10
156.1792655620018
 20
206.949483328187
 30
0.0
 10
150.5667130359396
 20
207.432038488162
 30
0.0
 10
130.4011878676688
 20
209.0706634345036
 30
0.0
 10
120.3737045981118
 20
209.7725291813356
 30
0.0
 10
99.91162658770713
 20
211.0453805964174
 30
0.0
 10
95.45775678996301
 20
211.3113690179904
 30
0.0
 10
80.86707524991175
 20
212.1689534685053
 30
0.0
 10
75.06455936621455
 20
212.5009558308743
 30
0.0
 10
64.1150719072806
 20
213.1263461714712
 30
0.0
 10
56.85791207182001
 20
213.5344364670033
 30
0.0
 10
45.17389550278415
 20
214.1940345482917
 30
0.0
 10
40.69984574483976
 20
214.4974242952143
 30
0.0
 10
32.4416789881634
 20
214.9076944766867
 30
0.0
  0
LINE
  5
7CD
330
1F
100
AcDbEntity
  8
0
100
AcDbLine
 10
32.4416789881634
 20
214.9076944766867
 30
0.0
 11
29.10731577849549
 21
152.3547789586011
 31
0.0
  0
INSERT
  5
7FE
330
1F
100
AcDbEntity
  8
0
100
AcDbBlockReference
  2
tira2
 10
-848.4223565126823
 20
299.6748474817286
 30
0.0
  0
LWPOLYLINE
  5
7FF
102
{ACAD_REACTORS
102
}
330
1F
100
AcDbEntity
  8
0
100
AcDbPolyline
 90
        4
 70
     1
 43
0.0
 10
15.73937886870431
 20
58.39624044017478
 10
15.73937886870431
 20
302.1974954103534
 10
485.3933301609505
 20
302.1974954103534
 10
485.3933301609505
 20
58.39624044017478
  0
DIMENSION
  5
800
102
{ACAD_REACTORS
102
}
102
{ACAD_XDICTIONARY
360
801
102
}
330
1F
100
AcDbEntity
  8
0
100
AcDbDimension
  2
*D25
 10
485.3933301609505
 20
345.4212704359809
 30
0.0
 11
250.5663545148274
 21
347.5475204359809
 31
0.0
 70
    32
 71
     5
 42
469.6539512922462
  3
ISO-25
100
AcDbAlignedDimension
 13
15.73937886870431
 23
302.1974954103534
 33
0.0
 14
485.3933301609505
 24
302.1974954103534
 34
0.0
100
AcDbRotatedDimension
  0
DIMENSION
  5
80F
102
{ACAD_REACTORS
102
}
102
{ACAD_XDICTIONARY
360
810
102
}
330
1F
100
AcDbEntity
  8
0
100
AcDbDimension
  2
*D26
 10
520.1593143340369
 20
58.39624044017478
 30
0.0
 11
518.0330643340369
 21
180.2968679252641
 31
0.0
 70
    32
 71
     5
 42
243.8012549701787
  3
ISO-25
100
AcDbAlignedDimension
 13
485.3933301609505
 23
302.1974954103534
 33
0.0
 14
485.3933301609505
 24
58.39624044017478
 34
0.0
 50
90.0
100
AcDbRotatedDimension
  0
ENDSEC
  0
SECTION
  2
OBJECTS
  0
DICTIONARY
  5
C
330
0
100
AcDbDictionary
281
     1
  3
ACAD_DETAILVIEWSTYLE
350
B5
  3
ACAD_GROUP
350
D
  3
ACAD_IMAGE_VARS
350
6A
  3
ACAD_LAYOUT
350
1A
  3
ACAD_MLINESTYLE
350
17
  3
ACAD_PLOTSETTINGS
350
19
  3
ACAD_PLOTSTYLENAME
350
E
  3
ACAD_SCALELIST
350
40
  3
ACAD_SECTIONVIEWSTYLE
350
B6
  3
AcDbVariableDictionary
350
3D
  3
APPDATA
350
71
  3
DWGPROPS
350
81E
  0
DICTIONARY
  5
710
330
70F
100
AcDbDictionary
280
     1
281
     1
  0
DICTIONARY
  5
71F
330
71E
100
AcDbDictionary
280
     1
281
     1
  0
DICTIONARY
  5
801
330
800
100
AcDbDictionary
280
     1
281
     1
  0
DICTIONARY
  5
810
330
80F
100
AcDbDictionary
280
     1
281
     1
  0
DICTIONARY
  5
B5
102
{ACAD_REACTORS
330
C
102
}
330
C
100
AcDbDictionary
281
     1
  0
DICTIONARY
  5
D
102
{ACAD_REACTORS
330
C
102
}
330
C
100
AcDbDictionary
281
     1
  0
RASTERVARIABLES
  5
6A
102
{ACAD_REACTORS
330
C
102
}
330
C
100
AcDbRasterVariables
 90
        0
 70
     1
 71
     1
 72
     1
  0
DICTIONARY
  5
1A
102
{ACAD_REACTORS
330
C
102
}
330
C
100
AcDbDictionary
281
     1
  3
Model
350
22
  3
Sheet1
350
1E
  3
Sheet2
350
26
  0
DICTIONARY
  5
17
102
{ACAD_REACTORS
330
C
102
}
330
C
100
AcDbDictionary
281
     1
  3
Standard
350
18
  0
DICTIONARY
  5
19
102
{ACAD_REACTORS
330
C
102
}
330
C
100
AcDbDictionary
281
     1
  0
ACDBDICTIONARYWDFLT
  5
E
102
{ACAD_REACTORS
330
C
102
}
330
C
100
AcDbDictionary
281
     1
  3
Normal
350
F
100
AcDbDictionaryWithDefault
340
F
  0
DICTIONARY
  5
40
102
{ACAD_REACTORS
330
C
102
}
330
C
100
AcDbDictionary
281
     1
  3
A0
350
41
  3
A1
350
42
  3
A2
350
43
  3
A3
350
44
  3
A4
350
45
  3
A5
350
46
  3
A6
350
47
  3
A7
350
48
  3
A8
350
49
  3
A9
350
4A
  3
B0
350
4B
  3
B1
350
4C
  3
B2
350
4D
  3
B3
350
4E
  3
B4
350
4F
  3
B5
350
50
  3
B6
350
51
  3
B7
350
52
  3
B8
350
53
  3
B9
350
54
  3
C0
350
55
  3
C1
350
56
  3
C2
350
57
  3
C3
350
58
  3
C4
350
59
  3
C5
350
5A
  3
C6
350
5B
  3
C7
350
5C
  3
C8
350
5D
  3
C9
350
5E
  3
D0
350
5F
  3
D1
350
60
  3
D2
350
61
  0
DICTIONARY
  5
B6
102
{ACAD_REACTORS
330
C
102
}
330
C
100
AcDbDictionary
281
     1
  0
DICTIONARY
  5
3D
102
{ACAD_REACTORS
330
C
102
}
330
C
100
AcDbDictionary
281
     1
  0
DICTIONARY
  5
71
102
{ACAD_REACTORS
330
C
102
}
330
C
100
AcDbDictionary
281
     1
  0
XRECORD
  5
81E
102
{ACAD_REACTORS
330
C
102
}
330
C
100
AcDbXrecord
280
     1
  1
DWGPROPS COOKIE
  2

  3

  4

  6

  7

  8
Luis
  9

300
=
301
=
302
=
303
=
304
=
305
=
306
=
307
=
308
=
309
=
 40
0.0
 41
2455022.637359514
 42
2457518.622710173
  1

 90
        0
  0
LAYOUT
  5
22
102
{ACAD_REACTORS
330
1A
102
}
330
1A
100
AcDbPlotSettings
  1

  2
none_device
  4
ISO_A3_(420.00_x_297.00_MM)
  6

 40
7.5
 41
20.0
 42
7.5
 43
20.0
 44
420.0
 45
297.0
 46
20.78282828282826
 47
0.0
 48
0.0
 49
0.0
140
0.0
141
0.0
142
1.0
143
1.155642023346303
 70
  1204
 72
     1
 73
     0
 74
     1
  7
monochrome.ctb
 75
     0
147
0.8653198653198654
148
-134.1869158878504
149
0.0
100
AcDbLayout
  1
Model
 70
     1
 71
     0
 10
0.0
 20
0.0
 11
420.0
 21
297.0
 12
0.0
 22
0.0
 32
0.0
 14
1.000000000000000E+20
 24
1.000000000000000E+20
 34
1.000000000000000E+20
 15
-1.000000000000000E+20
 25
-1.000000000000000E+20
 35
-1.000000000000000E+20
146
0.0
 13
0.0
 23
0.0
 33
0.0
 16
1.0
 26
0.0
 36
0.0
 17
0.0
 27
1.0
 37
0.0
 76
     0
330
1F
331
29
  0
LAYOUT
  5
1E
102
{ACAD_REACTORS
330
1A
102
}
330
1A
100
AcDbPlotSettings
  1

  2
none_device
  4

  6

 40
0.0
 41
0.0
 42
0.0
 43
0.0
 44
0.0
 45
0.0
 46
0.0
 47
0.0
 48
0.0
 49
0.0
140
0.0
141
0.0
142
1.0
143
1.0
 70
   688
 72
     0
 73
     0
 74
     5
  7

 75
    16
147
1.0
148
0.0
149
0.0
100
AcDbLayout
  1
Sheet1
 70
     1
 71
     1
 10
0.0
 20
0.0
 11
420.0
 21
297.0
 12
0.0
 22
0.0
 32
0.0
 14
1.000000000000000E+20
 24
1.000000000000000E+20
 34
1.000000000000000E+20
 15
-1.000000000000000E+20
 25
-1.000000000000000E+20
 35
-1.000000000000000E+20
146
0.0
 13
0.0
 23
0.0
 33
0.0
 16
1.0
 26
0.0
 36
0.0
 17
0.0
 27
1.0
 37
0.0
 76
     0
330
1B
  0
LAYOUT
  5
26
102
{ACAD_REACTORS
330
1A
102
}
330
1A
100
AcDbPlotSettings
  1

  2
none_device
  4

  6

 40
0.0
 41
0.0
 42
0.0
 43
0.0
 44
0.0
 45
0.0
 46
0.0
 47
0.0
 48
0.0
 49
0.0
140
0.0
141
0.0
142
1.0
143
1.0
 70
   688
 72
     0
 73
     0
 74
     5
  7

 75
    16
147
1.0
148
0.0
149
0.0
100
AcDbLayout
  1
Sheet2
 70
     1
 71
     2
 10
0.0
 20
0.0
 11
0.0
 21
0.0
 12
0.0
 22
0.0
 32
0.0
 14
0.0
 24
0.0
 34
0.0
 15
0.0
 25
0.0
 35
0.0
146
0.0
 13
0.0
 23
0.0
 33
0.0
 16
1.0
 26
0.0
 36
0.0
 17
0.0
 27
1.0
 37
0.0
 76
     0
330
23
  0
MLINESTYLE
  5
18
102
{ACAD_REACTORS
330
17
102
}
330
17
100
AcDbMlineStyle
  2
Standard
 70
     0
  3

 62
   256
 51
90.0
 52
90.0
 71
     2
 49
0.5
 62
   256
  6
BYLAYER
 49
-0.5
 62
   256
  6
BYLAYER
  0
ACDBPLACEHOLDER
  5
F
102
{ACAD_REACTORS
330
E
102
}
330
E
  0
SCALE
  5
41
102
{ACAD_REACTORS
330
40
102
}
330
40
100
AcDbScale
 70
     0
300
1:1
140
1.0
141
1.0
290
     1
  0
SCALE
  5
42
102
{ACAD_REACTORS
330
40
102
}
330
40
100
AcDbScale
 70
     0
300
1:2
140
1.0
141
2.0
290
     0
  0
SCALE
  5
43
102
{ACAD_REACTORS
330
40
102
}
330
40
100
AcDbScale
 70
     0
300
1:4
140
1.0
141
4.0
290
     0
  0
SCALE
  5
44
102
{ACAD_REACTORS
330
40
102
}
330
40
100
AcDbScale
 70
     0
300
1:5
140
1.0
141
5.0
290
     0
  0
SCALE
  5
45
102
{ACAD_REACTORS
330
40
102
}
330
40
100
AcDbScale
 70
     0
300
1:8
140
1.0
141
8.0
290
     0
  0
SCALE
  5
46
102
{ACAD_REACTORS
330
40
102
}
330
40
100
AcDbScale
 70
     0
300
1:10
140
1.0
141
10.0
290
     0
  0
SCALE
  5
47
102
{ACAD_REACTORS
330
40
102
}
330
40
100
AcDbScale
 70
     0
300
1:16
140
1.0
141
16.0
290
     0
  0
SCALE
  5
48
102
{ACAD_REACTORS
330
40
102
}
330
40
100
AcDbScale
 70
     0
300
1:20
140
1.0
141
20.0
290
     0
  0
SCALE
  5
49
102
{ACAD_REACTORS
330
40
102
}
330
40
100
AcDbScale
 70
     0
300
1:30
140
1.0
141
30.0
290
     0
  0
SCALE
  5
4A
102
{ACAD_REACTORS
330
40
102
}
330
40
100
AcDbScale
 70
     0
300
1:40
140
1.0
141
40.0
290
     0
  0
SCALE
  5
4B
102
{ACAD_REACTORS
330
40
102
}
330
40
100
AcDbScale
 70
     0
300
1:50
140
1.0
141
50.0
290
     0
  0
SCALE
  5
4C
102
{ACAD_REACTORS
330
40
102
}
330
40
100
AcDbScale
 70
     0
300
1:100
140
1.0
141
100.0
290
     0
  0
SCALE
  5
4D
102
{ACAD_REACTORS
330
40
102
}
330
40
100
AcDbScale
 70
     0
300
2:1
140
2.0
141
1.0
290
     0
  0
SCALE
  5
4E
102
{ACAD_REACTORS
330
40
102
}
330
40
100
AcDbScale
 70
     0
300
4:1
140
4.0
141
1.0
290
     0
  0
SCALE
  5
4F
102
{ACAD_REACTORS
330
40
102
}
330
40
100
AcDbScale
 70
     0
300
8:1
140
8.0
141
1.0
290
     0
  0
SCALE
  5
50
102
{ACAD_REACTORS
330
40
102
}
330
40
100
AcDbScale
 70
     0
300
10:1
140
10.0
141
1.0
290
     0
  0
SCALE
  5
51
102
{ACAD_REACTORS
330
40
102
}
330
40
100
AcDbScale
 70
     0
300
100:1
140
100.0
141
1.0
290
     0
  0
SCALE
  5
52
102
{ACAD_REACTORS
330
40
102
}
330
40
100
AcDbScale
 70
     0
300
1/128" = 1'-0"
140
0.0078125
141
12.0
290
     0
  0
SCALE
  5
53
102
{ACAD_REACTORS
330
40
102
}
330
40
100
AcDbScale
 70
     0
300
1/64" = 1'-0"
140
0.015625
141
12.0
290
     0
  0
SCALE
  5
54
102
{ACAD_REACTORS
330
40
102
}
330
40
100
AcDbScale
 70
     0
300
1/32" = 1'-0"
140
0.03125
141
12.0
290
     0
  0
SCALE
  5
55
102
{ACAD_REACTORS
330
40
102
}
330
40
100
AcDbScale
 70
     0
300
1/16" = 1'-0"
140
0.0625
141
12.0
290
     0
  0
SCALE
  5
56
102
{ACAD_REACTORS
330
40
102
}
330
40
100
AcDbScale
 70
     0
300
3/32" = 1'-0"
140
0.09375
141
12.0
290
     0
  0
SCALE
  5
57
102
{ACAD_REACTORS
330
40
102
}
330
40
100
AcDbScale
 70
     0
300
1/8" = 1'-0"
140
0.125
141
12.0
290
     0
  0
SCALE
  5
58
102
{ACAD_REACTORS
330
40
102
}
330
40
100
AcDbScale
 70
     0
300
3/16" = 1'-0"
140
0.1875
141
12.0
290
     0
  0
SCALE
  5
59
102
{ACAD_REACTORS
330
40
102
}
330
40
100
AcDbScale
 70
     0
300
1/4" = 1'-0"
140
0.25
141
12.0
290
     0
  0
SCALE
  5
5A
102
{ACAD_REACTORS
330
40
102
}
330
40
100
AcDbScale
 70
     0
300
3/8" = 1'-0"
140
0.375
141
12.0
290
     0
  0
SCALE
  5
5B
102
{ACAD_REACTORS
330
40
102
}
330
40
100
AcDbScale
 70
     0
300
1/2" = 1'-0"
140
0.5
141
12.0
290
     0
  0
SCALE
  5
5C
102
{ACAD_REACTORS
330
40
102
}
330
40
100
AcDbScale
 70
     0
300
3/4" = 1'-0"
140
0.75
141
12.0
290
     0
  0
SCALE
  5
5D
102
{ACAD_REACTORS
330
40
102
}
330
40
100
AcDbScale
 70
     0
300
1" = 1'-0"
140
1.0
141
12.0
290
     0
  0
SCALE
  5
5E
102
{ACAD_REACTORS
330
40
102
}
330
40
100
AcDbScale
 70
     0
300
1-1/2" = 1'-0"
140
1.5
141
12.0
290
     0
  0
SCALE
  5
5F
102
{ACAD_REACTORS
330
40
102
}
330
40
100
AcDbScale
 70
     0
300
3" = 1'-0"
140
3.0
141
12.0
290
     0
  0
SCALE
  5
60
102
{ACAD_REACTORS
330
40
102
}
330
40
100
AcDbScale
 70
     0
300
6" = 1'-0"
140
6.0
141
12.0
290
     0
  0
SCALE
  5
61
102
{ACAD_REACTORS
330
40
102
}
330
40
100
AcDbScale
 70
     0
300
1'-0" = 1'-0"
140
12.0
141
12.0
290
     0
  0
ENDSEC
  0
EOF
