  0
SECTION
  2
HEADER
  9
$ACADVER
  1
AC1027
  9
$ACADMAINTVER
 70
     8
  9
$DWGCODEPAGE
  3
ANSI_1252
  9
$REQUIREDVERSIONS
160
                 0
  9
$INSBASE
 10
0.0
 20
0.0
 30
0.0
  9
$EXTMIN
 10
0.7615487896706554
 20
-29.76889886066426
 30
0.0
  9
$EXTMAX
 10
233.2234507203938
 20
139.4837933132339
 30
0.0
  9
$LIMMIN
 10
0.0
 20
0.0
  9
$LIMMAX
 10
420.0
 20
297.0
  9
$ORTHOMODE
 70
     1
  9
$REGENMODE
 70
     1
  9
$FILLMODE
 70
     1
  9
$QTEXTMODE
 70
     0
  9
$MIRRTEXT
 70
     0
  9
$LTSCALE
 40
1.0
  9
$ATTMODE
 70
     1
  9
$TEXTSIZE
 40
2.5
  9
$TRACEWID
 40
1.0
  9
$TEXTSTYLE
  7
Standard
  9
$CLAYER
  8
0
  9
$CELTYPE
  6
ByLayer
  9
$CECOLOR
 62
   256
  9
$CELTSCALE
 40
1.0
  9
$DISPSILH
 70
     0
  9
$DIMSCALE
 40
1.0
  9
$DIMASZ
 40
2.5
  9
$DIMEXO
 40
0.625
  9
$DIMDLI
 40
3.75
  9
$DIMRND
 40
0.0
  9
$DIMDLE
 40
0.0
  9
$DIMEXE
 40
1.25
  9
$DIMTP
 40
0.0
  9
$DIMTM
 40
0.0
  9
$DIMTXT
 40
2.5
  9
$DIMCEN
 40
2.5
  9
$DIMTSZ
 40
0.0
  9
$DIMTOL
 70
     0
  9
$DIMLIM
 70
     0
  9
$DIMTIH
 70
     0
  9
$DIMTOH
 70
     0
  9
$DIMSE1
 70
     0
  9
$DIMSE2
 70
     0
  9
$DIMTAD
 70
     1
  9
$DIMZIN
 70
     8
  9
$DIMBLK
  1

  9
$DIMASO
 70
     1
  9
$DIMSHO
 70
     1
  9
$DIMPOST
  1

  9
$DIMAPOST
  1

  9
$DIMALT
 70
     0
  9
$DIMALTD
 70
     3
  9
$DIMALTF
 40
0.03937007874016
  9
$DIMLFAC
 40
1.0
  9
$DIMTOFL
 70
     1
  9
$DIMTVP
 40
0.0
  9
$DIMTIX
 70
     0
  9
$DIMSOXD
 70
     0
  9
$DIMSAH
 70
     0
  9
$DIMBLK1
  1

  9
$DIMBLK2
  1

  9
$DIMSTYLE
  2
ISO-25
  9
$DIMCLRD
 70
     0
  9
$DIMCLRE
 70
     0
  9
$DIMCLRT
 70
     0
  9
$DIMTFAC
 40
1.0
  9
$DIMGAP
 40
0.625
  9
$DIMJUST
 70
     0
  9
$DIMSD1
 70
     0
  9
$DIMSD2
 70
     0
  9
$DIMTOLJ
 70
     0
  9
$DIMTZIN
 70
     8
  9
$DIMALTZ
 70
     0
  9
$DIMALTTZ
 70
     0
  9
$DIMUPT
 70
     0
  9
$DIMDEC
 70
     2
  9
$DIMTDEC
 70
     2
  9
$DIMALTU
 70
     2
  9
$DIMALTTD
 70
     3
  9
$DIMTXSTY
  7
Standard
  9
$DIMAUNIT
 70
     0
  9
$DIMADEC
 70
     0
  9
$DIMALTRND
 40
0.0
  9
$DIMAZIN
 70
     0
  9
$DIMDSEP
 70
    44
  9
$DIMATFIT
 70
     3
  9
$DIMFRAC
 70
     0
  9
$DIMLDRBLK
  1

  9
$DIMLUNIT
 70
     2
  9
$DIMLWD
 70
    -2
  9
$DIMLWE
 70
    -2
  9
$DIMTMOVE
 70
     0
  9
$DIMFXL
 40
1.0
  9
$DIMFXLON
 70
     0
  9
$DIMJOGANG
 40
0.7853981633974483
  9
$DIMTFILL
 70
     0
  9
$DIMTFILLCLR
 70
     0
  9
$DIMARCSYM
 70
     0
  9
$DIMLTYPE
  6

  9
$DIMLTEX1
  6

  9
$DIMLTEX2
  6

  9
$DIMTXTDIRECTION
 70
     0
  9
$LUNITS
 70
     2
  9
$LUPREC
 70
     3
  9
$SKETCHINC
 40
1.0
  9
$FILLETRAD
 40
10.0
  9
$AUNITS
 70
     0
  9
$AUPREC
 70
     0
  9
$MENU
  1
.
  9
$ELEVATION
 40
0.0
  9
$PELEVATION
 40
0.0
  9
$THICKNESS
 40
0.0
  9
$LIMCHECK
 70
     0
  9
$CHAMFERA
 40
2.0
  9
$CHAMFERB
 40
2.0
  9
$CHAMFERC
 40
20.0
  9
$CHAMFERD
 40
0.0
  9
$SKPOLY
 70
     0
  9
$TDCREATE
 40
2455022.86652618
  9
$TDUCREATE
 40
2455022.637359514
  9
$TDUPDATE
 40
2457577.776932871
  9
$TDUUPDATE
 40
2457577.547766204
  9
$TDINDWG
 40
0.0735551157
  9
$TDUSRTIMER
 40
2457577.547395833
  9
$USRTIMER
 70
     1
  9
$ANGBASE
 50
0.0
  9
$ANGDIR
 70
     0
  9
$PDMODE
 70
     0
  9
$PDSIZE
 40
0.0
  9
$PLINEWID
 40
0.0
  9
$SPLFRAME
 70
     0
  9
$SPLINETYPE
 70
     6
  9
$SPLINESEGS
 70
     8
  9
$HANDSEED
  5
5DD
  9
$SURFTAB1
 70
     6
  9
$SURFTAB2
 70
     6
  9
$SURFTYPE
 70
     6
  9
$SURFU
 70
     6
  9
$SURFV
 70
     6
  9
$UCSBASE
  2

  9
$UCSNAME
  2

  9
$UCSORG
 10
0.0
 20
0.0
 30
0.0
  9
$UCSXDIR
 10
1.0
 20
0.0
 30
0.0
  9
$UCSYDIR
 10
0.0
 20
1.0
 30
0.0
  9
$UCSORTHOREF
  2

  9
$UCSORTHOVIEW
 70
     0
  9
$UCSORGTOP
 10
0.0
 20
0.0
 30
0.0
  9
$UCSORGBOTTOM
 10
0.0
 20
0.0
 30
0.0
  9
$UCSORGLEFT
 10
0.0
 20
0.0
 30
0.0
  9
$UCSORGRIGHT
 10
0.0
 20
0.0
 30
0.0
  9
$UCSORGFRONT
 10
0.0
 20
0.0
 30
0.0
  9
$UCSORGBACK
 10
0.0
 20
0.0
 30
0.0
  9
$PUCSBASE
  2

  9
$PUCSNAME
  2

  9
$PUCSORG
 10
0.0
 20
0.0
 30
0.0
  9
$PUCSXDIR
 10
1.0
 20
0.0
 30
0.0
  9
$PUCSYDIR
 10
0.0
 20
1.0
 30
0.0
  9
$PUCSORTHOREF
  2

  9
$PUCSORTHOVIEW
 70
     0
  9
$PUCSORGTOP
 10
0.0
 20
0.0
 30
0.0
  9
$PUCSORGBOTTOM
 10
0.0
 20
0.0
 30
0.0
  9
$PUCSORGLEFT
 10
0.0
 20
0.0
 30
0.0
  9
$PUCSORGRIGHT
 10
0.0
 20
0.0
 30
0.0
  9
$PUCSORGFRONT
 10
0.0
 20
0.0
 30
0.0
  9
$PUCSORGBACK
 10
0.0
 20
0.0
 30
0.0
  9
$USERI1
 70
     0
  9
$USERI2
 70
     0
  9
$USERI3
 70
     0
  9
$USERI4
 70
     0
  9
$USERI5
 70
     0
  9
$USERR1
 40
0.0
  9
$USERR2
 40
0.0
  9
$USERR3
 40
0.0
  9
$USERR4
 40
0.0
  9
$USERR5
 40
0.0
  9
$WORLDVIEW
 70
     1
  9
$SHADEDGE
 70
     3
  9
$SHADEDIF
 70
    70
  9
$TILEMODE
 70
     1
  9
$MAXACTVP
 70
    64
  9
$PINSBASE
 10
0.0
 20
0.0
 30
0.0
  9
$PLIMCHECK
 70
     0
  9
$PEXTMIN
 10
1.000000000000000E+20
 20
1.000000000000000E+20
 30
1.000000000000000E+20
  9
$PEXTMAX
 10
-1.000000000000000E+20
 20
-1.000000000000000E+20
 30
-1.000000000000000E+20
  9
$PLIMMIN
 10
0.0
 20
0.0
  9
$PLIMMAX
 10
0.0
 20
0.0
  9
$UNITMODE
 70
     0
  9
$VISRETAIN
 70
     1
  9
$PLINEGEN
 70
     0
  9
$PSLTSCALE
 70
     1
  9
$TREEDEPTH
 70
  3020
  9
$CMLSTYLE
  2
Standard
  9
$CMLJUST
 70
     0
  9
$CMLSCALE
 40
20.0
  9
$PROXYGRAPHICS
 70
     1
  9
$MEASUREMENT
 70
     1
  9
$CELWEIGHT
370
    -1
  9
$ENDCAPS
280
     0
  9
$JOINSTYLE
280
     0
  9
$LWDISPLAY
290
     0
  9
$INSUNITS
 70
     4
  9
$HYPERLINKBASE
  1

  9
$STYLESHEET
  1

  9
$XEDIT
290
     1
  9
$CEPSNTYPE
380
     0
  9
$PSTYLEMODE
290
     1
  9
$FINGERPRINTGUID
  2
{EC6BB858-51AA-46EC-B484-6C9CC7AB3E2E}
  9
$VERSIONGUID
  2
{FAEB1C32-E019-11D5-929B-00C0DF256EC4}
  9
$EXTNAMES
290
     1
  9
$PSVPSCALE
 40
0.0
  9
$OLESTARTUP
290
     0
  9
$SORTENTS
280
   127
  9
$INDEXCTL
280
     0
  9
$HIDETEXT
280
     1
  9
$XCLIPFRAME
280
     0
  9
$HALOGAP
280
     0
  9
$OBSCOLOR
 70
   257
  9
$OBSLTYPE
280
     0
  9
$INTERSECTIONDISPLAY
280
     0
  9
$INTERSECTIONCOLOR
 70
   257
  9
$DIMASSOC
280
     2
  9
$PROJECTNAME
  1

  9
$CAMERADISPLAY
290
     0
  9
$LENSLENGTH
 40
50.0
  9
$CAMERAHEIGHT
 40
0.0
  9
$STEPSPERSEC
 40
2.0
  9
$STEPSIZE
 40
6.0
  9
$3DDWFPREC
 40
2.0
  9
$PSOLWIDTH
 40
5.0
  9
$PSOLHEIGHT
 40
80.0
  9
$LOFTANG1
 40
1.570796326794897
  9
$LOFTANG2
 40
1.570796326794897
  9
$LOFTMAG1
 40
0.0
  9
$LOFTMAG2
 40
0.0
  9
$LOFTPARAM
 70
     7
  9
$LOFTNORMALS
280
     1
  9
$LATITUDE
 40
37.795
  9
$LONGITUDE
 40
-122.394
  9
$NORTHDIRECTION
 40
0.0
  9
$TIMEZONE
 70
 -8000
  9
$LIGHTGLYPHDISPLAY
280
     1
  9
$TILEMODELIGHTSYNCH
280
     1
  9
$SOLIDHIST
280
     1
  9
$SHOWHIST
280
     1
  9
$DWFFRAME
280
     2
  9
$DGNFRAME
280
     2
  9
$REALWORLDSCALE
290
     1
  9
$INTERFERECOLOR
 62
   256
  9
$CSHADOW
280
     0
  9
$SHADOWPLANELOCATION
 40
0.0
  0
ENDSEC
  0
SECTION
  2
CLASSES
  0
CLASS
  1
ACDBDICTIONARYWDFLT
  2
AcDbDictionaryWithDefault
  3
ObjectDBX Classes
 90
        0
 91
        7
280
     0
281
     0
  0
CLASS
  1
VISUALSTYLE
  2
AcDbVisualStyle
  3
ObjectDBX Classes
 90
     4095
 91
        7
280
     0
281
     0
  0
CLASS
  1
TABLESTYLE
  2
AcDbTableStyle
  3
ObjectDBX Classes
 90
     4095
 91
        7
280
     0
281
     0
  0
CLASS
  1
DICTIONARYVAR
  2
AcDbDictionaryVar
  3
ObjectDBX Classes
 90
        0
 91
        7
280
     0
281
     0
  0
CLASS
  1
SCALE
  2
AcDbScale
  3
ObjectDBX Classes
 90
     1153
 91
        7
280
     0
281
     0
  0
CLASS
  1
CELLSTYLEMAP
  2
AcDbCellStyleMap
  3
ObjectDBX Classes
 90
     1152
 91
        7
280
     0
281
     0
  0
CLASS
  1
RASTERVARIABLES
  2
AcDbRasterVariables
  3
ISM
 90
        0
 91
        7
280
     0
281
     0
  0
CLASS
  1
MATERIAL
  2
AcDbMaterial
  3
ObjectDBX Classes
 90
     1153
 91
        7
280
     0
281
     0
  0
CLASS
  1
SUN
  2
AcDbSun
  3
SCENEOE
 90
     1153
 91
        7
280
     0
281
     0
  0
CLASS
  1
MLEADERSTYLE
  2
AcDbMLeaderStyle
  3
ACDB_MLEADERSTYLE_CLASS
 90
     4095
 91
        7
280
     0
281
     0
  0
CLASS
  1
DIMASSOC
  2
AcDbDimAssoc
  3
"AcDbDimAssoc|Product Desc:     AcDim ARX App For Dimension|Company:          Autodesk, Inc.|WEB Address:      www.autodesk.com"
 90
        0
 91
        6
280
     0
281
     0
  0
ENDSEC
  0
SECTION
  2
TABLES
  0
TABLE
  2
VPORT
  5
8
330
0
100
AcDbSymbolTable
 70
     1
  0
VPORT
  5
29
330
8
100
AcDbSymbolTableRecord
100
AcDbViewportTableRecord
  2
*Active
 70
     0
 10
0.0
 20
0.0
 11
1.0
 21
1.0
 12
321.810816002552
 22
59.45080257570764
 13
0.0
 23
0.0
 14
10.0
 24
10.0
 15
10.0
 25
10.0
 16
0.0
 26
0.0
 36
1.0
 17
-134.1869158878511
 27
0.0
 37
0.0
 40
239.9088617609954
 41
2.191208791208791
 42
50.0
 43
0.0
 44
0.0
 50
0.0
 51
0.0
 71
    16
 72
  1000
 73
     1
 74
     3
 75
     0
 76
     0
 77
     0
 78
     0
281
     0
 65
     1
110
0.0
120
0.0
130
0.0
111
1.0
121
0.0
131
0.0
112
0.0
122
1.0
132
0.0
 79
     0
146
0.0
348
2F
 60
     3
 61
     5
292
     1
282
     1
141
0.0
142
0.0
 63
   256
361
80
  0
ENDTAB
  0
TABLE
  2
LTYPE
  5
5
330
0
100
AcDbSymbolTable
 70
     1
  0
LTYPE
  5
14
330
5
100
AcDbSymbolTableRecord
100
AcDbLinetypeTableRecord
  2
ByBlock
 70
     0
  3

 72
    65
 73
     0
 40
0.0
  0
LTYPE
  5
15
330
5
100
AcDbSymbolTableRecord
100
AcDbLinetypeTableRecord
  2
ByLayer
 70
     0
  3

 72
    65
 73
     0
 40
0.0
  0
LTYPE
  5
16
330
5
100
AcDbSymbolTableRecord
100
AcDbLinetypeTableRecord
  2
Continuous
 70
     0
  3
Solid line
 72
    65
 73
     0
 40
0.0
  0
ENDTAB
  0
TABLE
  2
LAYER
  5
2
330
0
100
AcDbSymbolTable
 70
     2
  0
LAYER
  5
10
330
2
100
AcDbSymbolTableRecord
100
AcDbLayerTableRecord
  2
0
 70
     0
 62
     7
  6
Continuous
370
    -3
390
F
347
75
348
0
  0
LAYER
  5
1ED
330
2
100
AcDbSymbolTableRecord
100
AcDbLayerTableRecord
  2
Defpoints
 70
     0
 62
     7
  6
Continuous
290
     0
370
    -3
390
F
347
75
348
0
  0
ENDTAB
  0
TABLE
  2
STYLE
  5
3
330
0
100
AcDbSymbolTable
 70
     1
  0
STYLE
  5
11
330
3
100
AcDbSymbolTableRecord
100
AcDbTextStyleTableRecord
  2
Standard
 70
     0
 40
0.0
 41
1.0
 50
0.0
 71
     0
 42
2.5
  3
arial.ttf
  4

1001
ACAD
1000
Arial
1071
        0
  0
ENDTAB
  0
TABLE
  2
VIEW
  5
6
330
0
100
AcDbSymbolTable
 70
     0
  0
ENDTAB
  0
TABLE
  2
UCS
  5
7
330
0
100
AcDbSymbolTable
 70
     0
  0
ENDTAB
  0
TABLE
  2
APPID
  5
9
330
0
100
AcDbSymbolTable
 70
     2
  0
APPID
  5
12
330
9
100
AcDbSymbolTableRecord
100
AcDbRegAppTableRecord
  2
ACAD
 70
     0
  0
APPID
  5
230
330
9
100
AcDbSymbolTableRecord
100
AcDbRegAppTableRecord
  2
ACAD_MLEADERVER
 70
     0
  0
ENDTAB
  0
TABLE
  2
DIMSTYLE
  5
A
330
0
100
AcDbSymbolTable
 70
     1
100
AcDbDimStyleTable
  0
DIMSTYLE
105
27
102
{ACAD_REACTORS
330
2BC
330
2CB
330
2DA
330
2F8
330
308
330
324
330
33F
330
354
330
364
330
383
330
3B0
330
3DA
330
410
330
43D
330
45B
330
479
330
498
330
4CA
330
4D9
330
4E8
330
508
330
517
330
529
330
58C
330
592
330
595
330
5BC
102
}
330
A
100
AcDbSymbolTableRecord
100
AcDbDimStyleTableRecord
  2
ISO-25
 70
     0
 41
2.5
 42
0.625
 43
3.75
 44
1.25
 73
     0
 74
     0
 77
     1
 78
     8
140
2.5
141
2.5
143
0.03937007874016
147
0.625
171
     3
172
     1
178
     0
271
     2
272
     2
274
     3
278
    44
283
     0
284
     8
340
11
  0
ENDTAB
  0
TABLE
  2
BLOCK_RECORD
  5
1
330
0
100
AcDbSymbolTable
 70
    47
  0
BLOCK_RECORD
  5
1F
330
1
100
AcDbSymbolTableRecord
100
AcDbBlockTableRecord
  2
*Model_Space
340
22
 70
     0
280
     1
281
     0
  0
BLOCK_RECORD
  5
1B
330
1
100
AcDbSymbolTableRecord
100
AcDbBlockTableRecord
  2
*Paper_Space
340
1E
 70
     0
280
     1
281
     0
  0
BLOCK_RECORD
  5
23
330
1
100
AcDbSymbolTableRecord
100
AcDbBlockTableRecord
  2
*Paper_Space0
340
26
 70
     0
280
     1
281
     0
  0
BLOCK_RECORD
  5
1F1
330
1
100
AcDbSymbolTableRecord
100
AcDbBlockTableRecord
  2
*D1
340
0
 70
     0
280
     1
281
     0
  0
BLOCK_RECORD
  5
200
330
1
100
AcDbSymbolTableRecord
100
AcDbBlockTableRecord
  2
*D2
340
0
 70
     0
280
     1
281
     0
  0
BLOCK_RECORD
  5
222
330
1
100
AcDbSymbolTableRecord
100
AcDbBlockTableRecord
  2
*D3
340
0
 70
     0
280
     1
281
     0
  0
BLOCK_RECORD
  5
244
330
1
100
AcDbSymbolTableRecord
100
AcDbBlockTableRecord
  2
*D4
340
0
 70
     0
280
     1
281
     0
  0
BLOCK_RECORD
  5
253
330
1
100
AcDbSymbolTableRecord
100
AcDbBlockTableRecord
  2
*D5
340
0
 70
     0
280
     1
281
     0
  0
BLOCK_RECORD
  5
262
330
1
100
AcDbSymbolTableRecord
100
AcDbBlockTableRecord
  2
*D6
340
0
 70
     0
280
     1
281
     0
  0
BLOCK_RECORD
  5
2BF
330
1
100
AcDbSymbolTableRecord
100
AcDbBlockTableRecord
  2
*D7
340
0
 70
     0
280
     1
281
     0
  0
BLOCK_RECORD
  5
2CE
330
1
100
AcDbSymbolTableRecord
100
AcDbBlockTableRecord
  2
*D8
340
0
 70
     0
280
     1
281
     0
  0
BLOCK_RECORD
  5
2DD
330
1
100
AcDbSymbolTableRecord
100
AcDbBlockTableRecord
  2
*D9
340
0
 70
     0
280
     1
281
     0
  0
BLOCK_RECORD
  5
2EC
330
1
100
AcDbSymbolTableRecord
100
AcDbBlockTableRecord
  2
*D10
340
0
 70
     0
280
     1
281
     0
  0
BLOCK_RECORD
  5
2FB
330
1
100
AcDbSymbolTableRecord
100
AcDbBlockTableRecord
  2
*D11
340
0
 70
     0
280
     1
281
     0
  0
BLOCK_RECORD
  5
30B
330
1
100
AcDbSymbolTableRecord
100
AcDbBlockTableRecord
  2
*D12
340
0
 70
     0
280
     1
281
     0
  0
BLOCK_RECORD
  5
327
330
1
100
AcDbSymbolTableRecord
100
AcDbBlockTableRecord
  2
*D13
340
0
 70
     0
280
     1
281
     0
  0
BLOCK_RECORD
  5
342
330
1
100
AcDbSymbolTableRecord
100
AcDbBlockTableRecord
  2
*D14
340
0
 70
     0
280
     1
281
     0
  0
BLOCK_RECORD
  5
357
330
1
100
AcDbSymbolTableRecord
100
AcDbBlockTableRecord
  2
*D15
340
0
 70
     0
280
     1
281
     0
  0
BLOCK_RECORD
  5
367
330
1
100
AcDbSymbolTableRecord
100
AcDbBlockTableRecord
  2
*D16
340
0
 70
     0
280
     1
281
     0
  0
BLOCK_RECORD
  5
377
330
1
100
AcDbSymbolTableRecord
100
AcDbBlockTableRecord
  2
*D17
340
0
 70
     0
280
     1
281
     0
  0
BLOCK_RECORD
  5
386
330
1
100
AcDbSymbolTableRecord
100
AcDbBlockTableRecord
  2
*D18
340
0
 70
     0
280
     1
281
     0
  0
BLOCK_RECORD
  5
395
330
1
100
AcDbSymbolTableRecord
100
AcDbBlockTableRecord
  2
*D19
340
0
 70
     0
280
     1
281
     0
  0
BLOCK_RECORD
  5
3A4
330
1
100
AcDbSymbolTableRecord
100
AcDbBlockTableRecord
  2
*D20
340
0
 70
     0
280
     1
281
     0
  0
BLOCK_RECORD
  5
3B3
330
1
100
AcDbSymbolTableRecord
100
AcDbBlockTableRecord
  2
*D21
340
0
 70
     0
280
     1
281
     0
  0
BLOCK_RECORD
  5
3CD
330
1
100
AcDbSymbolTableRecord
100
AcDbBlockTableRecord
  2
*D22
340
0
 70
     0
280
     1
281
     0
  0
BLOCK_RECORD
  5
3DD
330
1
100
AcDbSymbolTableRecord
100
AcDbBlockTableRecord
  2
*D23
340
0
 70
     0
280
     1
281
     0
  0
BLOCK_RECORD
  5
3EC
330
1
100
AcDbSymbolTableRecord
100
AcDbBlockTableRecord
  2
*D24
340
0
 70
     0
280
     1
281
     0
  0
BLOCK_RECORD
  5
413
330
1
100
AcDbSymbolTableRecord
100
AcDbBlockTableRecord
  2
*D25
340
0
 70
     0
280
     1
281
     0
  0
BLOCK_RECORD
  5
422
330
1
100
AcDbSymbolTableRecord
100
AcDbBlockTableRecord
  2
*D26
340
0
 70
     0
280
     1
281
     0
  0
BLOCK_RECORD
  5
431
330
1
100
AcDbSymbolTableRecord
100
AcDbBlockTableRecord
  2
*D27
340
0
 70
     0
280
     1
281
     0
  0
BLOCK_RECORD
  5
440
330
1
100
AcDbSymbolTableRecord
100
AcDbBlockTableRecord
  2
*D28
340
0
 70
     0
280
     1
281
     0
  0
BLOCK_RECORD
  5
44F
330
1
100
AcDbSymbolTableRecord
100
AcDbBlockTableRecord
  2
*D29
340
0
 70
     0
280
     1
281
     0
  0
BLOCK_RECORD
  5
45E
330
1
100
AcDbSymbolTableRecord
100
AcDbBlockTableRecord
  2
*D30
340
0
 70
     0
280
     1
281
     0
  0
BLOCK_RECORD
  5
46D
330
1
100
AcDbSymbolTableRecord
100
AcDbBlockTableRecord
  2
*D31
340
0
 70
     0
280
     1
281
     0
  0
BLOCK_RECORD
  5
47C
330
1
100
AcDbSymbolTableRecord
100
AcDbBlockTableRecord
  2
*D32
340
0
 70
     0
280
     1
281
     0
  0
BLOCK_RECORD
  5
49B
330
1
100
AcDbSymbolTableRecord
100
AcDbBlockTableRecord
  2
*D33
340
0
 70
     0
280
     1
281
     0
  0
BLOCK_RECORD
  5
4AA
330
1
100
AcDbSymbolTableRecord
100
AcDbBlockTableRecord
  2
*D34
340
0
 70
     0
280
     1
281
     0
  0
BLOCK_RECORD
  5
4BE
330
1
100
AcDbSymbolTableRecord
100
AcDbBlockTableRecord
  2
*D35
340
0
 70
     0
280
     1
281
     0
  0
BLOCK_RECORD
  5
4CD
330
1
100
AcDbSymbolTableRecord
100
AcDbBlockTableRecord
  2
*D36
340
0
 70
     0
280
     1
281
     0
  0
BLOCK_RECORD
  5
4DC
330
1
100
AcDbSymbolTableRecord
100
AcDbBlockTableRecord
  2
*D37
340
0
 70
     0
280
     1
281
     0
  0
BLOCK_RECORD
  5
4EB
330
1
100
AcDbSymbolTableRecord
100
AcDbBlockTableRecord
  2
*D38
340
0
 70
     0
280
     1
281
     0
  0
BLOCK_RECORD
  5
4FA
330
1
100
AcDbSymbolTableRecord
100
AcDbBlockTableRecord
  2
*D39
340
0
 70
     0
280
     1
281
     0
  0
BLOCK_RECORD
  5
50B
330
1
100
AcDbSymbolTableRecord
100
AcDbBlockTableRecord
  2
*D40
340
0
 70
     0
280
     1
281
     0
  0
BLOCK_RECORD
  5
51A
330
1
100
AcDbSymbolTableRecord
100
AcDbBlockTableRecord
  2
*D41
340
0
 70
     0
280
     1
281
     0
  0
BLOCK_RECORD
  5
52C
330
1
100
AcDbSymbolTableRecord
100
AcDbBlockTableRecord
  2
*D42
340
0
 70
     0
280
     1
281
     0
  0
BLOCK_RECORD
  5
598
330
1
100
AcDbSymbolTableRecord
100
AcDbBlockTableRecord
  2
*D43
340
0
 70
     0
280
     1
281
     0
  0
BLOCK_RECORD
  5
5A4
330
1
100
AcDbSymbolTableRecord
100
AcDbBlockTableRecord
  2
*D44
340
0
 70
     0
280
     1
281
     0
  0
BLOCK_RECORD
  5
5B0
330
1
100
AcDbSymbolTableRecord
100
AcDbBlockTableRecord
  2
*D45
340
0
 70
     0
280
     1
281
     0
  0
BLOCK_RECORD
  5
5BF
330
1
100
AcDbSymbolTableRecord
100
AcDbBlockTableRecord
  2
*D46
340
0
 70
     0
280
     1
281
     0
  0
ENDTAB
  0
ENDSEC
  0
SECTION
  2
BLOCKS
  0
BLOCK
  5
20
330
1F
100
AcDbEntity
  8
0
100
AcDbBlockBegin
  2
*Model_Space
 70
     0
 10
0.0
 20
0.0
 30
0.0
  3
*Model_Space
  1
*Model_Space
  0
ENDBLK
  5
21
330
1F
100
AcDbEntity
  8
0
100
AcDbBlockEnd
  0
BLOCK
  5
1C
330
1B
100
AcDbEntity
 67
     1
  8
0
100
AcDbBlockBegin
  2
*Paper_Space
 70
     0
 10
0.0
 20
0.0
 30
0.0
  3
*Paper_Space
  1
*Paper_Space
  0
ENDBLK
  5
1D
330
1B
100
AcDbEntity
 67
     1
  8
0
100
AcDbBlockEnd
  0
BLOCK
  5
24
330
23
100
AcDbEntity
  8
0
100
AcDbBlockBegin
  2
*Paper_Space0
 70
     0
 10
0.0
 20
0.0
 30
0.0
  3
*Paper_Space0
  1
*Paper_Space0
  0
ENDBLK
  5
25
330
23
100
AcDbEntity
  8
0
100
AcDbBlockEnd
  0
BLOCK
  5
1F2
330
1F1
100
AcDbEntity
  8
0
100
AcDbBlockBegin
  2
*D1
 70
     1
 10
0.0
 20
0.0
 30
0.0
  3
*D1
  1
*D3
  0
LINE
  5
1F4
330
1F1
100
AcDbEntity
  8
0
 62
     0
370
    -2
100
AcDbLine
 10
247.5424771580365
 20
141.92901589777
 30
0.0
 11
247.5424771580365
 21
163.9927850313165
 31
0.0
  0
LINE
  5
1F5
330
1F1
100
AcDbEntity
  8
0
 62
     0
370
    -2
100
AcDbLine
 10
288.6424771580365
 20
141.92901589777
 30
0.0
 11
288.6424771580365
 21
163.9927850313165
 31
0.0
  0
LINE
  5
1F6
330
1F1
100
AcDbEntity
  8
0
 62
     0
370
    -2
100
AcDbLine
 10
250.0424771580365
 20
162.7427850313165
 30
0.0
 11
286.1424771580365
 21
162.7427850313165
 31
0.0
  0
SOLID
  5
1F7
330
1F1
100
AcDbEntity
  8
0
 62
     0
100
AcDbTrace
 10
250.0424771580365
 20
163.1594516979831
 30
0.0
 11
250.0424771580365
 21
162.3261183646498
 31
0.0
 12
247.5424771580365
 22
162.7427850313165
 32
0.0
 13
247.5424771580365
 23
162.7427850313165
 33
0.0
  0
SOLID
  5
1F8
330
1F1
100
AcDbEntity
  8
0
 62
     0
100
AcDbTrace
 10
286.1424771580365
 20
162.3261183646498
 30
0.0
 11
286.1424771580365
 21
163.1594516979831
 31
0.0
 12
288.6424771580365
 22
162.7427850313165
 32
0.0
 13
288.6424771580365
 23
162.7427850313165
 33
0.0
  0
MTEXT
  5
1F9
330
1F1
100
AcDbEntity
  8
0
 62
     0
100
AcDbMText
 10
268.0924771580365
 20
164.8690350313165
 30
0.0
 40
2.5
 41
0.0
 46
0.0
 71
     5
 72
     1
  1
41,1
 73
     1
 44
1.0
  0
POINT
  5
1FA
330
1F1
100
AcDbEntity
  8
Defpoints
 62
     0
100
AcDbPoint
 10
247.5424771580365
 20
141.30401589777
 30
0.0
  0
POINT
  5
1FB
330
1F1
100
AcDbEntity
  8
Defpoints
 62
     0
100
AcDbPoint
 10
288.6424771580365
 20
141.30401589777
 30
0.0
  0
POINT
  5
1FC
330
1F1
100
AcDbEntity
  8
Defpoints
 62
     0
100
AcDbPoint
 10
288.6424771580365
 20
162.7427850313165
 30
0.0
  0
ENDBLK
  5
1F3
330
1F1
100
AcDbEntity
  8
0
100
AcDbBlockEnd
  0
BLOCK
  5
201
330
200
100
AcDbEntity
  8
0
100
AcDbBlockBegin
  2
*D2
 70
     1
 10
0.0
 20
0.0
 30
0.0
  3
*D2
  1
*D4
  0
LINE
  5
203
330
200
100
AcDbEntity
  8
0
 62
     0
370
    -2
100
AcDbLine
 10
259.0424771580365
 20
98.87901589776993
 30
0.0
 11
259.0424771580365
 21
79.3724258064517
 31
0.0
  0
LINE
  5
204
330
200
100
AcDbEntity
  8
0
 62
     0
370
    -2
100
AcDbLine
 10
277.1424771580365
 20
98.87901589776993
 30
0.0
 11
277.1424771580365
 21
79.3724258064517
 31
0.0
  0
LINE
  5
205
330
200
100
AcDbEntity
  8
0
 62
     0
370
    -2
100
AcDbLine
 10
261.5424771580365
 20
80.6224258064517
 30
0.0
 11
274.6424771580365
 21
80.6224258064517
 31
0.0
  0
SOLID
  5
206
330
200
100
AcDbEntity
  8
0
 62
     0
100
AcDbTrace
 10
261.5424771580365
 20
81.03909247311837
 30
0.0
 11
261.5424771580365
 21
80.20575913978503
 31
0.0
 12
259.0424771580365
 22
80.6224258064517
 32
0.0
 13
259.0424771580365
 23
80.6224258064517
 33
0.0
  0
SOLID
  5
207
330
200
100
AcDbEntity
  8
0
 62
     0
100
AcDbTrace
 10
274.6424771580365
 20
80.20575913978503
 30
0.0
 11
274.6424771580365
 21
81.03909247311837
 31
0.0
 12
277.1424771580365
 22
80.6224258064517
 32
0.0
 13
277.1424771580365
 23
80.6224258064517
 33
0.0
  0
MTEXT
  5
208
330
200
100
AcDbEntity
  8
0
 62
     0
100
AcDbMText
 10
268.0924771580365
 20
82.7486758064517
 30
0.0
 40
2.5
 41
0.0
 46
0.0
 71
     5
 72
     1
  1
18,1
 73
     1
 44
1.0
  0
POINT
  5
209
330
200
100
AcDbEntity
  8
Defpoints
 62
     0
100
AcDbPoint
 10
259.0424771580365
 20
99.50401589776993
 30
0.0
  0
POINT
  5
20A
330
200
100
AcDbEntity
  8
Defpoints
 62
     0
100
AcDbPoint
 10
277.1424771580365
 20
99.50401589776993
 30
0.0
  0
POINT
  5
20B
330
200
100
AcDbEntity
  8
Defpoints
 62
     0
100
AcDbPoint
 10
277.1424771580365
 20
80.6224258064517
 30
0.0
  0
ENDBLK
  5
202
330
200
100
AcDbEntity
  8
0
100
AcDbBlockEnd
  0
BLOCK
  5
223
330
222
100
AcDbEntity
  8
0
100
AcDbBlockBegin
  2
*D3
 70
     1
 10
0.0
 20
0.0
 30
0.0
  3
*D3
  1
*D5
  0
LINE
  5
225
330
222
100
AcDbEntity
  8
0
 62
     0
370
    -2
100
AcDbLine
 10
119.0573108437468
 20
75.33901633095641
 30
0.0
 11
119.0573108437468
 21
81.40802557425431
 31
0.0
  0
LINE
  5
226
330
222
100
AcDbEntity
  8
0
 62
     0
370
    -2
100
AcDbLine
 10
124.7573108437468
 20
75.3443674018244
 30
0.0
 11
124.7573108437468
 21
81.40802557425431
 31
0.0
  0
LINE
  5
227
330
222
100
AcDbEntity
  8
0
 62
     0
370
    -2
100
AcDbLine
 10
127.2573108437468
 20
80.15802557425431
 30
0.0
 11
135.5523108437468
 21
80.15802557425431
 31
0.0
  0
LINE
  5
228
330
222
100
AcDbEntity
  8
0
 62
     0
370
    -2
100
AcDbLine
 10
119.0573108437468
 20
80.15802557425431
 30
0.0
 11
124.7573108437468
 21
80.15802557425431
 31
0.0
  0
LINE
  5
229
330
222
100
AcDbEntity
  8
0
 62
     0
370
    -2
100
AcDbLine
 10
116.5573108437468
 20
80.15802557425431
 30
0.0
 11
114.0573108437468
 21
80.15802557425431
 31
0.0
  0
SOLID
  5
22A
330
222
100
AcDbEntity
  8
0
 62
     0
100
AcDbTrace
 10
116.5573108437468
 20
79.74135890758764
 30
0.0
 11
116.5573108437468
 21
80.57469224092098
 31
0.0
 12
119.0573108437468
 22
80.15802557425431
 32
0.0
 13
119.0573108437468
 23
80.15802557425431
 33
0.0
  0
SOLID
  5
22B
330
222
100
AcDbEntity
  8
0
 62
     0
100
AcDbTrace
 10
127.2573108437468
 20
80.57469224092098
 30
0.0
 11
127.2573108437468
 21
79.74135890758764
 31
0.0
 12
124.7573108437468
 22
80.15802557425431
 32
0.0
 13
124.7573108437468
 23
80.15802557425431
 33
0.0
  0
MTEXT
  5
22C
330
222
100
AcDbEntity
  8
0
 62
     0
100
AcDbMText
 10
132.6548108437468
 20
82.27927557425431
 30
0.0
 40
2.5
 41
0.0
 46
0.0
 71
     5
 72
     1
  1
5,7
 73
     1
 44
1.0
  0
POINT
  5
22D
330
222
100
AcDbEntity
  8
Defpoints
 62
     0
100
AcDbPoint
 10
119.0573108437468
 20
74.71401633095641
 30
0.0
  0
POINT
  5
22E
330
222
100
AcDbEntity
  8
Defpoints
 62
     0
100
AcDbPoint
 10
124.7573108437468
 20
74.7193674018244
 30
0.0
  0
POINT
  5
22F
330
222
100
AcDbEntity
  8
Defpoints
 62
     0
100
AcDbPoint
 10
124.7573108437468
 20
80.15802557425431
 30
0.0
  0
ENDBLK
  5
224
330
222
100
AcDbEntity
  8
0
100
AcDbBlockEnd
  0
BLOCK
  5
245
330
244
100
AcDbEntity
  8
0
100
AcDbBlockBegin
  2
*D4
 70
     1
 10
0.0
 20
0.0
 30
0.0
  3
*D4
  1
*D4
  0
LINE
  5
247
330
244
100
AcDbEntity
  8
0
 62
     0
370
    -2
100
AcDbLine
 10
111.6282544226894
 20
73.04520807504224
 30
0.0
 11
173.1079788823878
 21
73.04520807504224
 31
0.0
  0
LINE
  5
248
330
244
100
AcDbEntity
  8
0
 62
     0
370
    -2
100
AcDbLine
 10
111.6282544226894
 20
126.8452080750423
 30
0.0
 11
173.1079788823878
 21
126.8452080750423
 31
0.0
  0
LINE
  5
249
330
244
100
AcDbEntity
  8
0
 62
     0
370
    -2
100
AcDbLine
 10
171.8579788823878
 20
75.54520807504224
 30
0.0
 11
171.8579788823878
 21
124.3452080750423
 31
0.0
  0
SOLID
  5
24A
330
244
100
AcDbEntity
  8
0
 62
     0
100
AcDbTrace
 10
171.4413122157212
 20
75.54520807504224
 30
0.0
 11
172.2746455490545
 21
75.54520807504224
 31
0.0
 12
171.8579788823878
 22
73.04520807504224
 32
0.0
 13
171.8579788823878
 23
73.04520807504224
 33
0.0
  0
SOLID
  5
24B
330
244
100
AcDbEntity
  8
0
 62
     0
100
AcDbTrace
 10
172.2746455490545
 20
124.3452080750423
 30
0.0
 11
171.4413122157212
 21
124.3452080750423
 31
0.0
 12
171.8579788823878
 22
126.8452080750423
 32
0.0
 13
171.8579788823878
 23
126.8452080750423
 33
0.0
  0
MTEXT
  5
24C
330
244
100
AcDbEntity
  8
0
 62
     0
100
AcDbMText
 10
169.7317288823878
 20
99.94520807504227
 30
0.0
 40
2.5
 41
0.0
 46
0.0
 71
     5
 72
     1
  1
53,8
 11
0.0
 21
1.0
 31
0.0
 73
     1
 44
1.0
  0
POINT
  5
24D
330
244
100
AcDbEntity
  8
Defpoints
 62
     0
100
AcDbPoint
 10
111.0032544226894
 20
73.04520807504224
 30
0.0
  0
POINT
  5
24E
330
244
100
AcDbEntity
  8
Defpoints
 62
     0
100
AcDbPoint
 10
111.0032544226894
 20
126.8452080750423
 30
0.0
  0
POINT
  5
24F
330
244
100
AcDbEntity
  8
Defpoints
 62
     0
100
AcDbPoint
 10
171.8579788823878
 20
126.8452080750423
 30
0.0
  0
ENDBLK
  5
246
330
244
100
AcDbEntity
  8
0
100
AcDbBlockEnd
  0
BLOCK
  5
254
330
253
100
AcDbEntity
  8
0
100
AcDbBlockBegin
  2
*D5
 70
     1
 10
0.0
 20
0.0
 30
0.0
  3
*D5
  1
*D5
  0
LINE
  5
256
330
253
100
AcDbEntity
  8
0
 62
     0
370
    -2
100
AcDbLine
 10
83.09697561293879
 20
73.04520807504225
 30
0.0
 11
23.02273631285595
 21
73.04520807504227
 31
0.0
  0
LINE
  5
257
330
253
100
AcDbEntity
  8
0
 62
     0
370
    -2
100
AcDbLine
 10
83.09697561293879
 20
123.8452080750423
 30
0.0
 11
23.02273631285595
 21
123.8452080750423
 31
0.0
  0
LINE
  5
258
330
253
100
AcDbEntity
  8
0
 62
     0
370
    -2
100
AcDbLine
 10
24.27273631285595
 20
75.54520807504227
 30
0.0
 11
24.27273631285595
 21
121.3452080750423
 31
0.0
  0
SOLID
  5
259
330
253
100
AcDbEntity
  8
0
 62
     0
100
AcDbTrace
 10
23.85606964618928
 20
75.54520807504227
 30
0.0
 11
24.68940297952262
 21
75.54520807504227
 31
0.0
 12
24.27273631285595
 22
73.04520807504227
 32
0.0
 13
24.27273631285595
 23
73.04520807504227
 33
0.0
  0
SOLID
  5
25A
330
253
100
AcDbEntity
  8
0
 62
     0
100
AcDbTrace
 10
24.68940297952262
 20
121.3452080750423
 30
0.0
 11
23.85606964618929
 21
121.3452080750423
 31
0.0
 12
24.27273631285595
 22
123.8452080750423
 32
0.0
 13
24.27273631285595
 23
123.8452080750423
 33
0.0
  0
MTEXT
  5
25B
330
253
100
AcDbEntity
  8
0
 62
     0
100
AcDbMText
 10
22.14648631285596
 20
98.44520807504227
 30
0.0
 40
2.5
 41
0.0
 46
0.0
 71
     5
 72
     1
  1
50,8
 11
6.993530863780510E-17
 21
1.0
 31
0.0
 73
     1
 44
1.0
  0
POINT
  5
25C
330
253
100
AcDbEntity
  8
Defpoints
 62
     0
100
AcDbPoint
 10
83.72197561293879
 20
73.04520807504225
 30
0.0
  0
POINT
  5
25D
330
253
100
AcDbEntity
  8
Defpoints
 62
     0
100
AcDbPoint
 10
83.72197561293879
 20
123.8452080750423
 30
0.0
  0
POINT
  5
25E
330
253
100
AcDbEntity
  8
Defpoints
 62
     0
100
AcDbPoint
 10
24.27273631285595
 20
123.8452080750423
 30
0.0
  0
ENDBLK
  5
255
330
253
100
AcDbEntity
  8
0
100
AcDbBlockEnd
  0
BLOCK
  5
263
330
262
100
AcDbEntity
  8
0
100
AcDbBlockBegin
  2
*D6
 70
     1
 10
0.0
 20
0.0
 30
0.0
  3
*D6
  1
*D6
  0
LINE
  5
265
330
262
100
AcDbEntity
  8
0
 62
     0
370
    -2
100
AcDbLine
 10
81.45397006545446
 20
70.54520807504225
 30
0.0
 11
65.18994847557934
 21
70.54520807504225
 31
0.0
  0
LINE
  5
266
330
262
100
AcDbEntity
  8
0
 62
     0
370
    -2
100
AcDbLine
 10
81.45397006545446
 20
123.8452080750423
 30
0.0
 11
65.18994847557934
 21
123.8452080750423
 31
0.0
  0
LINE
  5
267
330
262
100
AcDbEntity
  8
0
 62
     0
370
    -2
100
AcDbLine
 10
66.43994847557934
 20
73.04520807504225
 30
0.0
 11
66.43994847557934
 21
121.3452080750423
 31
0.0
  0
SOLID
  5
268
330
262
100
AcDbEntity
  8
0
 62
     0
100
AcDbTrace
 10
66.02328180891267
 20
73.04520807504225
 30
0.0
 11
66.85661514224601
 21
73.04520807504225
 31
0.0
 12
66.43994847557934
 22
70.54520807504225
 32
0.0
 13
66.43994847557934
 23
70.54520807504225
 33
0.0
  0
SOLID
  5
269
330
262
100
AcDbEntity
  8
0
 62
     0
100
AcDbTrace
 10
66.85661514224601
 20
121.3452080750423
 30
0.0
 11
66.02328180891267
 21
121.3452080750423
 31
0.0
 12
66.43994847557934
 22
123.8452080750423
 32
0.0
 13
66.43994847557934
 23
123.8452080750423
 33
0.0
  0
MTEXT
  5
26A
330
262
100
AcDbEntity
  8
0
 62
     0
100
AcDbMText
 10
64.31369847557934
 20
97.19520807504227
 30
0.0
 40
2.5
 41
0.0
 46
0.0
 71
     5
 72
     1
  1
53,3
 11
0.0
 21
1.0
 31
0.0
 73
     1
 44
1.0
  0
POINT
  5
26B
330
262
100
AcDbEntity
  8
Defpoints
 62
     0
100
AcDbPoint
 10
82.07897006545446
 20
70.54520807504225
 30
0.0
  0
POINT
  5
26C
330
262
100
AcDbEntity
  8
Defpoints
 62
     0
100
AcDbPoint
 10
82.07897006545446
 20
123.8452080750423
 30
0.0
  0
POINT
  5
26D
330
262
100
AcDbEntity
  8
Defpoints
 62
     0
100
AcDbPoint
 10
66.43994847557934
 20
123.8452080750423
 30
0.0
  0
ENDBLK
  5
264
330
262
100
AcDbEntity
  8
0
100
AcDbBlockEnd
  0
BLOCK
  5
2C0
330
2BF
100
AcDbEntity
  8
0
100
AcDbBlockBegin
  2
*D7
 70
     1
 10
0.0
 20
0.0
 30
0.0
  3
*D7
  1
*D7
  0
LINE
  5
2C2
330
2BF
100
AcDbEntity
  8
0
 62
     0
370
    -2
100
AcDbLine
 10
41.2789700654545
 20
76.67020807504224
 30
0.0
 11
41.2789700654545
 21
90.55347537819588
 31
0.0
  0
LINE
  5
2C3
330
2BF
100
AcDbEntity
  8
0
 62
     0
370
    -2
100
AcDbLine
 10
83.07897006545446
 20
76.67020807504224
 30
0.0
 11
83.07897006545446
 21
90.55347537819588
 31
0.0
  0
LINE
  5
2C4
330
2BF
100
AcDbEntity
  8
0
 62
     0
370
    -2
100
AcDbLine
 10
43.7789700654545
 20
89.30347537819588
 30
0.0
 11
80.57897006545446
 21
89.30347537819588
 31
0.0
  0
SOLID
  5
2C5
330
2BF
100
AcDbEntity
  8
0
 62
     0
100
AcDbTrace
 10
43.7789700654545
 20
89.72014204486256
 30
0.0
 11
43.7789700654545
 21
88.88680871152921
 31
0.0
 12
41.2789700654545
 22
89.30347537819588
 32
0.0
 13
41.2789700654545
 23
89.30347537819588
 33
0.0
  0
SOLID
  5
2C6
330
2BF
100
AcDbEntity
  8
0
 62
     0
100
AcDbTrace
 10
80.57897006545446
 20
88.88680871152921
 30
0.0
 11
80.57897006545446
 21
89.72014204486256
 31
0.0
 12
83.07897006545446
 22
89.30347537819588
 32
0.0
 13
83.07897006545446
 23
89.30347537819588
 33
0.0
  0
MTEXT
  5
2C7
330
2BF
100
AcDbEntity
  8
0
 62
     0
100
AcDbMText
 10
62.17897006545448
 20
91.42972537819588
 30
0.0
 40
2.5
 41
0.0
 46
0.0
 71
     5
 72
     1
  1
41,8
 73
     1
 44
1.0
  0
POINT
  5
2C8
330
2BF
100
AcDbEntity
  8
Defpoints
 62
     0
100
AcDbPoint
 10
41.2789700654545
 20
76.04520807504224
 30
0.0
  0
POINT
  5
2C9
330
2BF
100
AcDbEntity
  8
Defpoints
 62
     0
100
AcDbPoint
 10
83.07897006545446
 20
76.04520807504224
 30
0.0
  0
POINT
  5
2CA
330
2BF
100
AcDbEntity
  8
Defpoints
 62
     0
100
AcDbPoint
 10
83.07897006545446
 20
89.30347537819588
 30
0.0
  0
ENDBLK
  5
2C1
330
2BF
100
AcDbEntity
  8
0
100
AcDbBlockEnd
  0
BLOCK
  5
2CF
330
2CE
100
AcDbEntity
  8
0
100
AcDbBlockBegin
  2
*D8
 70
     1
 10
0.0
 20
0.0
 30
0.0
  3
*D8
  1
*D8
  0
LINE
  5
2D1
330
2CE
100
AcDbEntity
  8
0
 62
     0
370
    -2
100
AcDbLine
 10
96.64713552459787
 20
76.67020807504224
 30
0.0
 11
96.64713552459787
 21
90.92651622309575
 31
0.0
  0
LINE
  5
2D2
330
2CE
100
AcDbEntity
  8
0
 62
     0
370
    -2
100
AcDbLine
 10
137.7471355245978
 20
76.67020807504221
 30
0.0
 11
137.7471355245978
 21
90.92651622309575
 31
0.0
  0
LINE
  5
2D3
330
2CE
100
AcDbEntity
  8
0
 62
     0
370
    -2
100
AcDbLine
 10
99.14713552459787
 20
89.67651622309575
 30
0.0
 11
135.2471355245978
 21
89.67651622309575
 31
0.0
  0
SOLID
  5
2D4
330
2CE
100
AcDbEntity
  8
0
 62
     0
100
AcDbTrace
 10
99.14713552459787
 20
90.09318288976242
 30
0.0
 11
99.14713552459787
 21
89.25984955642907
 31
0.0
 12
96.64713552459787
 22
89.67651622309575
 32
0.0
 13
96.64713552459787
 23
89.67651622309575
 33
0.0
  0
SOLID
  5
2D5
330
2CE
100
AcDbEntity
  8
0
 62
     0
100
AcDbTrace
 10
135.2471355245978
 20
89.25984955642907
 30
0.0
 11
135.2471355245978
 21
90.09318288976242
 31
0.0
 12
137.7471355245978
 22
89.67651622309575
 32
0.0
 13
137.7471355245978
 23
89.67651622309575
 33
0.0
  0
MTEXT
  5
2D6
330
2CE
100
AcDbEntity
  8
0
 62
     0
100
AcDbMText
 10
117.1971355245978
 20
91.80276622309574
 30
0.0
 40
2.5
 41
0.0
 46
0.0
 71
     5
 72
     1
  1
41,1
 73
     1
 44
1.0
  0
POINT
  5
2D7
330
2CE
100
AcDbEntity
  8
Defpoints
 62
     0
100
AcDbPoint
 10
96.64713552459787
 20
76.04520807504224
 30
0.0
  0
POINT
  5
2D8
330
2CE
100
AcDbEntity
  8
Defpoints
 62
     0
100
AcDbPoint
 10
137.7471355245978
 20
76.04520807504221
 30
0.0
  0
POINT
  5
2D9
330
2CE
100
AcDbEntity
  8
Defpoints
 62
     0
100
AcDbPoint
 10
137.7471355245978
 20
89.67651622309575
 30
0.0
  0
ENDBLK
  5
2D0
330
2CE
100
AcDbEntity
  8
0
100
AcDbBlockEnd
  0
BLOCK
  5
2DE
330
2DD
100
AcDbEntity
  8
0
100
AcDbBlockBegin
  2
*D9
 70
     1
 10
0.0
 20
0.0
 30
0.0
  3
*D9
  1
*D9
  0
LINE
  5
2E0
330
2DD
100
AcDbEntity
  8
0
 62
     0
370
    -2
100
AcDbLine
 10
41.9039700654545
 20
76.04520807504224
 30
0.0
 11
60.02613450392147
 21
76.04520807504224
 31
0.0
  0
LINE
  5
2E1
330
2DD
100
AcDbEntity
  8
0
 62
     0
370
    -2
100
AcDbLine
 10
41.9039700654545
 20
117.8452080750423
 30
0.0
 11
60.02613450392147
 21
117.8452080750423
 31
0.0
  0
LINE
  5
2E2
330
2DD
100
AcDbEntity
  8
0
 62
     0
370
    -2
100
AcDbLine
 10
58.77613450392147
 20
78.54520807504224
 30
0.0
 11
58.77613450392147
 21
115.3452080750423
 31
0.0
  0
SOLID
  5
2E3
330
2DD
100
AcDbEntity
  8
0
 62
     0
100
AcDbTrace
 10
58.3594678372548
 20
78.54520807504224
 30
0.0
 11
59.19280117058813
 21
78.54520807504224
 31
0.0
 12
58.77613450392147
 22
76.04520807504224
 32
0.0
 13
58.77613450392147
 23
76.04520807504224
 33
0.0
  0
SOLID
  5
2E4
330
2DD
100
AcDbEntity
  8
0
 62
     0
100
AcDbTrace
 10
59.19280117058813
 20
115.3452080750423
 30
0.0
 11
58.3594678372548
 21
115.3452080750423
 31
0.0
 12
58.77613450392147
 22
117.8452080750423
 32
0.0
 13
58.77613450392147
 23
117.8452080750423
 33
0.0
  0
MTEXT
  5
2E5
330
2DD
100
AcDbEntity
  8
0
 62
     0
100
AcDbMText
 10
56.64988450392147
 20
96.94520807504227
 30
0.0
 40
2.5
 41
0.0
 46
0.0
 71
     5
 72
     1
  1
41,8
 11
0.0
 21
1.0
 31
0.0
 73
     1
 44
1.0
  0
POINT
  5
2E6
330
2DD
100
AcDbEntity
  8
Defpoints
 62
     0
100
AcDbPoint
 10
41.2789700654545
 20
76.04520807504224
 30
0.0
  0
POINT
  5
2E7
330
2DD
100
AcDbEntity
  8
Defpoints
 62
     0
100
AcDbPoint
 10
41.2789700654545
 20
117.8452080750423
 30
0.0
  0
POINT
  5
2E8
330
2DD
100
AcDbEntity
  8
Defpoints
 62
     0
100
AcDbPoint
 10
58.77613450392147
 20
117.8452080750423
 30
0.0
  0
ENDBLK
  5
2DF
330
2DD
100
AcDbEntity
  8
0
100
AcDbBlockEnd
  0
BLOCK
  5
2ED
330
2EC
100
AcDbEntity
  8
0
100
AcDbBlockBegin
  2
*D10
 70
     1
 10
0.0
 20
0.0
 30
0.0
  3
*D10
  1
*D10
  0
LINE
  5
2EF
330
2EC
100
AcDbEntity
  8
0
 62
     0
370
    -2
100
AcDbLine
 10
97.27213552459787
 20
76.67020807504224
 30
0.0
 11
108.4225532273257
 21
76.67020807504224
 31
0.0
  0
LINE
  5
2F0
330
2EC
100
AcDbEntity
  8
0
 62
     0
370
    -2
100
AcDbLine
 10
97.2721355245979
 20
117.8452080750423
 30
0.0
 11
108.4225532273257
 21
117.8452080750423
 31
0.0
  0
LINE
  5
2F1
330
2EC
100
AcDbEntity
  8
0
 62
     0
370
    -2
100
AcDbLine
 10
107.1725532273257
 20
79.17020807504224
 30
0.0
 11
107.1725532273257
 21
115.3452080750423
 31
0.0
  0
SOLID
  5
2F2
330
2EC
100
AcDbEntity
  8
0
 62
     0
100
AcDbTrace
 10
106.755886560659
 20
79.17020807504224
 30
0.0
 11
107.5892198939924
 21
79.17020807504224
 31
0.0
 12
107.1725532273257
 22
76.67020807504224
 32
0.0
 13
107.1725532273257
 23
76.67020807504224
 33
0.0
  0
SOLID
  5
2F3
330
2EC
100
AcDbEntity
  8
0
 62
     0
100
AcDbTrace
 10
107.5892198939924
 20
115.3452080750423
 30
0.0
 11
106.755886560659
 21
115.3452080750423
 31
0.0
 12
107.1725532273257
 22
117.8452080750423
 32
0.0
 13
107.1725532273257
 23
117.8452080750423
 33
0.0
  0
MTEXT
  5
2F4
330
2EC
100
AcDbEntity
  8
0
 62
     0
100
AcDbMText
 10
105.0463032273257
 20
97.25770807504227
 30
0.0
 40
2.5
 41
0.0
 46
0.0
 71
     5
 72
     1
  1
41,18
 11
0.0
 21
1.0
 31
0.0
 73
     1
 44
1.0
  0
POINT
  5
2F5
330
2EC
100
AcDbEntity
  8
Defpoints
 62
     0
100
AcDbPoint
 10
96.64713552459787
 20
76.67020807504224
 30
0.0
  0
POINT
  5
2F6
330
2EC
100
AcDbEntity
  8
Defpoints
 62
     0
100
AcDbPoint
 10
96.6471355245979
 20
117.8452080750423
 30
0.0
  0
POINT
  5
2F7
330
2EC
100
AcDbEntity
  8
Defpoints
 62
     0
100
AcDbPoint
 10
107.1725532273257
 20
117.8452080750423
 30
0.0
  0
ENDBLK
  5
2EE
330
2EC
100
AcDbEntity
  8
0
100
AcDbBlockEnd
  0
BLOCK
  5
2FC
330
2FB
100
AcDbEntity
  8
0
100
AcDbBlockBegin
  2
*D11
 70
     1
 10
0.0
 20
0.0
 30
0.0
  3
*D11
  1
*D11
  0
LINE
  5
2FE
330
2FB
100
AcDbEntity
  8
0
 62
     0
370
    -2
100
AcDbLine
 10
97.2721355245979
 20
76.04520807504224
 30
0.0
 11
108.1104922242033
 21
76.04520807504224
 31
0.0
  0
LINE
  5
2FF
330
2FB
100
AcDbEntity
  8
0
 62
     0
370
    -2
100
AcDbLine
 10
97.2721355245979
 20
117.8452080750423
 30
0.0
 11
108.1104922242033
 21
117.8452080750423
 31
0.0
  0
LINE
  5
300
330
2FB
100
AcDbEntity
  8
0
 62
     0
370
    -2
100
AcDbLine
 10
106.8604922242033
 20
78.54520807504224
 30
0.0
 11
106.8604922242033
 21
115.3452080750423
 31
0.0
  0
SOLID
  5
301
330
2FB
100
AcDbEntity
  8
0
 62
     0
100
AcDbTrace
 10
106.4438255575366
 20
78.54520807504224
 30
0.0
 11
107.27715889087
 21
78.54520807504224
 31
0.0
 12
106.8604922242033
 22
76.04520807504224
 32
0.0
 13
106.8604922242033
 23
76.04520807504224
 33
0.0
  0
SOLID
  5
302
330
2FB
100
AcDbEntity
  8
0
 62
     0
100
AcDbTrace
 10
107.27715889087
 20
115.3452080750423
 30
0.0
 11
106.4438255575366
 21
115.3452080750423
 31
0.0
 12
106.8604922242033
 22
117.8452080750423
 32
0.0
 13
106.8604922242033
 23
117.8452080750423
 33
0.0
  0
MTEXT
  5
303
330
2FB
100
AcDbEntity
  8
0
 62
     0
100
AcDbMText
 10
104.7342422242033
 20
96.94520807504227
 30
0.0
 40
2.5
 41
0.0
 46
0.0
 71
     5
 72
     1
  1
41,8
 11
0.0
 21
1.0
 31
0.0
 73
     1
 44
1.0
  0
POINT
  5
304
330
2FB
100
AcDbEntity
  8
Defpoints
 62
     0
100
AcDbPoint
 10
96.6471355245979
 20
76.04520807504224
 30
0.0
  0
POINT
  5
305
330
2FB
100
AcDbEntity
  8
Defpoints
 62
     0
100
AcDbPoint
 10
96.6471355245979
 20
117.8452080750423
 30
0.0
  0
POINT
  5
306
330
2FB
100
AcDbEntity
  8
Defpoints
 62
     0
100
AcDbPoint
 10
106.8604922242033
 20
117.8452080750423
 30
0.0
  0
ENDBLK
  5
2FD
330
2FB
100
AcDbEntity
  8
0
100
AcDbBlockEnd
  0
BLOCK
  5
30C
330
30B
100
AcDbEntity
  8
0
100
AcDbBlockBegin
  2
*D12
 70
     1
 10
0.0
 20
0.0
 30
0.0
  3
*D12
  1
*D12
  0
LINE
  5
30E
330
30B
100
AcDbEntity
  8
0
 62
     0
370
    -2
100
AcDbLine
 10
96.64713552459787
 20
76.04520807504224
 30
0.0
 11
96.64713552459787
 21
65.8108751107999
 31
0.0
  0
LINE
  5
30F
330
30B
100
AcDbEntity
  8
0
 62
     0
370
    -2
100
AcDbLine
 10
107.1471355245979
 20
72.75782458687064
 30
0.0
 11
107.1471355245979
 21
65.8108751107999
 31
0.0
  0
LINE
  5
310
330
30B
100
AcDbEntity
  8
0
 62
     0
370
    -2
100
AcDbLine
 10
99.14713552459787
 20
67.0608751107999
 30
0.0
 11
104.6471355245979
 21
67.0608751107999
 31
0.0
  0
SOLID
  5
311
330
30B
100
AcDbEntity
  8
0
 62
     0
100
AcDbTrace
 10
99.14713552459787
 20
67.47754177746657
 30
0.0
 11
99.14713552459787
 21
66.64420844413323
 31
0.0
 12
96.64713552459787
 22
67.0608751107999
 32
0.0
 13
96.64713552459787
 23
67.0608751107999
 33
0.0
  0
SOLID
  5
312
330
30B
100
AcDbEntity
  8
0
 62
     0
100
AcDbTrace
 10
104.6471355245979
 20
66.64420844413323
 30
0.0
 11
104.6471355245979
 21
67.47754177746657
 31
0.0
 12
107.1471355245979
 22
67.0608751107999
 32
0.0
 13
107.1471355245979
 23
67.0608751107999
 33
0.0
  0
MTEXT
  5
313
330
30B
100
AcDbEntity
  8
0
 62
     0
100
AcDbMText
 10
101.8971355245979
 20
69.1871251107999
 30
0.0
 40
2.5
 41
0.0
 46
0.0
 71
     5
 72
     1
  1
10,5
 73
     1
 44
1.0
  0
POINT
  5
314
330
30B
100
AcDbEntity
  8
Defpoints
 62
     0
100
AcDbPoint
 10
96.64713552459787
 20
76.67020807504224
 30
0.0
  0
POINT
  5
315
330
30B
100
AcDbEntity
  8
Defpoints
 62
     0
100
AcDbPoint
 10
107.1471355245979
 20
73.38282458687064
 30
0.0
  0
POINT
  5
316
330
30B
100
AcDbEntity
  8
Defpoints
 62
     0
100
AcDbPoint
 10
107.1471355245979
 20
67.0608751107999
 30
0.0
  0
ENDBLK
  5
30D
330
30B
100
AcDbEntity
  8
0
100
AcDbBlockEnd
  0
BLOCK
  5
328
330
327
100
AcDbEntity
  8
0
100
AcDbBlockBegin
  2
*D13
 70
     1
 10
0.0
 20
0.0
 30
0.0
  3
*D13
  1
*D13
  0
LINE
  5
32A
330
327
100
AcDbEntity
  8
0
 62
     0
370
    -2
100
AcDbLine
 10
47.2789700654545
 20
70.92020807504225
 30
0.0
 11
47.2789700654545
 21
64.94665270566027
 31
0.0
  0
LINE
  5
32B
330
327
100
AcDbEntity
  8
0
 62
     0
370
    -2
100
AcDbLine
 10
77.07897006545446
 20
70.92020807504225
 30
0.0
 11
77.07897006545446
 21
64.94665270566027
 31
0.0
  0
LINE
  5
32C
330
327
100
AcDbEntity
  8
0
 62
     0
370
    -2
100
AcDbLine
 10
49.7789700654545
 20
66.19665270566027
 30
0.0
 11
74.57897006545446
 21
66.19665270566027
 31
0.0
  0
SOLID
  5
32D
330
327
100
AcDbEntity
  8
0
 62
     0
100
AcDbTrace
 10
49.7789700654545
 20
66.61331937232694
 30
0.0
 11
49.7789700654545
 21
65.7799860389936
 31
0.0
 12
47.2789700654545
 22
66.19665270566027
 32
0.0
 13
47.2789700654545
 23
66.19665270566027
 33
0.0
  0
SOLID
  5
32E
330
327
100
AcDbEntity
  8
0
 62
     0
100
AcDbTrace
 10
74.57897006545446
 20
65.7799860389936
 30
0.0
 11
74.57897006545446
 21
66.61331937232694
 31
0.0
 12
77.07897006545446
 22
66.19665270566027
 32
0.0
 13
77.07897006545446
 23
66.19665270566027
 33
0.0
  0
MTEXT
  5
32F
330
327
100
AcDbEntity
  8
0
 62
     0
100
AcDbMText
 10
62.17897006545448
 20
68.32290270566027
 30
0.0
 40
2.5
 41
0.0
 46
0.0
 71
     5
 72
     1
  1
29,8
 73
     1
 44
1.0
  0
POINT
  5
330
330
327
100
AcDbEntity
  8
Defpoints
 62
     0
100
AcDbPoint
 10
47.2789700654545
 20
71.54520807504225
 30
0.0
  0
POINT
  5
331
330
327
100
AcDbEntity
  8
Defpoints
 62
     0
100
AcDbPoint
 10
77.07897006545446
 20
71.54520807504225
 30
0.0
  0
POINT
  5
332
330
327
100
AcDbEntity
  8
Defpoints
 62
     0
100
AcDbPoint
 10
77.07897006545446
 20
66.19665270566027
 30
0.0
  0
ENDBLK
  5
329
330
327
100
AcDbEntity
  8
0
100
AcDbBlockEnd
  0
BLOCK
  5
343
330
342
100
AcDbEntity
  8
0
100
AcDbBlockBegin
  2
*D14
 70
     1
 10
0.0
 20
0.0
 30
0.0
  3
*D14
  1
*D14
  0
LINE
  5
345
330
342
100
AcDbEntity
  8
0
 62
     0
370
    -2
100
AcDbLine
 10
35.6539700654545
 20
73.04520807504225
 30
0.0
 11
3.122173789670652
 21
73.04520807504225
 31
0.0
  0
LINE
  5
346
330
342
100
AcDbEntity
  8
0
 62
     0
370
    -2
100
AcDbLine
 10
36.6903082917983
 20
123.8452080750423
 30
0.0
 11
3.122173789670655
 21
123.8452080750423
 31
0.0
  0
LINE
  5
347
330
342
100
AcDbEntity
  8
0
 62
     0
370
    -2
100
AcDbLine
 10
4.372173789670652
 20
75.54520807504225
 30
0.0
 11
4.372173789670655
 21
121.3452080750423
 31
0.0
  0
SOLID
  5
348
330
342
100
AcDbEntity
  8
0
 62
     0
100
AcDbTrace
 10
3.955507123003985
 20
75.54520807504225
 30
0.0
 11
4.788840456337319
 21
75.54520807504225
 31
0.0
 12
4.372173789670652
 22
73.04520807504225
 32
0.0
 13
4.372173789670652
 23
73.04520807504225
 33
0.0
  0
SOLID
  5
349
330
342
100
AcDbEntity
  8
0
 62
     0
100
AcDbTrace
 10
4.788840456337322
 20
121.3452080750423
 30
0.0
 11
3.955507123003989
 21
121.3452080750423
 31
0.0
 12
4.372173789670655
 22
123.8452080750423
 32
0.0
 13
4.372173789670655
 23
123.8452080750423
 33
0.0
  0
MTEXT
  5
34A
330
342
100
AcDbEntity
  8
0
 62
     0
100
AcDbMText
 10
2.245923789670655
 20
98.44520807504227
 30
0.0
 40
2.5
 41
0.0
 46
0.0
 71
     5
 72
     1
  1
50,8
 11
6.993530863780509E-17
 21
1.0
 31
0.0
 73
     1
 44
1.0
  0
POINT
  5
34B
330
342
100
AcDbEntity
  8
Defpoints
 62
     0
100
AcDbPoint
 10
36.2789700654545
 20
73.04520807504225
 30
0.0
  0
POINT
  5
34C
330
342
100
AcDbEntity
  8
Defpoints
 62
     0
100
AcDbPoint
 10
37.3153082917983
 20
123.8452080750423
 30
0.0
  0
POINT
  5
34D
330
342
100
AcDbEntity
  8
Defpoints
 62
     0
100
AcDbPoint
 10
4.372173789670655
 20
123.8452080750423
 30
0.0
  0
ENDBLK
  5
344
330
342
100
AcDbEntity
  8
0
100
AcDbBlockEnd
  0
BLOCK
  5
358
330
357
100
AcDbEntity
  8
0
100
AcDbBlockBegin
  2
*D15
 70
     1
 10
0.0
 20
0.0
 30
0.0
  3
*D15
  1
*D15
  0
LINE
  5
35A
330
357
100
AcDbEntity
  8
0
 62
     0
370
    -2
100
AcDbLine
 10
90.64713552459787
 20
70.92020807504224
 30
0.0
 11
90.64713552459787
 21
54.75327430207561
 31
0.0
  0
LINE
  5
35B
330
357
100
AcDbEntity
  8
0
 62
     0
370
    -2
100
AcDbLine
 10
143.7471355245978
 20
70.92020807504221
 30
0.0
 11
143.7471355245978
 21
54.75327430207561
 31
0.0
  0
LINE
  5
35C
330
357
100
AcDbEntity
  8
0
 62
     0
370
    -2
100
AcDbLine
 10
93.14713552459787
 20
56.00327430207561
 30
0.0
 11
141.2471355245978
 21
56.00327430207561
 31
0.0
  0
SOLID
  5
35D
330
357
100
AcDbEntity
  8
0
 62
     0
100
AcDbTrace
 10
93.14713552459787
 20
56.41994096874227
 30
0.0
 11
93.14713552459787
 21
55.58660763540895
 31
0.0
 12
90.64713552459787
 22
56.00327430207561
 32
0.0
 13
90.64713552459787
 23
56.00327430207561
 33
0.0
  0
SOLID
  5
35E
330
357
100
AcDbEntity
  8
0
 62
     0
100
AcDbTrace
 10
141.2471355245978
 20
55.58660763540895
 30
0.0
 11
141.2471355245978
 21
56.41994096874227
 31
0.0
 12
143.7471355245978
 22
56.00327430207561
 32
0.0
 13
143.7471355245978
 23
56.00327430207561
 33
0.0
  0
MTEXT
  5
35F
330
357
100
AcDbEntity
  8
0
 62
     0
100
AcDbMText
 10
117.1971355245978
 20
58.12952430207561
 30
0.0
 40
2.5
 41
0.0
 46
0.0
 71
     5
 72
     1
  1
53,1
 73
     1
 44
1.0
  0
POINT
  5
360
330
357
100
AcDbEntity
  8
Defpoints
 62
     0
100
AcDbPoint
 10
90.64713552459787
 20
71.54520807504224
 30
0.0
  0
POINT
  5
361
330
357
100
AcDbEntity
  8
Defpoints
 62
     0
100
AcDbPoint
 10
143.7471355245978
 20
71.54520807504221
 30
0.0
  0
POINT
  5
362
330
357
100
AcDbEntity
  8
Defpoints
 62
     0
100
AcDbPoint
 10
143.7471355245978
 20
56.00327430207561
 30
0.0
  0
ENDBLK
  5
359
330
357
100
AcDbEntity
  8
0
100
AcDbBlockEnd
  0
BLOCK
  5
368
330
367
100
AcDbEntity
  8
0
100
AcDbBlockBegin
  2
*D16
 70
     1
 10
0.0
 20
0.0
 30
0.0
  3
*D16
  1
*D16
  0
LINE
  5
36A
330
367
100
AcDbEntity
  8
0
 62
     0
370
    -2
100
AcDbLine
 10
35.2789700654545
 20
73.42020807504225
 30
0.0
 11
35.2789700654545
 21
64.1635177251894
 31
0.0
  0
LINE
  5
36B
330
367
100
AcDbEntity
  8
0
 62
     0
370
    -2
100
AcDbLine
 10
47.2789700654545
 20
70.92020807504225
 30
0.0
 11
47.2789700654545
 21
64.1635177251894
 31
0.0
  0
LINE
  5
36C
330
367
100
AcDbEntity
  8
0
 62
     0
370
    -2
100
AcDbLine
 10
37.7789700654545
 20
65.4135177251894
 30
0.0
 11
44.7789700654545
 21
65.4135177251894
 31
0.0
  0
SOLID
  5
36D
330
367
100
AcDbEntity
  8
0
 62
     0
100
AcDbTrace
 10
37.7789700654545
 20
65.83018439185606
 30
0.0
 11
37.7789700654545
 21
64.99685105852272
 31
0.0
 12
35.2789700654545
 22
65.4135177251894
 32
0.0
 13
35.2789700654545
 23
65.4135177251894
 33
0.0
  0
SOLID
  5
36E
330
367
100
AcDbEntity
  8
0
 62
     0
100
AcDbTrace
 10
44.7789700654545
 20
64.99685105852272
 30
0.0
 11
44.7789700654545
 21
65.83018439185606
 31
0.0
 12
47.2789700654545
 22
65.4135177251894
 32
0.0
 13
47.2789700654545
 23
65.4135177251894
 33
0.0
  0
MTEXT
  5
36F
330
367
100
AcDbEntity
  8
0
 62
     0
100
AcDbMText
 10
41.2789700654545
 20
67.29351772518939
 30
0.0
 40
2.5
 41
0.0
 46
0.0
 71
     5
 72
     1
  1
12
 73
     1
 44
1.0
  0
POINT
  5
370
330
367
100
AcDbEntity
  8
Defpoints
 62
     0
100
AcDbPoint
 10
35.2789700654545
 20
74.04520807504225
 30
0.0
  0
POINT
  5
371
330
367
100
AcDbEntity
  8
Defpoints
 62
     0
100
AcDbPoint
 10
47.2789700654545
 20
71.54520807504225
 30
0.0
  0
POINT
  5
372
330
367
100
AcDbEntity
  8
Defpoints
 62
     0
100
AcDbPoint
 10
47.2789700654545
 20
65.4135177251894
 30
0.0
  0
ENDBLK
  5
369
330
367
100
AcDbEntity
  8
0
100
AcDbBlockEnd
  0
BLOCK
  5
378
330
377
100
AcDbEntity
  8
0
100
AcDbBlockBegin
  2
*D17
 70
     1
 10
0.0
 20
0.0
 30
0.0
  3
*D17
  1
*D17
  0
LINE
  5
37A
330
377
100
AcDbEntity
  8
0
 62
     0
370
    -2
100
AcDbLine
 10
34.64862284226638
 20
13.96792496912294
 30
0.0
 11
6.74628870281117
 21
13.96792496912294
 31
0.0
  0
LINE
  5
37B
330
377
100
AcDbEntity
  8
0
 62
     0
370
    -2
100
AcDbLine
 10
34.64862284226638
 20
43.76792496912294
 30
0.0
 11
6.746288702811172
 21
43.76792496912294
 31
0.0
  0
LINE
  5
37C
330
377
100
AcDbEntity
  8
0
 62
     0
370
    -2
100
AcDbLine
 10
7.99628870281117
 20
16.46792496912294
 30
0.0
 11
7.996288702811172
 21
41.26792496912294
 31
0.0
  0
SOLID
  5
37D
330
377
100
AcDbEntity
  8
0
 62
     0
100
AcDbTrace
 10
7.579622036144503
 20
16.46792496912294
 30
0.0
 11
8.412955369477837
 21
16.46792496912294
 31
0.0
 12
7.99628870281117
 22
13.96792496912294
 32
0.0
 13
7.99628870281117
 23
13.96792496912294
 33
0.0
  0
SOLID
  5
37E
330
377
100
AcDbEntity
  8
0
 62
     0
100
AcDbTrace
 10
8.412955369477839
 20
41.26792496912294
 30
0.0
 11
7.579622036144505
 21
41.26792496912294
 31
0.0
 12
7.996288702811172
 22
43.76792496912294
 32
0.0
 13
7.996288702811172
 23
43.76792496912294
 33
0.0
  0
MTEXT
  5
37F
330
377
100
AcDbEntity
  8
0
 62
     0
100
AcDbMText
 10
5.870038702811172
 20
28.86792496912295
 30
0.0
 40
2.5
 41
0.0
 46
0.0
 71
     5
 72
     1
  1
29,8
 11
5.960928991276008E-17
 21
1.0
 31
0.0
 73
     1
 44
1.0
  0
POINT
  5
380
330
377
100
AcDbEntity
  8
Defpoints
 62
     0
100
AcDbPoint
 10
35.27362284226638
 20
13.96792496912294
 30
0.0
  0
POINT
  5
381
330
377
100
AcDbEntity
  8
Defpoints
 62
     0
100
AcDbPoint
 10
35.27362284226638
 20
43.76792496912294
 30
0.0
  0
POINT
  5
382
330
377
100
AcDbEntity
  8
Defpoints
 62
     0
100
AcDbPoint
 10
7.996288702811172
 20
43.76792496912294
 30
0.0
  0
ENDBLK
  5
379
330
377
100
AcDbEntity
  8
0
100
AcDbBlockEnd
  0
BLOCK
  5
387
330
386
100
AcDbEntity
  8
0
100
AcDbBlockBegin
  2
*D18
 70
     1
 10
0.0
 20
0.0
 30
0.0
  3
*D18
  1
*D18
  0
LINE
  5
389
330
386
100
AcDbEntity
  8
0
 62
     0
370
    -2
100
AcDbLine
 10
47.2789700654545
 20
72.17020807504225
 30
0.0
 11
47.2789700654545
 21
83.12397955915048
 31
0.0
  0
LINE
  5
38A
330
386
100
AcDbEntity
  8
0
 62
     0
370
    -2
100
AcDbLine
 10
59.17897006545448
 20
72.17020807504225
 30
0.0
 11
59.17897006545448
 21
83.12397955915048
 31
0.0
  0
LINE
  5
38B
330
386
100
AcDbEntity
  8
0
 62
     0
370
    -2
100
AcDbLine
 10
49.7789700654545
 20
81.87397955915048
 30
0.0
 11
56.67897006545448
 21
81.87397955915048
 31
0.0
  0
SOLID
  5
38C
330
386
100
AcDbEntity
  8
0
 62
     0
100
AcDbTrace
 10
49.7789700654545
 20
82.29064622581716
 30
0.0
 11
49.7789700654545
 21
81.45731289248381
 31
0.0
 12
47.2789700654545
 22
81.87397955915048
 32
0.0
 13
47.2789700654545
 23
81.87397955915048
 33
0.0
  0
SOLID
  5
38D
330
386
100
AcDbEntity
  8
0
 62
     0
100
AcDbTrace
 10
56.67897006545448
 20
81.45731289248381
 30
0.0
 11
56.67897006545448
 21
82.29064622581716
 31
0.0
 12
59.17897006545448
 22
81.87397955915048
 32
0.0
 13
59.17897006545448
 23
81.87397955915048
 33
0.0
  0
MTEXT
  5
38E
330
386
100
AcDbEntity
  8
0
 62
     0
100
AcDbMText
 10
53.22897006545449
 20
84.00022955915048
 30
0.0
 40
2.5
 41
0.0
 46
0.0
 71
     5
 72
     1
  1
11,9
 73
     1
 44
1.0
  0
POINT
  5
38F
330
386
100
AcDbEntity
  8
Defpoints
 62
     0
100
AcDbPoint
 10
47.2789700654545
 20
71.54520807504225
 30
0.0
  0
POINT
  5
390
330
386
100
AcDbEntity
  8
Defpoints
 62
     0
100
AcDbPoint
 10
59.17897006545448
 20
71.54520807504225
 30
0.0
  0
POINT
  5
391
330
386
100
AcDbEntity
  8
Defpoints
 62
     0
100
AcDbPoint
 10
59.17897006545448
 20
81.87397955915048
 30
0.0
  0
ENDBLK
  5
388
330
386
100
AcDbEntity
  8
0
100
AcDbBlockEnd
  0
BLOCK
  5
396
330
395
100
AcDbEntity
  8
0
100
AcDbBlockBegin
  2
*D19
 70
     1
 10
0.0
 20
0.0
 30
0.0
  3
*D19
  1
*D19
  0
LINE
  5
398
330
395
100
AcDbEntity
  8
0
 62
     0
370
    -2
100
AcDbLine
 10
83.0039700654545
 20
42.26792496912294
 30
0.0
 11
157.7812603553863
 21
42.26792496912294
 31
0.0
  0
LINE
  5
399
330
395
100
AcDbEntity
  8
0
 62
     0
370
    -2
100
AcDbLine
 10
83.0039700654545
 20
28.86792496912295
 30
0.0
 11
157.7812603553863
 21
28.86792496912294
 31
0.0
  0
LINE
  5
39A
330
395
100
AcDbEntity
  8
0
 62
     0
370
    -2
100
AcDbLine
 10
156.5312603553863
 20
39.76792496912294
 30
0.0
 11
156.5312603553863
 21
31.36792496912294
 31
0.0
  0
SOLID
  5
39B
330
395
100
AcDbEntity
  8
0
 62
     0
100
AcDbTrace
 10
156.947927022053
 20
39.76792496912294
 30
0.0
 11
156.1145936887197
 21
39.76792496912294
 31
0.0
 12
156.5312603553863
 22
42.26792496912294
 32
0.0
 13
156.5312603553863
 23
42.26792496912294
 33
0.0
  0
SOLID
  5
39C
330
395
100
AcDbEntity
  8
0
 62
     0
100
AcDbTrace
 10
156.1145936887197
 20
31.36792496912294
 30
0.0
 11
156.947927022053
 21
31.36792496912294
 31
0.0
 12
156.5312603553863
 22
28.86792496912294
 32
0.0
 13
156.5312603553863
 23
28.86792496912294
 33
0.0
  0
MTEXT
  5
39D
330
395
100
AcDbEntity
  8
0
 62
     0
100
AcDbMText
 10
154.4050103553863
 20
35.56792496912294
 30
0.0
 40
2.5
 41
0.0
 46
0.0
 71
     5
 72
     1
  1
13,4
 11
0.0
 21
1.0
 31
0.0
 73
     1
 44
1.0
  0
POINT
  5
39E
330
395
100
AcDbEntity
  8
Defpoints
 62
     0
100
AcDbPoint
 10
82.3789700654545
 20
42.26792496912294
 30
0.0
  0
POINT
  5
39F
330
395
100
AcDbEntity
  8
Defpoints
 62
     0
100
AcDbPoint
 10
82.3789700654545
 20
28.86792496912295
 30
0.0
  0
POINT
  5
3A0
330
395
100
AcDbEntity
  8
Defpoints
 62
     0
100
AcDbPoint
 10
156.5312603553863
 20
28.86792496912294
 30
0.0
  0
ENDBLK
  5
397
330
395
100
AcDbEntity
  8
0
100
AcDbBlockEnd
  0
BLOCK
  5
3A5
330
3A4
100
AcDbEntity
  8
0
100
AcDbBlockBegin
  2
*D20
 70
     1
 10
0.0
 20
0.0
 30
0.0
  3
*D20
  1
*D20
  0
LINE
  5
3A7
330
3A4
100
AcDbEntity
  8
0
 62
     0
370
    -2
100
AcDbLine
 10
51.1539700654545
 20
54.26792496912294
 30
0.0
 11
-9.218656444613554
 21
54.26792496912296
 31
0.0
  0
LINE
  5
3A8
330
3A4
100
AcDbEntity
  8
0
 62
     0
370
    -2
100
AcDbLine
 10
51.1539700654545
 20
3.467924969122947
 30
0.0
 11
-9.218656444613558
 21
3.467924969122951
 31
0.0
  0
LINE
  5
3A9
330
3A4
100
AcDbEntity
  8
0
 62
     0
370
    -2
100
AcDbLine
 10
-7.968656444613554
 20
51.76792496912296
 30
0.0
 11
-7.968656444613558
 21
5.967924969122951
 31
0.0
  0
SOLID
  5
3AA
330
3A4
100
AcDbEntity
  8
0
 62
     0
100
AcDbTrace
 10
-7.551989777946887
 20
51.76792496912296
 30
0.0
 11
-8.38532311128022
 21
51.76792496912296
 31
0.0
 12
-7.968656444613554
 22
54.26792496912296
 32
0.0
 13
-7.968656444613554
 23
54.26792496912296
 33
0.0
  0
SOLID
  5
3AB
330
3A4
100
AcDbEntity
  8
0
 62
     0
100
AcDbTrace
 10
-8.385323111280224
 20
5.967924969122951
 30
0.0
 11
-7.551989777946891
 21
5.967924969122951
 31
0.0
 12
-7.968656444613558
 22
3.467924969122951
 32
0.0
 13
-7.968656444613558
 23
3.467924969122951
 33
0.0
  0
MTEXT
  5
3AC
330
3A4
100
AcDbEntity
  8
0
 62
     0
100
AcDbMText
 10
-10.09490644461355
 20
28.86792496912295
 30
0.0
 40
2.5
 41
0.0
 46
0.0
 71
     5
 72
     1
  1
50,8
 11
6.993530863780512E-17
 21
1.0
 31
0.0
 73
     1
 44
1.0
  0
POINT
  5
3AD
330
3A4
100
AcDbEntity
  8
Defpoints
 62
     0
100
AcDbPoint
 10
51.7789700654545
 20
54.26792496912294
 30
0.0
  0
POINT
  5
3AE
330
3A4
100
AcDbEntity
  8
Defpoints
 62
     0
100
AcDbPoint
 10
51.7789700654545
 20
3.467924969122947
 30
0.0
  0
POINT
  5
3AF
330
3A4
100
AcDbEntity
  8
Defpoints
 62
     0
100
AcDbPoint
 10
-7.968656444613558
 20
3.467924969122951
 30
0.0
  0
ENDBLK
  5
3A6
330
3A4
100
AcDbEntity
  8
0
100
AcDbBlockEnd
  0
BLOCK
  5
3B4
330
3B3
100
AcDbEntity
  8
0
100
AcDbBlockBegin
  2
*D21
 70
     1
 10
0.0
 20
0.0
 30
0.0
  3
*D21
  1
*D21
  0
LINE
  5
3B6
330
3B3
100
AcDbEntity
  8
0
 62
     0
370
    -2
100
AcDbLine
 10
35.2789700654545
 20
123.4702080750423
 30
0.0
 11
35.2789700654545
 21
137.1231683132339
 31
0.0
  0
LINE
  5
3B7
330
3B3
100
AcDbEntity
  8
0
 62
     0
370
    -2
100
AcDbLine
 10
89.07897006545446
 20
123.4702080750423
 30
0.0
 11
89.07897006545446
 21
137.1231683132339
 31
0.0
  0
LINE
  5
3B8
330
3B3
100
AcDbEntity
  8
0
 62
     0
370
    -2
100
AcDbLine
 10
37.7789700654545
 20
135.8731683132339
 30
0.0
 11
86.57897006545446
 21
135.8731683132339
 31
0.0
  0
SOLID
  5
3B9
330
3B3
100
AcDbEntity
  8
0
 62
     0
100
AcDbTrace
 10
37.7789700654545
 20
136.2898349799006
 30
0.0
 11
37.7789700654545
 21
135.4565016465673
 31
0.0
 12
35.2789700654545
 22
135.8731683132339
 32
0.0
 13
35.2789700654545
 23
135.8731683132339
 33
0.0
  0
SOLID
  5
3BA
330
3B3
100
AcDbEntity
  8
0
 62
     0
100
AcDbTrace
 10
86.57897006545446
 20
135.4565016465673
 30
0.0
 11
86.57897006545446
 21
136.2898349799006
 31
0.0
 12
89.07897006545446
 22
135.8731683132339
 32
0.0
 13
89.07897006545446
 23
135.8731683132339
 33
0.0
  0
MTEXT
  5
3BB
330
3B3
100
AcDbEntity
  8
0
 62
     0
100
AcDbMText
 10
62.17897006545448
 20
137.9994183132339
 30
0.0
 40
2.5
 41
0.0
 46
0.0
 71
     5
 72
     1
  1
53,8
 73
     1
 44
1.0
  0
POINT
  5
3BC
330
3B3
100
AcDbEntity
  8
Defpoints
 62
     0
100
AcDbPoint
 10
35.2789700654545
 20
122.8452080750423
 30
0.0
  0
POINT
  5
3BD
330
3B3
100
AcDbEntity
  8
Defpoints
 62
     0
100
AcDbPoint
 10
89.07897006545446
 20
122.8452080750423
 30
0.0
  0
POINT
  5
3BE
330
3B3
100
AcDbEntity
  8
Defpoints
 62
     0
100
AcDbPoint
 10
89.07897006545446
 20
135.8731683132339
 30
0.0
  0
ENDBLK
  5
3B5
330
3B3
100
AcDbEntity
  8
0
100
AcDbBlockEnd
  0
BLOCK
  5
3CE
330
3CD
100
AcDbEntity
  8
0
100
AcDbBlockBegin
  2
*D22
 70
     1
 10
0.0
 20
0.0
 30
0.0
  3
*D22
  1
*D22
  0
LINE
  5
3D0
330
3CD
100
AcDbEntity
  8
0
 62
     0
370
    -2
100
AcDbLine
 10
72.5039700654545
 20
1.967924969122954
 30
0.0
 11
132.8162151631706
 21
1.967924969122951
 31
0.0
  0
LINE
  5
3D1
330
3CD
100
AcDbEntity
  8
0
 62
     0
370
    -2
100
AcDbLine
 10
98.8156178963355
 20
13.96792496912294
 30
0.0
 11
132.8162151631706
 21
13.96792496912294
 31
0.0
  0
LINE
  5
3D2
330
3CD
100
AcDbEntity
  8
0
 62
     0
370
    -2
100
AcDbLine
 10
131.5662151631706
 20
4.467924969122951
 30
0.0
 11
131.5662151631706
 21
11.46792496912294
 31
0.0
  0
SOLID
  5
3D3
330
3CD
100
AcDbEntity
  8
0
 62
     0
100
AcDbTrace
 10
131.1495484965039
 20
4.467924969122951
 30
0.0
 11
131.9828818298373
 21
4.467924969122951
 31
0.0
 12
131.5662151631706
 22
1.967924969122951
 32
0.0
 13
131.5662151631706
 23
1.967924969122951
 33
0.0
  0
SOLID
  5
3D4
330
3CD
100
AcDbEntity
  8
0
 62
     0
100
AcDbTrace
 10
131.9828818298373
 20
11.46792496912294
 30
0.0
 11
131.1495484965039
 21
11.46792496912294
 31
0.0
 12
131.5662151631706
 22
13.96792496912294
 32
0.0
 13
131.5662151631706
 23
13.96792496912294
 33
0.0
  0
MTEXT
  5
3D5
330
3CD
100
AcDbEntity
  8
0
 62
     0
100
AcDbMText
 10
129.6862151631706
 20
7.967924969122946
 30
0.0
 40
2.5
 41
0.0
 46
0.0
 71
     5
 72
     1
  1
12
 11
0.0
 21
1.0
 31
0.0
 73
     1
 44
1.0
  0
POINT
  5
3D6
330
3CD
100
AcDbEntity
  8
Defpoints
 62
     0
100
AcDbPoint
 10
71.8789700654545
 20
1.967924969122954
 30
0.0
  0
POINT
  5
3D7
330
3CD
100
AcDbEntity
  8
Defpoints
 62
     0
100
AcDbPoint
 10
98.1906178963355
 20
13.96792496912294
 30
0.0
  0
POINT
  5
3D8
330
3CD
100
AcDbEntity
  8
Defpoints
 62
     0
100
AcDbPoint
 10
131.5662151631706
 20
13.96792496912294
 30
0.0
  0
ENDBLK
  5
3CF
330
3CD
100
AcDbEntity
  8
0
100
AcDbBlockEnd
  0
BLOCK
  5
3DE
330
3DD
100
AcDbEntity
  8
0
100
AcDbBlockBegin
  2
*D23
 70
     1
 10
0.0
 20
0.0
 30
0.0
  3
*D23
  1
*D23
  0
LINE
  5
3E0
330
3DD
100
AcDbEntity
  8
0
 62
     0
370
    -2
100
AcDbLine
 10
125.0160166265063
 20
73.04520807504227
 30
0.0
 11
152.8933995335536
 21
73.04520807504227
 31
0.0
  0
LINE
  5
3E1
330
3DD
100
AcDbEntity
  8
0
 62
     0
370
    -2
100
AcDbLine
 10
125.0160166265063
 20
123.8452080750423
 30
0.0
 11
152.8933995335536
 21
123.8452080750423
 31
0.0
  0
LINE
  5
3E2
330
3DD
100
AcDbEntity
  8
0
 62
     0
370
    -2
100
AcDbLine
 10
151.6433995335536
 20
75.54520807504227
 30
0.0
 11
151.6433995335536
 21
121.3452080750423
 31
0.0
  0
SOLID
  5
3E3
330
3DD
100
AcDbEntity
  8
0
 62
     0
100
AcDbTrace
 10
151.2267328668869
 20
75.54520807504227
 30
0.0
 11
152.0600662002203
 21
75.54520807504227
 31
0.0
 12
151.6433995335536
 22
73.04520807504227
 32
0.0
 13
151.6433995335536
 23
73.04520807504227
 33
0.0
  0
SOLID
  5
3E4
330
3DD
100
AcDbEntity
  8
0
 62
     0
100
AcDbTrace
 10
152.0600662002203
 20
121.3452080750423
 30
0.0
 11
151.2267328668869
 21
121.3452080750423
 31
0.0
 12
151.6433995335536
 22
123.8452080750423
 32
0.0
 13
151.6433995335536
 23
123.8452080750423
 33
0.0
  0
MTEXT
  5
3E5
330
3DD
100
AcDbEntity
  8
0
 62
     0
100
AcDbMText
 10
149.5171495335536
 20
98.44520807504227
 30
0.0
 40
2.5
 41
0.0
 46
0.0
 71
     5
 72
     1
  1
50,8
 11
0.0
 21
1.0
 31
0.0
 73
     1
 44
1.0
  0
POINT
  5
3E6
330
3DD
100
AcDbEntity
  8
Defpoints
 62
     0
100
AcDbPoint
 10
124.3910166265063
 20
73.04520807504227
 30
0.0
  0
POINT
  5
3E7
330
3DD
100
AcDbEntity
  8
Defpoints
 62
     0
100
AcDbPoint
 10
124.3910166265063
 20
123.8452080750423
 30
0.0
  0
POINT
  5
3E8
330
3DD
100
AcDbEntity
  8
Defpoints
 62
     0
100
AcDbPoint
 10
151.6433995335536
 20
123.8452080750423
 30
0.0
  0
ENDBLK
  5
3DF
330
3DD
100
AcDbEntity
  8
0
100
AcDbBlockEnd
  0
BLOCK
  5
3ED
330
3EC
100
AcDbEntity
  8
0
100
AcDbBlockBegin
  2
*D24
 70
     1
 10
0.0
 20
0.0
 30
0.0
  3
*D24
  1
*D24
  0
LINE
  5
3EF
330
3EC
100
AcDbEntity
  8
0
 62
     0
370
    -2
100
AcDbLine
 10
137.1221355245978
 20
76.04520807504221
 30
0.0
 11
131.557875919923
 21
76.04520807504221
 31
0.0
  0
LINE
  5
3F0
330
3EC
100
AcDbEntity
  8
0
 62
     0
370
    -2
100
AcDbLine
 10
137.1221355245978
 20
117.8452080750423
 30
0.0
 11
131.557875919923
 21
117.8452080750423
 31
0.0
  0
LINE
  5
3F1
330
3EC
100
AcDbEntity
  8
0
 62
     0
370
    -2
100
AcDbLine
 10
132.807875919923
 20
78.54520807504221
 30
0.0
 11
132.807875919923
 21
115.3452080750423
 31
0.0
  0
SOLID
  5
3F2
330
3EC
100
AcDbEntity
  8
0
 62
     0
100
AcDbTrace
 10
132.3912092532564
 20
78.54520807504221
 30
0.0
 11
133.2245425865897
 21
78.54520807504221
 31
0.0
 12
132.807875919923
 22
76.04520807504221
 32
0.0
 13
132.807875919923
 23
76.04520807504221
 33
0.0
  0
SOLID
  5
3F3
330
3EC
100
AcDbEntity
  8
0
 62
     0
100
AcDbTrace
 10
133.2245425865897
 20
115.3452080750423
 30
0.0
 11
132.3912092532564
 21
115.3452080750423
 31
0.0
 12
132.807875919923
 22
117.8452080750423
 32
0.0
 13
132.807875919923
 23
117.8452080750423
 33
0.0
  0
MTEXT
  5
3F4
330
3EC
100
AcDbEntity
  8
0
 62
     0
100
AcDbMText
 10
130.681625919923
 20
96.94520807504225
 30
0.0
 40
2.5
 41
0.0
 46
0.0
 71
     5
 72
     1
  1
41,8
 11
0.0
 21
1.0
 31
0.0
 73
     1
 44
1.0
  0
POINT
  5
3F5
330
3EC
100
AcDbEntity
  8
Defpoints
 62
     0
100
AcDbPoint
 10
137.7471355245978
 20
76.04520807504221
 30
0.0
  0
POINT
  5
3F6
330
3EC
100
AcDbEntity
  8
Defpoints
 62
     0
100
AcDbPoint
 10
137.7471355245978
 20
117.8452080750423
 30
0.0
  0
POINT
  5
3F7
330
3EC
100
AcDbEntity
  8
Defpoints
 62
     0
100
AcDbPoint
 10
132.807875919923
 20
117.8452080750423
 30
0.0
  0
ENDBLK
  5
3EE
330
3EC
100
AcDbEntity
  8
0
100
AcDbBlockEnd
  0
BLOCK
  5
414
330
413
100
AcDbEntity
  8
0
100
AcDbBlockBegin
  2
*D25
 70
     1
 10
0.0
 20
0.0
 30
0.0
  3
*D25
  1
*D25
  0
LINE
  5
416
330
413
100
AcDbEntity
  8
0
 62
     0
370
    -2
100
AcDbLine
 10
72.31763147577921
 20
30.03110113933575
 30
0.0
 11
138.2135694050712
 21
30.03110113933574
 31
0.0
  0
LINE
  5
417
330
413
100
AcDbEntity
  8
0
 62
     0
370
    -2
100
AcDbLine
 10
72.31763147577921
 20
-23.76889886066424
 30
0.0
 11
138.2135694050712
 21
-23.76889886066425
 31
0.0
  0
LINE
  5
418
330
413
100
AcDbEntity
  8
0
 62
     0
370
    -2
100
AcDbLine
 10
136.9635694050712
 20
27.53110113933574
 30
0.0
 11
136.9635694050712
 21
-21.26889886066425
 31
0.0
  0
SOLID
  5
419
330
413
100
AcDbEntity
  8
0
 62
     0
100
AcDbTrace
 10
137.3802360717378
 20
27.53110113933574
 30
0.0
 11
136.5469027384045
 21
27.53110113933574
 31
0.0
 12
136.9635694050712
 22
30.03110113933574
 32
0.0
 13
136.9635694050712
 23
30.03110113933574
 33
0.0
  0
SOLID
  5
41A
330
413
100
AcDbEntity
  8
0
 62
     0
100
AcDbTrace
 10
136.5469027384045
 20
-21.26889886066425
 30
0.0
 11
137.3802360717378
 21
-21.26889886066425
 31
0.0
 12
136.9635694050712
 22
-23.76889886066425
 32
0.0
 13
136.9635694050712
 23
-23.76889886066425
 33
0.0
  0
MTEXT
  5
41B
330
413
100
AcDbEntity
  8
0
 62
     0
100
AcDbMText
 10
134.8373194050712
 20
3.131101139335748
 30
0.0
 40
2.5
 41
0.0
 46
0.0
 71
     5
 72
     1
  1
53,8
 11
0.0
 21
1.0
 31
0.0
 73
     1
 44
1.0
  0
POINT
  5
41C
330
413
100
AcDbEntity
  8
Defpoints
 62
     0
100
AcDbPoint
 10
71.69263147577921
 20
30.03110113933575
 30
0.0
  0
POINT
  5
41D
330
413
100
AcDbEntity
  8
Defpoints
 62
     0
100
AcDbPoint
 10
71.69263147577921
 20
-23.76889886066424
 30
0.0
  0
POINT
  5
41E
330
413
100
AcDbEntity
  8
Defpoints
 62
     0
100
AcDbPoint
 10
136.9635694050712
 20
-23.76889886066425
 30
0.0
  0
ENDBLK
  5
415
330
413
100
AcDbEntity
  8
0
100
AcDbBlockEnd
  0
BLOCK
  5
423
330
422
100
AcDbEntity
  8
0
100
AcDbBlockBegin
  2
*D26
 70
     1
 10
0.0
 20
0.0
 30
0.0
  3
*D26
  1
*D26
  0
LINE
  5
425
330
422
100
AcDbEntity
  8
0
 62
     0
370
    -2
100
AcDbLine
 10
88.2426314757792
 20
18.65610113933575
 30
0.0
 11
88.2426314757792
 21
46.61259554527151
 31
0.0
  0
LINE
  5
426
330
422
100
AcDbEntity
  8
0
 62
     0
370
    -2
100
AcDbLine
 10
35.04263147577922
 20
18.65610113933575
 30
0.0
 11
35.04263147577922
 21
46.61259554527151
 31
0.0
  0
LINE
  5
427
330
422
100
AcDbEntity
  8
0
 62
     0
370
    -2
100
AcDbLine
 10
85.7426314757792
 20
45.36259554527151
 30
0.0
 11
37.54263147577922
 21
45.36259554527151
 31
0.0
  0
SOLID
  5
428
330
422
100
AcDbEntity
  8
0
 62
     0
100
AcDbTrace
 10
85.7426314757792
 20
44.94592887860485
 30
0.0
 11
85.7426314757792
 21
45.77926221193817
 31
0.0
 12
88.2426314757792
 22
45.36259554527151
 32
0.0
 13
88.2426314757792
 23
45.36259554527151
 33
0.0
  0
SOLID
  5
429
330
422
100
AcDbEntity
  8
0
 62
     0
100
AcDbTrace
 10
37.54263147577922
 20
45.77926221193817
 30
0.0
 11
37.54263147577922
 21
44.94592887860485
 31
0.0
 12
35.04263147577922
 22
45.36259554527151
 32
0.0
 13
35.04263147577922
 23
45.36259554527151
 33
0.0
  0
MTEXT
  5
42A
330
422
100
AcDbEntity
  8
0
 62
     0
100
AcDbMText
 10
61.64263147577921
 20
47.48884554527151
 30
0.0
 40
2.5
 41
0.0
 46
0.0
 71
     5
 72
     1
  1
53,2
 73
     1
 44
1.0
  0
POINT
  5
42B
330
422
100
AcDbEntity
  8
Defpoints
 62
     0
100
AcDbPoint
 10
88.2426314757792
 20
18.03110113933575
 30
0.0
  0
POINT
  5
42C
330
422
100
AcDbEntity
  8
Defpoints
 62
     0
100
AcDbPoint
 10
35.04263147577922
 20
18.03110113933575
 30
0.0
  0
POINT
  5
42D
330
422
100
AcDbEntity
  8
Defpoints
 62
     0
100
AcDbPoint
 10
35.04263147577922
 20
45.36259554527151
 30
0.0
  0
ENDBLK
  5
424
330
422
100
AcDbEntity
  8
0
100
AcDbBlockEnd
  0
BLOCK
  5
432
330
431
100
AcDbEntity
  8
0
100
AcDbBlockBegin
  2
*D27
 70
     1
 10
0.0
 20
0.0
 30
0.0
  3
*D27
  1
*D27
  0
LINE
  5
434
330
431
100
AcDbEntity
  8
0
 62
     0
370
    -2
100
AcDbLine
 10
57.1789700654545
 20
18.65610113933575
 30
0.0
 11
57.1789700654545
 21
39.83373994697362
 31
0.0
  0
LINE
  5
435
330
431
100
AcDbEntity
  8
0
 62
     0
370
    -2
100
AcDbLine
 10
66.47897006545449
 20
18.65610113933575
 30
0.0
 11
66.47897006545449
 21
39.83373994697362
 31
0.0
  0
LINE
  5
436
330
431
100
AcDbEntity
  8
0
 62
     0
370
    -2
100
AcDbLine
 10
59.6789700654545
 20
38.58373994697362
 30
0.0
 11
63.97897006545449
 21
38.58373994697362
 31
0.0
  0
SOLID
  5
437
330
431
100
AcDbEntity
  8
0
 62
     0
100
AcDbTrace
 10
59.6789700654545
 20
39.00040661364028
 30
0.0
 11
59.6789700654545
 21
38.16707328030695
 31
0.0
 12
57.1789700654545
 22
38.58373994697362
 32
0.0
 13
57.1789700654545
 23
38.58373994697362
 33
0.0
  0
SOLID
  5
438
330
431
100
AcDbEntity
  8
0
 62
     0
100
AcDbTrace
 10
63.97897006545449
 20
38.16707328030695
 30
0.0
 11
63.97897006545449
 21
39.00040661364028
 31
0.0
 12
66.47897006545449
 22
38.58373994697362
 32
0.0
 13
66.47897006545449
 23
38.58373994697362
 33
0.0
  0
MTEXT
  5
439
330
431
100
AcDbEntity
  8
0
 62
     0
100
AcDbMText
 10
61.8289700654545
 20
40.70998994697361
 30
0.0
 40
2.5
 41
0.0
 46
0.0
 71
     5
 72
     1
  1
9,3
 73
     1
 44
1.0
  0
POINT
  5
43A
330
431
100
AcDbEntity
  8
Defpoints
 62
     0
100
AcDbPoint
 10
57.1789700654545
 20
18.03110113933575
 30
0.0
  0
POINT
  5
43B
330
431
100
AcDbEntity
  8
Defpoints
 62
     0
100
AcDbPoint
 10
66.47897006545449
 20
18.03110113933575
 30
0.0
  0
POINT
  5
43C
330
431
100
AcDbEntity
  8
Defpoints
 62
     0
100
AcDbPoint
 10
66.47897006545449
 20
38.58373994697362
 30
0.0
  0
ENDBLK
  5
433
330
431
100
AcDbEntity
  8
0
100
AcDbBlockEnd
  0
BLOCK
  5
441
330
440
100
AcDbEntity
  8
0
100
AcDbBlockBegin
  2
*D28
 70
     1
 10
0.0
 20
0.0
 30
0.0
  3
*D28
  1
*D28
  0
LINE
  5
443
330
440
100
AcDbEntity
  8
0
 62
     0
370
    -2
100
AcDbLine
 10
107.1471355245979
 20
75.33901633095644
 30
0.0
 11
107.1471355245979
 21
81.61649995075533
 31
0.0
  0
LINE
  5
444
330
440
100
AcDbEntity
  8
0
 62
     0
370
    -2
100
AcDbLine
 10
127.2471355245978
 20
75.33901633095644
 30
0.0
 11
127.2471355245978
 21
81.61649995075533
 31
0.0
  0
LINE
  5
445
330
440
100
AcDbEntity
  8
0
 62
     0
370
    -2
100
AcDbLine
 10
109.6471355245979
 20
80.36649995075533
 30
0.0
 11
124.7471355245978
 21
80.36649995075533
 31
0.0
  0
SOLID
  5
446
330
440
100
AcDbEntity
  8
0
 62
     0
100
AcDbTrace
 10
109.6471355245979
 20
80.783166617422
 30
0.0
 11
109.6471355245979
 21
79.94983328408865
 31
0.0
 12
107.1471355245979
 22
80.36649995075533
 32
0.0
 13
107.1471355245979
 23
80.36649995075533
 33
0.0
  0
SOLID
  5
447
330
440
100
AcDbEntity
  8
0
 62
     0
100
AcDbTrace
 10
124.7471355245978
 20
79.94983328408865
 30
0.0
 11
124.7471355245978
 21
80.783166617422
 31
0.0
 12
127.2471355245978
 22
80.36649995075533
 32
0.0
 13
127.2471355245978
 23
80.36649995075533
 33
0.0
  0
MTEXT
  5
448
330
440
100
AcDbEntity
  8
0
 62
     0
100
AcDbMText
 10
117.1971355245979
 20
82.49274995075533
 30
0.0
 40
2.5
 41
0.0
 46
0.0
 71
     5
 72
     1
  1
20,1
 73
     1
 44
1.0
  0
POINT
  5
449
330
440
100
AcDbEntity
  8
Defpoints
 62
     0
100
AcDbPoint
 10
107.1471355245979
 20
74.71401633095644
 30
0.0
  0
POINT
  5
44A
330
440
100
AcDbEntity
  8
Defpoints
 62
     0
100
AcDbPoint
 10
127.2471355245978
 20
74.71401633095644
 30
0.0
  0
POINT
  5
44B
330
440
100
AcDbEntity
  8
Defpoints
 62
     0
100
AcDbPoint
 10
127.2471355245978
 20
80.36649995075533
 30
0.0
  0
ENDBLK
  5
442
330
440
100
AcDbEntity
  8
0
100
AcDbBlockEnd
  0
BLOCK
  5
450
330
44F
100
AcDbEntity
  8
0
100
AcDbBlockBegin
  2
*D29
 70
     1
 10
0.0
 20
0.0
 30
0.0
  3
*D29
  1
*D29
  0
LINE
  5
452
330
44F
100
AcDbEntity
  8
0
 62
     0
370
    -2
100
AcDbLine
 10
69.1789700654545
 20
29.40610113933575
 30
0.0
 11
69.1789700654545
 21
22.78110113933575
 31
0.0
  0
LINE
  5
453
330
44F
100
AcDbEntity
  8
0
 62
     0
370
    -2
100
AcDbLine
 10
54.4789700654545
 20
29.40610113933575
 30
0.0
 11
54.4789700654545
 21
22.78110113933575
 31
0.0
  0
LINE
  5
454
330
44F
100
AcDbEntity
  8
0
 62
     0
370
    -2
100
AcDbLine
 10
66.6789700654545
 20
24.03110113933575
 30
0.0
 11
56.9789700654545
 21
24.03110113933575
 31
0.0
  0
SOLID
  5
455
330
44F
100
AcDbEntity
  8
0
 62
     0
100
AcDbTrace
 10
66.6789700654545
 20
23.61443447266908
 30
0.0
 11
66.6789700654545
 21
24.44776780600241
 31
0.0
 12
69.1789700654545
 22
24.03110113933575
 32
0.0
 13
69.1789700654545
 23
24.03110113933575
 33
0.0
  0
SOLID
  5
456
330
44F
100
AcDbEntity
  8
0
 62
     0
100
AcDbTrace
 10
56.9789700654545
 20
24.44776780600241
 30
0.0
 11
56.9789700654545
 21
23.61443447266908
 31
0.0
 12
54.4789700654545
 22
24.03110113933575
 32
0.0
 13
54.4789700654545
 23
24.03110113933575
 33
0.0
  0
MTEXT
  5
457
330
44F
100
AcDbEntity
  8
0
 62
     0
100
AcDbMText
 10
61.8289700654545
 20
26.15735113933574
 30
0.0
 40
2.5
 41
0.0
 46
0.0
 71
     5
 72
     1
  1
14,7
 73
     1
 44
1.0
  0
POINT
  5
458
330
44F
100
AcDbEntity
  8
Defpoints
 62
     0
100
AcDbPoint
 10
69.1789700654545
 20
30.03110113933575
 30
0.0
  0
POINT
  5
459
330
44F
100
AcDbEntity
  8
Defpoints
 62
     0
100
AcDbPoint
 10
54.4789700654545
 20
30.03110113933575
 30
0.0
  0
POINT
  5
45A
330
44F
100
AcDbEntity
  8
Defpoints
 62
     0
100
AcDbPoint
 10
54.4789700654545
 20
24.03110113933575
 30
0.0
  0
ENDBLK
  5
451
330
44F
100
AcDbEntity
  8
0
100
AcDbBlockEnd
  0
BLOCK
  5
45F
330
45E
100
AcDbEntity
  8
0
100
AcDbBlockBegin
  2
*D30
 70
     1
 10
0.0
 20
0.0
 30
0.0
  3
*D30
  1
*D30
  0
LINE
  5
461
330
45E
100
AcDbEntity
  8
0
 62
     0
370
    -2
100
AcDbLine
 10
143.7471355245978
 20
70.92020807504221
 30
0.0
 11
143.7471355245978
 21
64.68746953760893
 31
0.0
  0
LINE
  5
462
330
45E
100
AcDbEntity
  8
0
 62
     0
370
    -2
100
AcDbLine
 10
127.2471355245978
 20
75.42020807504224
 30
0.0
 11
127.2471355245978
 21
64.68746953760893
 31
0.0
  0
LINE
  5
463
330
45E
100
AcDbEntity
  8
0
 62
     0
370
    -2
100
AcDbLine
 10
141.2471355245978
 20
65.93746953760893
 30
0.0
 11
129.7471355245978
 21
65.93746953760893
 31
0.0
  0
SOLID
  5
464
330
45E
100
AcDbEntity
  8
0
 62
     0
100
AcDbTrace
 10
141.2471355245978
 20
65.52080287094226
 30
0.0
 11
141.2471355245978
 21
66.3541362042756
 31
0.0
 12
143.7471355245978
 22
65.93746953760893
 32
0.0
 13
143.7471355245978
 23
65.93746953760893
 33
0.0
  0
SOLID
  5
465
330
45E
100
AcDbEntity
  8
0
 62
     0
100
AcDbTrace
 10
129.7471355245978
 20
66.3541362042756
 30
0.0
 11
129.7471355245978
 21
65.52080287094226
 31
0.0
 12
127.2471355245978
 22
65.93746953760893
 32
0.0
 13
127.2471355245978
 23
65.93746953760893
 33
0.0
  0
MTEXT
  5
466
330
45E
100
AcDbEntity
  8
0
 62
     0
100
AcDbMText
 10
135.4971355245978
 20
68.06371953760893
 30
0.0
 40
2.5
 41
0.0
 46
0.0
 71
     5
 72
     1
  1
16,5
 73
     1
 44
1.0
  0
POINT
  5
467
330
45E
100
AcDbEntity
  8
Defpoints
 62
     0
100
AcDbPoint
 10
143.7471355245978
 20
71.54520807504221
 30
0.0
  0
POINT
  5
468
330
45E
100
AcDbEntity
  8
Defpoints
 62
     0
100
AcDbPoint
 10
127.2471355245978
 20
76.04520807504224
 30
0.0
  0
POINT
  5
469
330
45E
100
AcDbEntity
  8
Defpoints
 62
     0
100
AcDbPoint
 10
127.2471355245978
 20
65.93746953760893
 30
0.0
  0
ENDBLK
  5
460
330
45E
100
AcDbEntity
  8
0
100
AcDbBlockEnd
  0
BLOCK
  5
46E
330
46D
100
AcDbEntity
  8
0
100
AcDbBlockBegin
  2
*D31
 70
     1
 10
0.0
 20
0.0
 30
0.0
  3
*D31
  1
*D31
  0
LINE
  5
470
330
46D
100
AcDbEntity
  8
0
 62
     0
370
    -2
100
AcDbLine
 10
71.8789700654545
 20
18.65610113933574
 30
0.0
 11
71.8789700654545
 21
41.99242168011708
 31
0.0
  0
LINE
  5
471
330
46D
100
AcDbEntity
  8
0
 62
     0
370
    -2
100
AcDbLine
 10
88.2426314757792
 20
18.65610113933575
 30
0.0
 11
88.2426314757792
 21
41.99242168011708
 31
0.0
  0
LINE
  5
472
330
46D
100
AcDbEntity
  8
0
 62
     0
370
    -2
100
AcDbLine
 10
74.3789700654545
 20
40.74242168011708
 30
0.0
 11
85.7426314757792
 21
40.74242168011708
 31
0.0
  0
SOLID
  5
473
330
46D
100
AcDbEntity
  8
0
 62
     0
100
AcDbTrace
 10
74.3789700654545
 20
41.15908834678374
 30
0.0
 11
74.3789700654545
 21
40.32575501345041
 31
0.0
 12
71.8789700654545
 22
40.74242168011708
 32
0.0
 13
71.8789700654545
 23
40.74242168011708
 33
0.0
  0
SOLID
  5
474
330
46D
100
AcDbEntity
  8
0
 62
     0
100
AcDbTrace
 10
85.7426314757792
 20
40.32575501345041
 30
0.0
 11
85.7426314757792
 21
41.15908834678374
 31
0.0
 12
88.2426314757792
 22
40.74242168011708
 32
0.0
 13
88.2426314757792
 23
40.74242168011708
 33
0.0
  0
MTEXT
  5
475
330
46D
100
AcDbEntity
  8
0
 62
     0
100
AcDbMText
 10
80.06080077061685
 20
42.86867168011707
 30
0.0
 40
2.5
 41
0.0
 46
0.0
 71
     5
 72
     1
  1
16,36
 73
     1
 44
1.0
  0
POINT
  5
476
330
46D
100
AcDbEntity
  8
Defpoints
 62
     0
100
AcDbPoint
 10
71.8789700654545
 20
18.03110113933574
 30
0.0
  0
POINT
  5
477
330
46D
100
AcDbEntity
  8
Defpoints
 62
     0
100
AcDbPoint
 10
88.2426314757792
 20
18.03110113933575
 30
0.0
  0
POINT
  5
478
330
46D
100
AcDbEntity
  8
Defpoints
 62
     0
100
AcDbPoint
 10
88.2426314757792
 20
40.74242168011708
 30
0.0
  0
ENDBLK
  5
46F
330
46D
100
AcDbEntity
  8
0
100
AcDbBlockEnd
  0
BLOCK
  5
47D
330
47C
100
AcDbEntity
  8
0
100
AcDbBlockBegin
  2
*D32
 70
     1
 10
0.0
 20
0.0
 30
0.0
  3
*D32
  1
*D32
  0
LINE
  5
47F
330
47C
100
AcDbEntity
  8
0
 62
     0
370
    -2
100
AcDbLine
 10
51.59263147577921
 20
30.65610113933575
 30
0.0
 11
51.59263147577921
 21
41.87590649920217
 31
0.0
  0
LINE
  5
480
330
47C
100
AcDbEntity
  8
0
 62
     0
370
    -2
100
AcDbLine
 10
71.69263147577921
 20
30.65610113933575
 30
0.0
 11
71.69263147577921
 21
41.87590649920217
 31
0.0
  0
LINE
  5
481
330
47C
100
AcDbEntity
  8
0
 62
     0
370
    -2
100
AcDbLine
 10
54.09263147577921
 20
40.62590649920217
 30
0.0
 11
69.19263147577921
 21
40.62590649920217
 31
0.0
  0
SOLID
  5
482
330
47C
100
AcDbEntity
  8
0
 62
     0
100
AcDbTrace
 10
54.09263147577921
 20
41.04257316586884
 30
0.0
 11
54.09263147577921
 21
40.20923983253551
 31
0.0
 12
51.59263147577921
 22
40.62590649920217
 32
0.0
 13
51.59263147577921
 23
40.62590649920217
 33
0.0
  0
SOLID
  5
483
330
47C
100
AcDbEntity
  8
0
 62
     0
100
AcDbTrace
 10
69.19263147577921
 20
40.20923983253551
 30
0.0
 11
69.19263147577921
 21
41.04257316586884
 31
0.0
 12
71.69263147577921
 22
40.62590649920217
 32
0.0
 13
71.69263147577921
 23
40.62590649920217
 33
0.0
  0
MTEXT
  5
484
330
47C
100
AcDbEntity
  8
0
 62
     0
100
AcDbMText
 10
61.64263147577921
 20
42.75215649920217
 30
0.0
 40
2.5
 41
0.0
 46
0.0
 71
     5
 72
     1
  1
20,1
 73
     1
 44
1.0
  0
POINT
  5
485
330
47C
100
AcDbEntity
  8
Defpoints
 62
     0
100
AcDbPoint
 10
51.59263147577921
 20
30.03110113933575
 30
0.0
  0
POINT
  5
486
330
47C
100
AcDbEntity
  8
Defpoints
 62
     0
100
AcDbPoint
 10
71.69263147577921
 20
30.03110113933575
 30
0.0
  0
POINT
  5
487
330
47C
100
AcDbEntity
  8
Defpoints
 62
     0
100
AcDbPoint
 10
71.69263147577921
 20
40.62590649920217
 30
0.0
  0
ENDBLK
  5
47E
330
47C
100
AcDbEntity
  8
0
100
AcDbBlockEnd
  0
BLOCK
  5
49C
330
49B
100
AcDbEntity
  8
0
100
AcDbBlockBegin
  2
*D33
 70
     1
 10
0.0
 20
0.0
 30
0.0
  3
*D33
  1
*D33
  0
LINE
  5
49E
330
49B
100
AcDbEntity
  8
0
 62
     0
370
    -2
100
AcDbLine
 10
35.09263147577921
 20
18.65610113933575
 30
0.0
 11
35.09263147577921
 21
50.90264297032979
 31
0.0
  0
LINE
  5
49F
330
49B
100
AcDbEntity
  8
0
 62
     0
370
    -2
100
AcDbLine
 10
88.19263147577921
 20
18.65610113933575
 30
0.0
 11
88.19263147577921
 21
50.90264297032979
 31
0.0
  0
LINE
  5
4A0
330
49B
100
AcDbEntity
  8
0
 62
     0
370
    -2
100
AcDbLine
 10
37.59263147577921
 20
49.65264297032979
 30
0.0
 11
85.69263147577921
 21
49.65264297032979
 31
0.0
  0
SOLID
  5
4A1
330
49B
100
AcDbEntity
  8
0
 62
     0
100
AcDbTrace
 10
37.59263147577921
 20
50.06930963699646
 30
0.0
 11
37.59263147577921
 21
49.23597630366313
 31
0.0
 12
35.09263147577921
 22
49.65264297032979
 32
0.0
 13
35.09263147577921
 23
49.65264297032979
 33
0.0
  0
SOLID
  5
4A2
330
49B
100
AcDbEntity
  8
0
 62
     0
100
AcDbTrace
 10
85.69263147577921
 20
49.23597630366313
 30
0.0
 11
85.69263147577921
 21
50.06930963699646
 31
0.0
 12
88.19263147577921
 22
49.65264297032979
 32
0.0
 13
88.19263147577921
 23
49.65264297032979
 33
0.0
  0
MTEXT
  5
4A3
330
49B
100
AcDbEntity
  8
0
 62
     0
100
AcDbMText
 10
61.64263147577921
 20
51.77889297032979
 30
0.0
 40
2.5
 41
0.0
 46
0.0
 71
     5
 72
     1
  1
53,1
 73
     1
 44
1.0
  0
POINT
  5
4A4
330
49B
100
AcDbEntity
  8
Defpoints
 62
     0
100
AcDbPoint
 10
35.09263147577921
 20
18.03110113933575
 30
0.0
  0
POINT
  5
4A5
330
49B
100
AcDbEntity
  8
Defpoints
 62
     0
100
AcDbPoint
 10
88.19263147577921
 20
18.03110113933575
 30
0.0
  0
POINT
  5
4A6
330
49B
100
AcDbEntity
  8
Defpoints
 62
     0
100
AcDbPoint
 10
88.19263147577921
 20
49.65264297032979
 30
0.0
  0
ENDBLK
  5
49D
330
49B
100
AcDbEntity
  8
0
100
AcDbBlockEnd
  0
BLOCK
  5
4AB
330
4AA
100
AcDbEntity
  8
0
100
AcDbBlockBegin
  2
*D34
 70
     1
 10
0.0
 20
0.0
 30
0.0
  3
*D34
  1
*D34
  0
LINE
  5
4AD
330
4AA
100
AcDbEntity
  8
0
 62
     0
370
    -2
100
AcDbLine
 10
88.81763147577921
 20
18.03110113933575
 30
0.0
 11
117.516286709933
 21
18.03110113933575
 31
0.0
  0
LINE
  5
4AE
330
4AA
100
AcDbEntity
  8
0
 62
     0
370
    -2
100
AcDbLine
 10
89.3539700654545
 20
-11.76889886066424
 30
0.0
 11
117.516286709933
 21
-11.76889886066425
 31
0.0
  0
LINE
  5
4AF
330
4AA
100
AcDbEntity
  8
0
 62
     0
370
    -2
100
AcDbLine
 10
116.266286709933
 20
15.53110113933575
 30
0.0
 11
116.266286709933
 21
-9.268898860664246
 31
0.0
  0
SOLID
  5
4B0
330
4AA
100
AcDbEntity
  8
0
 62
     0
100
AcDbTrace
 10
116.6829533765997
 20
15.53110113933575
 30
0.0
 11
115.8496200432664
 21
15.53110113933575
 31
0.0
 12
116.266286709933
 22
18.03110113933575
 32
0.0
 13
116.266286709933
 23
18.03110113933575
 33
0.0
  0
SOLID
  5
4B1
330
4AA
100
AcDbEntity
  8
0
 62
     0
100
AcDbTrace
 10
115.8496200432664
 20
-9.268898860664246
 30
0.0
 11
116.6829533765997
 21
-9.268898860664246
 31
0.0
 12
116.266286709933
 22
-11.76889886066425
 32
0.0
 13
116.266286709933
 23
-11.76889886066425
 33
0.0
  0
MTEXT
  5
4B2
330
4AA
100
AcDbEntity
  8
0
 62
     0
100
AcDbMText
 10
114.140036709933
 20
3.13110113933575
 30
0.0
 40
2.5
 41
0.0
 46
0.0
 71
     5
 72
     1
  1
29,8
 11
0.0
 21
1.0
 31
0.0
 73
     1
 44
1.0
  0
POINT
  5
4B3
330
4AA
100
AcDbEntity
  8
Defpoints
 62
     0
100
AcDbPoint
 10
88.19263147577921
 20
18.03110113933575
 30
0.0
  0
POINT
  5
4B4
330
4AA
100
AcDbEntity
  8
Defpoints
 62
     0
100
AcDbPoint
 10
88.7289700654545
 20
-11.76889886066424
 30
0.0
  0
POINT
  5
4B5
330
4AA
100
AcDbEntity
  8
Defpoints
 62
     0
100
AcDbPoint
 10
116.266286709933
 20
-11.76889886066425
 30
0.0
  0
ENDBLK
  5
4AC
330
4AA
100
AcDbEntity
  8
0
100
AcDbBlockEnd
  0
BLOCK
  5
4BF
330
4BE
100
AcDbEntity
  8
0
100
AcDbBlockBegin
  2
*D35
 70
     1
 10
0.0
 20
0.0
 30
0.0
  3
*D35
  1
*D35
  0
LINE
  5
4C1
330
4BE
100
AcDbEntity
  8
0
 62
     0
370
    -2
100
AcDbLine
 10
89.3539700654545
 20
-11.76889886066424
 30
0.0
 11
115.0303691341986
 21
-11.76889886066424
 31
0.0
  0
LINE
  5
4C2
330
4BE
100
AcDbEntity
  8
0
 62
     0
370
    -2
100
AcDbLine
 10
88.81763147577921
 20
18.03110113933575
 30
0.0
 11
115.0303691341986
 21
18.03110113933575
 31
0.0
  0
LINE
  5
4C3
330
4BE
100
AcDbEntity
  8
0
 62
     0
370
    -2
100
AcDbLine
 10
113.7803691341986
 20
-9.268898860664244
 30
0.0
 11
113.7803691341986
 21
15.53110113933575
 31
0.0
  0
SOLID
  5
4C4
330
4BE
100
AcDbEntity
  8
0
 62
     0
100
AcDbTrace
 10
113.3637024675319
 20
-9.268898860664244
 30
0.0
 11
114.1970358008653
 21
-9.268898860664244
 31
0.0
 12
113.7803691341986
 22
-11.76889886066424
 32
0.0
 13
113.7803691341986
 23
-11.76889886066424
 33
0.0
  0
SOLID
  5
4C5
330
4BE
100
AcDbEntity
  8
0
 62
     0
100
AcDbTrace
 10
114.1970358008653
 20
15.53110113933575
 30
0.0
 11
113.3637024675319
 21
15.53110113933575
 31
0.0
 12
113.7803691341986
 22
18.03110113933575
 32
0.0
 13
113.7803691341986
 23
18.03110113933575
 33
0.0
  0
MTEXT
  5
4C6
330
4BE
100
AcDbEntity
  8
0
 62
     0
100
AcDbMText
 10
111.6541191341986
 20
3.131101139335751
 30
0.0
 40
2.5
 41
0.0
 46
0.0
 71
     5
 72
     1
  1
29,8
 11
0.0
 21
1.0
 31
0.0
 73
     1
 44
1.0
  0
POINT
  5
4C7
330
4BE
100
AcDbEntity
  8
Defpoints
 62
     0
100
AcDbPoint
 10
88.7289700654545
 20
-11.76889886066424
 30
0.0
  0
POINT
  5
4C8
330
4BE
100
AcDbEntity
  8
Defpoints
 62
     0
100
AcDbPoint
 10
88.19263147577921
 20
18.03110113933575
 30
0.0
  0
POINT
  5
4C9
330
4BE
100
AcDbEntity
  8
Defpoints
 62
     0
100
AcDbPoint
 10
113.7803691341986
 20
18.03110113933575
 30
0.0
  0
ENDBLK
  5
4C0
330
4BE
100
AcDbEntity
  8
0
100
AcDbBlockEnd
  0
BLOCK
  5
4CE
330
4CD
100
AcDbEntity
  8
0
100
AcDbBlockBegin
  2
*D36
 70
     1
 10
0.0
 20
0.0
 30
0.0
  3
*D36
  1
*D36
  0
LINE
  5
4D0
330
4CD
100
AcDbEntity
  8
0
 62
     0
370
    -2
100
AcDbLine
 10
72.31763147577921
 20
18.03110113933574
 30
0.0
 11
84.56182635287888
 21
18.03110113933574
 31
0.0
  0
LINE
  5
4D1
330
4CD
100
AcDbEntity
  8
0
 62
     0
370
    -2
100
AcDbLine
 10
72.31763147577921
 20
6.131101139335748
 30
0.0
 11
84.56182635287888
 21
6.131101139335747
 31
0.0
  0
LINE
  5
4D2
330
4CD
100
AcDbEntity
  8
0
 62
     0
370
    -2
100
AcDbLine
 10
83.31182635287888
 20
15.53110113933574
 30
0.0
 11
83.31182635287888
 21
8.631101139335748
 31
0.0
  0
SOLID
  5
4D3
330
4CD
100
AcDbEntity
  8
0
 62
     0
100
AcDbTrace
 10
83.72849301954555
 20
15.53110113933574
 30
0.0
 11
82.89515968621221
 21
15.53110113933574
 31
0.0
 12
83.31182635287888
 22
18.03110113933574
 32
0.0
 13
83.31182635287888
 23
18.03110113933574
 33
0.0
  0
SOLID
  5
4D4
330
4CD
100
AcDbEntity
  8
0
 62
     0
100
AcDbTrace
 10
82.89515968621221
 20
8.631101139335748
 30
0.0
 11
83.72849301954555
 21
8.631101139335748
 31
0.0
 12
83.31182635287888
 22
6.131101139335747
 32
0.0
 13
83.31182635287888
 23
6.131101139335747
 33
0.0
  0
MTEXT
  5
4D5
330
4CD
100
AcDbEntity
  8
0
 62
     0
100
AcDbMText
 10
81.18557635287888
 20
12.08110113933574
 30
0.0
 40
2.5
 41
0.0
 46
0.0
 71
     5
 72
     1
  1
11,9
 11
0.0
 21
1.0
 31
0.0
 73
     1
 44
1.0
  0
POINT
  5
4D6
330
4CD
100
AcDbEntity
  8
Defpoints
 62
     0
100
AcDbPoint
 10
71.69263147577921
 20
18.03110113933574
 30
0.0
  0
POINT
  5
4D7
330
4CD
100
AcDbEntity
  8
Defpoints
 62
     0
100
AcDbPoint
 10
71.69263147577921
 20
6.131101139335748
 30
0.0
  0
POINT
  5
4D8
330
4CD
100
AcDbEntity
  8
Defpoints
 62
     0
100
AcDbPoint
 10
83.31182635287888
 20
6.131101139335747
 30
0.0
  0
ENDBLK
  5
4CF
330
4CD
100
AcDbEntity
  8
0
100
AcDbBlockEnd
  0
BLOCK
  5
4DD
330
4DC
100
AcDbEntity
  8
0
100
AcDbBlockBegin
  2
*D37
 70
     1
 10
0.0
 20
0.0
 30
0.0
  3
*D37
  1
*D37
  0
LINE
  5
4DF
330
4DC
100
AcDbEntity
  8
0
 62
     0
370
    -2
100
AcDbLine
 10
50.96763147577921
 20
30.03110113933575
 30
0.0
 11
18.20970638474277
 21
30.03110113933575
 31
0.0
  0
LINE
  5
4E0
330
4DC
100
AcDbEntity
  8
0
 62
     0
370
    -2
100
AcDbLine
 10
50.96763147577921
 20
18.03110113933575
 30
0.0
 11
18.20970638474277
 21
18.03110113933575
 31
0.0
  0
LINE
  5
4E1
330
4DC
100
AcDbEntity
  8
0
 62
     0
370
    -2
100
AcDbLine
 10
19.45970638474277
 20
27.53110113933575
 30
0.0
 11
19.45970638474277
 21
20.53110113933575
 31
0.0
  0
SOLID
  5
4E2
330
4DC
100
AcDbEntity
  8
0
 62
     0
100
AcDbTrace
 10
19.87637305140944
 20
27.53110113933575
 30
0.0
 11
19.04303971807611
 21
27.53110113933575
 31
0.0
 12
19.45970638474277
 22
30.03110113933575
 32
0.0
 13
19.45970638474277
 23
30.03110113933575
 33
0.0
  0
SOLID
  5
4E3
330
4DC
100
AcDbEntity
  8
0
 62
     0
100
AcDbTrace
 10
19.04303971807611
 20
20.53110113933575
 30
0.0
 11
19.87637305140944
 21
20.53110113933575
 31
0.0
 12
19.45970638474277
 22
18.03110113933575
 32
0.0
 13
19.45970638474277
 23
18.03110113933575
 33
0.0
  0
MTEXT
  5
4E4
330
4DC
100
AcDbEntity
  8
0
 62
     0
100
AcDbMText
 10
17.57970638474277
 20
24.03110113933575
 30
0.0
 40
2.5
 41
0.0
 46
0.0
 71
     5
 72
     1
  1
12
 11
0.0
 21
1.0
 31
0.0
 73
     1
 44
1.0
  0
POINT
  5
4E5
330
4DC
100
AcDbEntity
  8
Defpoints
 62
     0
100
AcDbPoint
 10
51.59263147577921
 20
30.03110113933575
 30
0.0
  0
POINT
  5
4E6
330
4DC
100
AcDbEntity
  8
Defpoints
 62
     0
100
AcDbPoint
 10
51.59263147577921
 20
18.03110113933575
 30
0.0
  0
POINT
  5
4E7
330
4DC
100
AcDbEntity
  8
Defpoints
 62
     0
100
AcDbPoint
 10
19.45970638474277
 20
18.03110113933575
 30
0.0
  0
ENDBLK
  5
4DE
330
4DC
100
AcDbEntity
  8
0
100
AcDbBlockEnd
  0
BLOCK
  5
4EC
330
4EB
100
AcDbEntity
  8
0
100
AcDbBlockBegin
  2
*D38
 70
     1
 10
0.0
 20
0.0
 30
0.0
  3
*D38
  1
*D38
  0
LINE
  5
4EE
330
4EB
100
AcDbEntity
  8
0
 62
     0
370
    -2
100
AcDbLine
 10
107.1471355245979
 20
72.75782458687064
 30
0.0
 11
107.1471355245979
 21
59.70333833856922
 31
0.0
  0
LINE
  5
4EF
330
4EB
100
AcDbEntity
  8
0
 62
     0
370
    -2
100
AcDbLine
 10
90.64713552459787
 20
72.75782458687065
 30
0.0
 11
90.64713552459787
 21
59.70333833856922
 31
0.0
  0
LINE
  5
4F0
330
4EB
100
AcDbEntity
  8
0
 62
     0
370
    -2
100
AcDbLine
 10
104.6471355245979
 20
60.95333833856922
 30
0.0
 11
93.14713552459787
 21
60.95333833856922
 31
0.0
  0
SOLID
  5
4F1
330
4EB
100
AcDbEntity
  8
0
 62
     0
100
AcDbTrace
 10
104.6471355245979
 20
60.53667167190256
 30
0.0
 11
104.6471355245979
 21
61.37000500523589
 31
0.0
 12
107.1471355245979
 22
60.95333833856922
 32
0.0
 13
107.1471355245979
 23
60.95333833856922
 33
0.0
  0
SOLID
  5
4F2
330
4EB
100
AcDbEntity
  8
0
 62
     0
100
AcDbTrace
 10
93.14713552459787
 20
61.37000500523589
 30
0.0
 11
93.14713552459787
 21
60.53667167190256
 31
0.0
 12
90.64713552459787
 22
60.95333833856922
 32
0.0
 13
90.64713552459787
 23
60.95333833856922
 33
0.0
  0
MTEXT
  5
4F3
330
4EB
100
AcDbEntity
  8
0
 62
     0
100
AcDbMText
 10
98.89713552459789
 20
63.07958833856922
 30
0.0
 40
2.5
 41
0.0
 46
0.0
 71
     5
 72
     1
  1
16,5
 73
     1
 44
1.0
  0
POINT
  5
4F4
330
4EB
100
AcDbEntity
  8
Defpoints
 62
     0
100
AcDbPoint
 10
107.1471355245979
 20
73.38282458687064
 30
0.0
  0
POINT
  5
4F5
330
4EB
100
AcDbEntity
  8
Defpoints
 62
     0
100
AcDbPoint
 10
90.64713552459787
 20
73.38282458687065
 30
0.0
  0
POINT
  5
4F6
330
4EB
100
AcDbEntity
  8
Defpoints
 62
     0
100
AcDbPoint
 10
90.64713552459787
 20
60.95333833856922
 30
0.0
  0
ENDBLK
  5
4ED
330
4EB
100
AcDbEntity
  8
0
100
AcDbBlockEnd
  0
BLOCK
  5
4FB
330
4FA
100
AcDbEntity
  8
0
100
AcDbBlockBegin
  2
*D39
 70
     1
 10
0.0
 20
0.0
 30
0.0
  3
*D39
  1
*D39
  0
LINE
  5
4FD
330
4FA
100
AcDbEntity
  8
0
 62
     0
370
    -2
100
AcDbLine
 10
71.8789700654545
 20
24.05610113933574
 30
0.0
 11
71.8789700654545
 21
40.9118553492583
 31
0.0
  0
LINE
  5
4FE
330
4FA
100
AcDbEntity
  8
0
 62
     0
370
    -2
100
AcDbLine
 10
88.19263147577921
 20
24.05610113933574
 30
0.0
 11
88.19263147577921
 21
40.9118553492583
 31
0.0
  0
LINE
  5
4FF
330
4FA
100
AcDbEntity
  8
0
 62
     0
370
    -2
100
AcDbLine
 10
74.3789700654545
 20
39.6618553492583
 30
0.0
 11
85.69263147577921
 21
39.6618553492583
 31
0.0
  0
SOLID
  5
500
330
4FA
100
AcDbEntity
  8
0
 62
     0
100
AcDbTrace
 10
74.3789700654545
 20
40.07852201592497
 30
0.0
 11
74.3789700654545
 21
39.24518868259164
 31
0.0
 12
71.8789700654545
 22
39.6618553492583
 32
0.0
 13
71.8789700654545
 23
39.6618553492583
 33
0.0
  0
SOLID
  5
501
330
4FA
100
AcDbEntity
  8
0
 62
     0
100
AcDbTrace
 10
85.69263147577921
 20
39.24518868259164
 30
0.0
 11
85.69263147577921
 21
40.07852201592497
 31
0.0
 12
88.19263147577921
 22
39.6618553492583
 32
0.0
 13
88.19263147577921
 23
39.6618553492583
 33
0.0
  0
MTEXT
  5
502
330
4FA
100
AcDbEntity
  8
0
 62
     0
100
AcDbMText
 10
80.03580077061685
 20
41.7881053492583
 30
0.0
 40
2.5
 41
0.0
 46
0.0
 71
     5
 72
     1
  1
16,31
 73
     1
 44
1.0
  0
POINT
  5
503
330
4FA
100
AcDbEntity
  8
Defpoints
 62
     0
100
AcDbPoint
 10
71.8789700654545
 20
23.43110113933574
 30
0.0
  0
POINT
  5
504
330
4FA
100
AcDbEntity
  8
Defpoints
 62
     0
100
AcDbPoint
 10
88.19263147577921
 20
23.43110113933574
 30
0.0
  0
POINT
  5
505
330
4FA
100
AcDbEntity
  8
Defpoints
 62
     0
100
AcDbPoint
 10
88.19263147577921
 20
39.6618553492583
 30
0.0
  0
ENDBLK
  5
4FC
330
4FA
100
AcDbEntity
  8
0
100
AcDbBlockEnd
  0
BLOCK
  5
50C
330
50B
100
AcDbEntity
  8
0
100
AcDbBlockBegin
  2
*D40
 70
     1
 10
0.0
 20
0.0
 30
0.0
  3
*D40
  1
*D40
  0
LINE
  5
50E
330
50B
100
AcDbEntity
  8
0
 62
     0
370
    -2
100
AcDbLine
 10
71.69263147577921
 20
24.05610113933575
 30
0.0
 11
71.69263147577921
 21
27.69844355089858
 31
0.0
  0
LINE
  5
50F
330
50B
100
AcDbEntity
  8
0
 62
     0
370
    -2
100
AcDbLine
 10
88.19263147577921
 20
24.05610113933574
 30
0.0
 11
88.19263147577921
 21
27.69844355089858
 31
0.0
  0
LINE
  5
510
330
50B
100
AcDbEntity
  8
0
 62
     0
370
    -2
100
AcDbLine
 10
74.19263147577921
 20
26.44844355089858
 30
0.0
 11
85.69263147577921
 21
26.44844355089858
 31
0.0
  0
SOLID
  5
511
330
50B
100
AcDbEntity
  8
0
 62
     0
100
AcDbTrace
 10
74.19263147577921
 20
26.86511021756525
 30
0.0
 11
74.19263147577921
 21
26.03177688423191
 31
0.0
 12
71.69263147577921
 22
26.44844355089858
 32
0.0
 13
71.69263147577921
 23
26.44844355089858
 33
0.0
  0
SOLID
  5
512
330
50B
100
AcDbEntity
  8
0
 62
     0
100
AcDbTrace
 10
85.69263147577921
 20
26.03177688423191
 30
0.0
 11
85.69263147577921
 21
26.86511021756525
 31
0.0
 12
88.19263147577921
 22
26.44844355089858
 32
0.0
 13
88.19263147577921
 23
26.44844355089858
 33
0.0
  0
MTEXT
  5
513
330
50B
100
AcDbEntity
  8
0
 62
     0
100
AcDbMText
 10
79.94263147577921
 20
28.57469355089858
 30
0.0
 40
2.5
 41
0.0
 46
0.0
 71
     5
 72
     1
  1
16,5
 73
     1
 44
1.0
  0
POINT
  5
514
330
50B
100
AcDbEntity
  8
Defpoints
 62
     0
100
AcDbPoint
 10
71.69263147577921
 20
23.43110113933575
 30
0.0
  0
POINT
  5
515
330
50B
100
AcDbEntity
  8
Defpoints
 62
     0
100
AcDbPoint
 10
88.19263147577921
 20
23.43110113933574
 30
0.0
  0
POINT
  5
516
330
50B
100
AcDbEntity
  8
Defpoints
 62
     0
100
AcDbPoint
 10
88.19263147577921
 20
26.44844355089858
 30
0.0
  0
ENDBLK
  5
50D
330
50B
100
AcDbEntity
  8
0
100
AcDbBlockEnd
  0
BLOCK
  5
51B
330
51A
100
AcDbEntity
  8
0
100
AcDbBlockBegin
  2
*D41
 70
     1
 10
0.0
 20
0.0
 30
0.0
  3
*D41
  1
*D41
  0
LINE
  5
51D
330
51A
100
AcDbEntity
  8
0
 62
     0
370
    -2
100
AcDbLine
 10
35.09263147577921
 20
24.05610113933574
 30
0.0
 11
35.09263147577921
 21
27.36990596743945
 31
0.0
  0
LINE
  5
51E
330
51A
100
AcDbEntity
  8
0
 62
     0
370
    -2
100
AcDbLine
 10
51.59263147577921
 20
24.05610113933574
 30
0.0
 11
51.59263147577921
 21
27.36990596743945
 31
0.0
  0
LINE
  5
51F
330
51A
100
AcDbEntity
  8
0
 62
     0
370
    -2
100
AcDbLine
 10
37.59263147577921
 20
26.11990596743945
 30
0.0
 11
49.09263147577921
 21
26.11990596743945
 31
0.0
  0
SOLID
  5
520
330
51A
100
AcDbEntity
  8
0
 62
     0
100
AcDbTrace
 10
37.59263147577921
 20
26.53657263410612
 30
0.0
 11
37.59263147577921
 21
25.70323930077278
 31
0.0
 12
35.09263147577921
 22
26.11990596743945
 32
0.0
 13
35.09263147577921
 23
26.11990596743945
 33
0.0
  0
SOLID
  5
521
330
51A
100
AcDbEntity
  8
0
 62
     0
100
AcDbTrace
 10
49.09263147577921
 20
25.70323930077278
 30
0.0
 11
49.09263147577921
 21
26.53657263410612
 31
0.0
 12
51.59263147577921
 22
26.11990596743945
 32
0.0
 13
51.59263147577921
 23
26.11990596743945
 33
0.0
  0
MTEXT
  5
522
330
51A
100
AcDbEntity
  8
0
 62
     0
100
AcDbMText
 10
43.34263147577921
 20
28.24615596743945
 30
0.0
 40
2.5
 41
0.0
 46
0.0
 71
     5
 72
     1
  1
16,5
 73
     1
 44
1.0
  0
POINT
  5
523
330
51A
100
AcDbEntity
  8
Defpoints
 62
     0
100
AcDbPoint
 10
35.09263147577921
 20
23.43110113933574
 30
0.0
  0
POINT
  5
524
330
51A
100
AcDbEntity
  8
Defpoints
 62
     0
100
AcDbPoint
 10
51.59263147577921
 20
23.43110113933574
 30
0.0
  0
POINT
  5
525
330
51A
100
AcDbEntity
  8
Defpoints
 62
     0
100
AcDbPoint
 10
51.59263147577921
 20
26.11990596743945
 30
0.0
  0
ENDBLK
  5
51C
330
51A
100
AcDbEntity
  8
0
100
AcDbBlockEnd
  0
BLOCK
  5
52D
330
52C
100
AcDbEntity
  8
0
100
AcDbBlockBegin
  2
*D42
 70
     1
 10
0.0
 20
0.0
 30
0.0
  3
*D42
  1
*D42
  0
LINE
  5
52F
330
52C
100
AcDbEntity
  8
0
 62
     0
370
    -2
100
AcDbLine
 10
127.2471355245978
 20
118.4702080750423
 30
0.0
 11
127.2471355245978
 21
133.6270463504861
 31
0.0
  0
LINE
  5
530
330
52C
100
AcDbEntity
  8
0
 62
     0
370
    -2
100
AcDbLine
 10
143.7471355245978
 20
127.4702080750423
 30
0.0
 11
143.7471355245978
 21
133.6270463504861
 31
0.0
  0
LINE
  5
531
330
52C
100
AcDbEntity
  8
0
 62
     0
370
    -2
100
AcDbLine
 10
129.7471355245978
 20
132.3770463504861
 30
0.0
 11
141.2471355245978
 21
132.3770463504861
 31
0.0
  0
SOLID
  5
532
330
52C
100
AcDbEntity
  8
0
 62
     0
100
AcDbTrace
 10
129.7471355245978
 20
132.7937130171528
 30
0.0
 11
129.7471355245978
 21
131.9603796838194
 31
0.0
 12
127.2471355245978
 22
132.3770463504861
 32
0.0
 13
127.2471355245978
 23
132.3770463504861
 33
0.0
  0
SOLID
  5
533
330
52C
100
AcDbEntity
  8
0
 62
     0
100
AcDbTrace
 10
141.2471355245978
 20
131.9603796838194
 30
0.0
 11
141.2471355245978
 21
132.7937130171528
 31
0.0
 12
143.7471355245978
 22
132.3770463504861
 32
0.0
 13
143.7471355245978
 23
132.3770463504861
 33
0.0
  0
MTEXT
  5
534
330
52C
100
AcDbEntity
  8
0
 62
     0
100
AcDbMText
 10
135.4971355245978
 20
134.5032963504861
 30
0.0
 40
2.5
 41
0.0
 46
0.0
 71
     5
 72
     1
  1
16,5
 73
     1
 44
1.0
  0
POINT
  5
535
330
52C
100
AcDbEntity
  8
Defpoints
 62
     0
100
AcDbPoint
 10
127.2471355245978
 20
117.8452080750423
 30
0.0
  0
POINT
  5
536
330
52C
100
AcDbEntity
  8
Defpoints
 62
     0
100
AcDbPoint
 10
143.7471355245978
 20
126.8452080750423
 30
0.0
  0
POINT
  5
537
330
52C
100
AcDbEntity
  8
Defpoints
 62
     0
100
AcDbPoint
 10
143.7471355245978
 20
132.3770463504861
 30
0.0
  0
ENDBLK
  5
52E
330
52C
100
AcDbEntity
  8
0
100
AcDbBlockEnd
  0
BLOCK
  5
599
330
598
100
AcDbEntity
  8
0
100
AcDbBlockBegin
  2
*D43
 70
     1
 10
0.0
 20
0.0
 30
0.0
  3
*D43
  1
*D44
  0
LINE
  5
59B
330
598
100
AcDbEntity
  8
0
 62
     0
370
    -2
100
AcDbLine
 10
72.31763147577921
 20
-11.76889886066424
 30
0.0
 11
84.56182635287888
 21
-11.76889886066424
 31
0.0
  0
LINE
  5
59C
330
598
100
AcDbEntity
  8
0
 62
     0
370
    -2
100
AcDbLine
 10
72.31763147577921
 20
0.1311011393357476
 30
0.0
 11
84.56182635287888
 21
0.1311011393357499
 31
0.0
  0
LINE
  5
59D
330
598
100
AcDbEntity
  8
0
 62
     0
370
    -2
100
AcDbLine
 10
83.31182635287888
 20
-9.268898860664242
 30
0.0
 11
83.31182635287888
 21
-2.36889886066425
 31
0.0
  0
SOLID
  5
59E
330
598
100
AcDbEntity
  8
0
 62
     0
100
AcDbTrace
 10
82.89515968621221
 20
-9.268898860664242
 30
0.0
 11
83.72849301954555
 21
-9.268898860664242
 31
0.0
 12
83.31182635287888
 22
-11.76889886066424
 32
0.0
 13
83.31182635287888
 23
-11.76889886066424
 33
0.0
  0
SOLID
  5
59F
330
598
100
AcDbEntity
  8
0
 62
     0
100
AcDbTrace
 10
83.72849301954555
 20
-2.36889886066425
 30
0.0
 11
82.89515968621221
 21
-2.36889886066425
 31
0.0
 12
83.31182635287888
 22
0.1311011393357497
 32
0.0
 13
83.31182635287888
 23
0.1311011393357497
 33
0.0
  0
MTEXT
  5
5A0
330
598
100
AcDbEntity
  8
0
 62
     0
100
AcDbMText
 10
81.18557635287888
 20
-5.818898860664246
 30
0.0
 40
2.5
 41
0.0
 46
0.0
 71
     5
 72
     1
  1
11,9
 11
0.0
 21
1.0
 31
0.0
 73
     1
 44
1.0
  0
POINT
  5
5A1
330
598
100
AcDbEntity
  8
Defpoints
 62
     0
100
AcDbPoint
 10
71.69263147577921
 20
-11.76889886066424
 30
0.0
  0
POINT
  5
5A2
330
598
100
AcDbEntity
  8
Defpoints
 62
     0
100
AcDbPoint
 10
71.69263147577921
 20
0.1311011393357475
 30
0.0
  0
POINT
  5
5A3
330
598
100
AcDbEntity
  8
Defpoints
 62
     0
100
AcDbPoint
 10
83.31182635287888
 20
0.1311011393357497
 30
0.0
  0
ENDBLK
  5
59A
330
598
100
AcDbEntity
  8
0
100
AcDbBlockEnd
  0
BLOCK
  5
5A5
330
5A4
100
AcDbEntity
  8
0
100
AcDbBlockBegin
  2
*D44
 70
     1
 10
0.0
 20
0.0
 30
0.0
  3
*D44
  1
*D45
  0
LINE
  5
5A7
330
5A4
100
AcDbEntity
  8
0
 62
     0
370
    -2
100
AcDbLine
 10
71.69263147577921
 20
-17.79389886066425
 30
0.0
 11
71.69263147577921
 21
-21.43624127222709
 31
0.0
  0
LINE
  5
5A8
330
5A4
100
AcDbEntity
  8
0
 62
     0
370
    -2
100
AcDbLine
 10
88.19263147577921
 20
-17.79389886066425
 30
0.0
 11
88.19263147577921
 21
-21.43624127222709
 31
0.0
  0
LINE
  5
5A9
330
5A4
100
AcDbEntity
  8
0
 62
     0
370
    -2
100
AcDbLine
 10
74.19263147577921
 20
-20.18624127222709
 30
0.0
 11
85.69263147577921
 21
-20.18624127222709
 31
0.0
  0
SOLID
  5
5AA
330
5A4
100
AcDbEntity
  8
0
 62
     0
100
AcDbTrace
 10
74.19263147577921
 20
-19.76957460556042
 30
0.0
 11
74.19263147577921
 21
-20.60290793889375
 31
0.0
 12
71.69263147577921
 22
-20.18624127222709
 32
0.0
 13
71.69263147577921
 23
-20.18624127222709
 33
0.0
  0
SOLID
  5
5AB
330
5A4
100
AcDbEntity
  8
0
 62
     0
100
AcDbTrace
 10
85.69263147577921
 20
-20.60290793889375
 30
0.0
 11
85.69263147577921
 21
-19.76957460556042
 31
0.0
 12
88.19263147577921
 22
-20.18624127222709
 32
0.0
 13
88.19263147577921
 23
-20.18624127222709
 33
0.0
  0
MTEXT
  5
5AC
330
5A4
100
AcDbEntity
  8
0
 62
     0
100
AcDbMText
 10
79.94263147577921
 20
-18.05999127222709
 30
0.0
 40
2.5
 41
0.0
 46
0.0
 71
     5
 72
     1
  1
16,5
 73
     1
 44
1.0
  0
POINT
  5
5AD
330
5A4
100
AcDbEntity
  8
Defpoints
 62
     0
100
AcDbPoint
 10
71.69263147577921
 20
-17.16889886066425
 30
0.0
  0
POINT
  5
5AE
330
5A4
100
AcDbEntity
  8
Defpoints
 62
     0
100
AcDbPoint
 10
88.19263147577921
 20
-17.16889886066425
 30
0.0
  0
POINT
  5
5AF
330
5A4
100
AcDbEntity
  8
Defpoints
 62
     0
100
AcDbPoint
 10
88.19263147577921
 20
-20.18624127222709
 30
0.0
  0
ENDBLK
  5
5A6
330
5A4
100
AcDbEntity
  8
0
100
AcDbBlockEnd
  0
BLOCK
  5
5B1
330
5B0
100
AcDbEntity
  8
0
100
AcDbBlockBegin
  2
*D45
 70
     1
 10
0.0
 20
0.0
 30
0.0
  3
*D45
  1
*D46
  0
LINE
  5
5B3
330
5B0
100
AcDbEntity
  8
0
 62
     0
370
    -2
100
AcDbLine
 10
35.09263147577921
 20
-17.79389886066425
 30
0.0
 11
35.09263147577921
 21
-21.10770368876796
 31
0.0
  0
LINE
  5
5B4
330
5B0
100
AcDbEntity
  8
0
 62
     0
370
    -2
100
AcDbLine
 10
51.59263147577921
 20
-17.79389886066425
 30
0.0
 11
51.59263147577921
 21
-21.10770368876796
 31
0.0
  0
LINE
  5
5B5
330
5B0
100
AcDbEntity
  8
0
 62
     0
370
    -2
100
AcDbLine
 10
37.59263147577921
 20
-19.85770368876796
 30
0.0
 11
49.09263147577921
 21
-19.85770368876796
 31
0.0
  0
SOLID
  5
5B6
330
5B0
100
AcDbEntity
  8
0
 62
     0
100
AcDbTrace
 10
37.59263147577921
 20
-19.44103702210129
 30
0.0
 11
37.59263147577921
 21
-20.27437035543462
 31
0.0
 12
35.09263147577921
 22
-19.85770368876796
 32
0.0
 13
35.09263147577921
 23
-19.85770368876796
 33
0.0
  0
SOLID
  5
5B7
330
5B0
100
AcDbEntity
  8
0
 62
     0
100
AcDbTrace
 10
49.09263147577921
 20
-20.27437035543462
 30
0.0
 11
49.09263147577921
 21
-19.44103702210129
 31
0.0
 12
51.59263147577921
 22
-19.85770368876796
 32
0.0
 13
51.59263147577921
 23
-19.85770368876796
 33
0.0
  0
MTEXT
  5
5B8
330
5B0
100
AcDbEntity
  8
0
 62
     0
100
AcDbMText
 10
43.34263147577921
 20
-17.73145368876796
 30
0.0
 40
2.5
 41
0.0
 46
0.0
 71
     5
 72
     1
  1
16,5
 73
     1
 44
1.0
  0
POINT
  5
5B9
330
5B0
100
AcDbEntity
  8
Defpoints
 62
     0
100
AcDbPoint
 10
35.09263147577921
 20
-17.16889886066425
 30
0.0
  0
POINT
  5
5BA
330
5B0
100
AcDbEntity
  8
Defpoints
 62
     0
100
AcDbPoint
 10
51.59263147577921
 20
-17.16889886066425
 30
0.0
  0
POINT
  5
5BB
330
5B0
100
AcDbEntity
  8
Defpoints
 62
     0
100
AcDbPoint
 10
51.59263147577921
 20
-19.85770368876796
 30
0.0
  0
ENDBLK
  5
5B2
330
5B0
100
AcDbEntity
  8
0
100
AcDbBlockEnd
  0
BLOCK
  5
5C0
330
5BF
100
AcDbEntity
  8
0
100
AcDbBlockBegin
  2
*D46
 70
     1
 10
0.0
 20
0.0
 30
0.0
  3
*D46
  1
*D47
  0
LINE
  5
5C2
330
5BF
100
AcDbEntity
  8
0
 62
     0
370
    -2
100
AcDbLine
 10
88.81763147577921
 20
-11.76889886066425
 30
0.0
 11
103.4494495220427
 21
-11.76889886066425
 31
0.0
  0
LINE
  5
5C3
330
5BF
100
AcDbEntity
  8
0
 62
     0
370
    -2
100
AcDbLine
 10
88.81763147577921
 20
18.03110113933575
 30
0.0
 11
103.4494495220427
 21
18.03110113933575
 31
0.0
  0
LINE
  5
5C4
330
5BF
100
AcDbEntity
  8
0
 62
     0
370
    -2
100
AcDbLine
 10
102.1994495220427
 20
-9.268898860664251
 30
0.0
 11
102.1994495220427
 21
15.53110113933575
 31
0.0
  0
SOLID
  5
5C5
330
5BF
100
AcDbEntity
  8
0
 62
     0
100
AcDbTrace
 10
101.7827828553761
 20
-9.268898860664251
 30
0.0
 11
102.6161161887094
 21
-9.268898860664251
 31
0.0
 12
102.1994495220427
 22
-11.76889886066425
 32
0.0
 13
102.1994495220427
 23
-11.76889886066425
 33
0.0
  0
SOLID
  5
5C6
330
5BF
100
AcDbEntity
  8
0
 62
     0
100
AcDbTrace
 10
102.6161161887094
 20
15.53110113933575
 30
0.0
 11
101.7827828553761
 21
15.53110113933575
 31
0.0
 12
102.1994495220427
 22
18.03110113933575
 32
0.0
 13
102.1994495220427
 23
18.03110113933575
 33
0.0
  0
MTEXT
  5
5C7
330
5BF
100
AcDbEntity
  8
0
 62
     0
100
AcDbMText
 10
100.0731995220427
 20
3.131101139335748
 30
0.0
 40
2.5
 41
0.0
 46
0.0
 71
     5
 72
     1
  1
29,8
 11
0.0
 21
1.0
 31
0.0
 73
     1
 44
1.0
  0
POINT
  5
5C8
330
5BF
100
AcDbEntity
  8
Defpoints
 62
     0
100
AcDbPoint
 10
88.19263147577921
 20
-11.76889886066425
 30
0.0
  0
POINT
  5
5C9
330
5BF
100
AcDbEntity
  8
Defpoints
 62
     0
100
AcDbPoint
 10
88.19263147577921
 20
18.03110113933575
 30
0.0
  0
POINT
  5
5CA
330
5BF
100
AcDbEntity
  8
Defpoints
 62
     0
100
AcDbPoint
 10
102.1994495220427
 20
18.03110113933575
 30
0.0
  0
ENDBLK
  5
5C1
330
5BF
100
AcDbEntity
  8
0
100
AcDbBlockEnd
  0
ENDSEC
  0
SECTION
  2
ENTITIES
  0
ARC
  5
10D
330
1F
100
AcDbEntity
  8
0
100
AcDbCircle
 10
77.07897006545468
 20
73.04520807504225
 30
0.0
 40
0.6430055474841083
100
AcDbArc
 50
0.0
 51
269.9999999999799
  0
LINE
  5
10F
330
1F
100
AcDbEntity
  8
0
100
AcDbLine
 10
93.6471355245979
 20
129.8452080750423
 30
0.0
 11
140.7471355245978
 21
129.8452080750423
 31
0.0
  0
LINE
  5
110
102
{ACAD_REACTORS
330
356
330
4EA
102
}
330
1F
100
AcDbEntity
  8
0
100
AcDbLine
 10
90.64713552459787
 20
71.54520807504224
 30
0.0
 11
90.6471355245979
 21
126.8452080750423
 31
0.0
  0
LINE
  5
111
102
{ACAD_REACTORS
330
356
330
45D
102
}
330
1F
100
AcDbEntity
  8
0
100
AcDbLine
 10
143.7471355245978
 20
126.8452080750423
 30
0.0
 11
143.7471355245978
 21
71.54520807504221
 31
0.0
  0
LINE
  5
112
330
1F
100
AcDbEntity
  8
0
100
AcDbLine
 10
142.7471355245978
 20
70.54520807504221
 30
0.0
 11
91.64713552459787
 21
70.54520807504224
 31
0.0
  0
LINE
  5
113
330
1F
100
AcDbEntity
  8
0
100
AcDbLine
 10
90.6471355245979
 20
126.8452080750423
 30
0.0
 11
93.6471355245979
 21
129.8452080750423
 31
0.0
  0
LINE
  5
114
102
{ACAD_REACTORS
330
52B
102
}
330
1F
100
AcDbEntity
  8
0
100
AcDbLine
 10
143.7471355245978
 20
126.8452080750423
 30
0.0
 11
140.7471355245978
 21
129.8452080750423
 31
0.0
  0
LWPOLYLINE
  5
115
330
1F
100
AcDbEntity
  8
0
100
AcDbPolyline
 90
        2
 70
     0
 43
0.0
 10
121.5471355245978
 20
76.04520807504224
 10
112.8471355245979
 20
76.04520807504224
  0
LINE
  5
116
330
1F
100
AcDbEntity
  8
0
100
AcDbLine
 10
91.64713552459787
 20
70.54520807504224
 30
0.0
 11
90.64713552459787
 21
71.54520807504224
 31
0.0
  0
LINE
  5
117
330
1F
100
AcDbEntity
  8
0
100
AcDbLine
 10
142.7471355245978
 20
70.54520807504221
 30
0.0
 11
143.7471355245978
 21
71.54520807504221
 31
0.0
  0
ARC
  5
12D
330
1F
100
AcDbEntity
  8
0
100
AcDbCircle
 10
107.1471355245979
 20
73.04520807504227
 30
0.0
 40
0.3376165118283639
100
AcDbArc
 50
90.0
 51
0.0
  0
LWPOLYLINE
  5
12E
330
1F
100
AcDbEntity
  8
0
100
AcDbPolyline
 90
        2
 70
     0
 43
0.0
 10
112.8471355245979
 20
73.39352672860662
 10
112.8471355245979
 20
76.04520807504224
  0
LWPOLYLINE
  5
12F
102
{ACAD_REACTORS
330
30A
330
43F
330
4EA
102
}
330
1F
100
AcDbEntity
  8
0
100
AcDbPolyline
 90
        2
 70
     0
 43
0.0
 10
107.1471355245979
 20
76.04520807504224
 10
107.1471355245979
 20
73.38282458687064
  0
ARC
  5
130
330
1F
100
AcDbEntity
  8
0
100
AcDbCircle
 10
112.8591967501793
 20
73.056125726983
 30
0.0
 40
0.3376165118283639
100
AcDbArc
 50
181.8531216016172
 51
92.04730626438959
  0
LWPOLYLINE
  5
132
330
1F
100
AcDbEntity
  8
0
100
AcDbPolyline
 90
        2
 70
     0
 43
0.0
 10
107.4847520364263
 20
73.04520807504227
 10
112.5217568089524
 20
73.04520807504227
  0
ARC
  5
213
330
1F
100
AcDbEntity
  8
0
100
AcDbCircle
 10
107.1471355245979
 20
123.8452080750423
 30
0.0
 40
0.3376165118283639
100
AcDbArc
 50
0.0
 51
270.0
  0
ARC
  5
216
330
1F
100
AcDbEntity
  8
0
100
AcDbCircle
 10
112.8591967501793
 20
123.8342904231016
 30
0.0
 40
0.3376165118283639
100
AcDbArc
 50
267.9526937356104
 51
178.1468783983828
  0
LINE
  5
235
102
{ACAD_REACTORS
330
2CD
102
}
330
1F
100
AcDbEntity
  8
0
100
AcDbLine
 10
96.64713552459787
 20
76.04520807504224
 30
0.0
 11
96.6471355245979
 21
117.8452080750423
 31
0.0
  0
LINE
  5
237
330
1F
100
AcDbEntity
  8
0
100
AcDbLine
 10
112.8471355245979
 20
123.496889421478
 30
0.0
 11
112.8471355245979
 21
120.8452080750423
 31
0.0
  0
LINE
  5
238
330
1F
100
AcDbEntity
  8
0
100
AcDbLine
 10
107.1471355245979
 20
117.8452080750423
 30
0.0
 11
107.1471355245979
 21
123.5075915632139
 31
0.0
  0
LINE
  5
23A
330
1F
100
AcDbEntity
  8
0
100
AcDbLine
 10
107.4847520364263
 20
123.8452080750423
 30
0.0
 11
112.5217568089524
 21
123.8452080750423
 31
0.0
  0
LINE
  5
23D
330
1F
100
AcDbEntity
  8
0
100
AcDbLine
 10
112.8471355245979
 20
120.8452080750423
 30
0.0
 11
121.5471355245978
 21
120.8452080750423
 31
0.0
  0
LINE
  5
23E
102
{ACAD_REACTORS
330
52B
102
}
330
1F
100
AcDbEntity
  8
0
100
AcDbLine
 10
127.2471355245978
 20
117.8452080750423
 30
0.0
 11
137.7471355245978
 21
117.8452080750423
 31
0.0
  0
LINE
  5
23F
102
{ACAD_REACTORS
330
2CD
102
}
330
1F
100
AcDbEntity
  8
0
100
AcDbLine
 10
137.7471355245978
 20
117.8452080750423
 30
0.0
 11
137.7471355245978
 21
76.04520807504221
 31
0.0
  0
LINE
  5
240
102
{ACAD_REACTORS
330
45D
102
}
330
1F
100
AcDbEntity
  8
0
100
AcDbLine
 10
137.7471355245978
 20
76.04520807504221
 30
0.0
 11
127.2471355245978
 21
76.04520807504224
 31
0.0
  0
LINE
  5
26F
102
{ACAD_REACTORS
330
326
102
}
330
1F
100
AcDbEntity
  8
0
100
AcDbLine
 10
77.07897006545446
 20
72.40220252755815
 30
0.0
 11
77.07897006545446
 21
71.54520807504225
 31
0.0
  0
LINE
  5
270
330
1F
100
AcDbEntity
  8
0
100
AcDbLine
 10
77.07897006545446
 20
71.54520807504225
 30
0.0
 11
76.07897006545446
 21
70.54520807504225
 31
0.0
  0
LINE
  5
271
330
1F
100
AcDbEntity
  8
0
100
AcDbLine
 10
76.07897006545446
 20
70.54520807504225
 30
0.0
 11
66.17897006545448
 21
70.54520807504225
 31
0.0
  0
LINE
  5
272
330
1F
100
AcDbEntity
  8
0
100
AcDbLine
 10
66.17897006545448
 20
70.54520807504225
 30
0.0
 11
65.17897006545448
 21
71.54520807504225
 31
0.0
  0
LINE
  5
273
330
1F
100
AcDbEntity
  8
0
100
AcDbLine
 10
65.17897006545448
 20
71.54520807504225
 30
0.0
 11
65.17897006545448
 21
75.04520807504225
 31
0.0
  0
LINE
  5
274
330
1F
100
AcDbEntity
  8
0
100
AcDbLine
 10
65.17897006545448
 20
75.04520807504225
 30
0.0
 11
66.17897006545448
 21
76.04520807504224
 31
0.0
  0
LINE
  5
275
330
1F
100
AcDbEntity
  8
0
100
AcDbLine
 10
66.17897006545448
 20
76.04520807504224
 30
0.0
 11
83.07897006545446
 21
76.04520807504224
 31
0.0
  0
LINE
  5
276
102
{ACAD_REACTORS
330
2BE
102
}
330
1F
100
AcDbEntity
  8
0
100
AcDbLine
 10
83.07897006545446
 20
76.04520807504224
 30
0.0
 11
83.07897006545446
 21
117.8452080750423
 31
0.0
  0
LINE
  5
277
102
{ACAD_REACTORS
330
2DC
102
}
330
1F
100
AcDbEntity
  8
0
100
AcDbLine
 10
83.07897006545446
 20
117.8452080750423
 30
0.0
 11
41.2789700654545
 21
117.8452080750423
 31
0.0
  0
LINE
  5
278
102
{ACAD_REACTORS
330
2DC
102
}
330
1F
100
AcDbEntity
  8
0
100
AcDbLine
 10
41.2789700654545
 20
117.8452080750423
 30
0.0
 11
41.2789700654545
 21
76.04520807504224
 31
0.0
  0
LINE
  5
282
102
{ACAD_REACTORS
330
366
330
3B2
102
}
330
1F
100
AcDbEntity
  8
0
100
AcDbLine
 10
35.2789700654545
 20
74.04520807504225
 30
0.0
 11
35.2789700654545
 21
122.8452080750423
 31
0.0
  0
LINE
  5
283
330
1F
100
AcDbEntity
  8
0
100
AcDbLine
 10
35.2789700654545
 20
122.8452080750423
 30
0.0
 11
36.2789700654545
 21
123.8452080750423
 31
0.0
  0
LINE
  5
284
102
{ACAD_REACTORS
330
341
102
}
330
1F
100
AcDbEntity
  8
0
100
AcDbLine
 10
36.2789700654545
 20
123.8452080750423
 30
0.0
 11
47.2789700654545
 21
123.8452080750423
 31
0.0
  0
LINE
  5
285
102
{ACAD_REACTORS
330
3B2
102
}
330
1F
100
AcDbEntity
  8
0
100
AcDbLine
 10
88.07897006545446
 20
123.8452080750423
 30
0.0
 11
89.07897006545446
 21
122.8452080750423
 31
0.0
  0
LINE
  5
286
330
1F
100
AcDbEntity
  8
0
100
AcDbLine
 10
89.07897006545446
 20
122.8452080750423
 30
0.0
 11
89.07897006545446
 21
74.04520807504225
 31
0.0
  0
LINE
  5
287
330
1F
100
AcDbEntity
  8
0
100
AcDbLine
 10
89.07897006545446
 20
74.04520807504225
 30
0.0
 11
88.07897006545446
 21
73.04520807504225
 31
0.0
  0
LINE
  5
288
330
1F
100
AcDbEntity
  8
0
100
AcDbLine
 10
88.07897006545446
 20
73.04520807504225
 30
0.0
 11
77.72197561293879
 21
73.04520807504225
 31
0.0
  0
ARC
  5
28C
330
1F
100
AcDbEntity
  8
0
100
AcDbCircle
 10
47.27897006545427
 20
73.04520807504225
 30
0.0
 40
0.6430055474841083
100
AcDbArc
 50
270.0000000000202
 51
180.0
  0
LINE
  5
28D
102
{ACAD_REACTORS
330
326
330
366
330
385
102
}
330
1F
100
AcDbEntity
  8
0
100
AcDbLine
 10
47.2789700654545
 20
72.40220252755815
 30
0.0
 11
47.2789700654545
 21
71.54520807504225
 31
0.0
  0
LINE
  5
28E
330
1F
100
AcDbEntity
  8
0
100
AcDbLine
 10
47.2789700654545
 20
71.54520807504225
 30
0.0
 11
48.2789700654545
 21
70.54520807504225
 31
0.0
  0
LINE
  5
28F
102
{ACAD_REACTORS
330
385
102
}
330
1F
100
AcDbEntity
  8
0
100
AcDbLine
 10
58.17897006545448
 20
70.54520807504225
 30
0.0
 11
59.17897006545448
 21
71.54520807504225
 31
0.0
  0
LINE
  5
290
330
1F
100
AcDbEntity
  8
0
100
AcDbLine
 10
59.17897006545448
 20
71.54520807504225
 30
0.0
 11
59.17897006545448
 21
75.04520807504225
 31
0.0
  0
LINE
  5
291
330
1F
100
AcDbEntity
  8
0
100
AcDbLine
 10
59.17897006545448
 20
75.04520807504225
 30
0.0
 11
58.17897006545448
 21
76.04520807504224
 31
0.0
  0
LINE
  5
292
102
{ACAD_REACTORS
330
2BE
102
}
330
1F
100
AcDbEntity
  8
0
100
AcDbLine
 10
58.17897006545448
 20
76.04520807504224
 30
0.0
 11
41.2789700654545
 21
76.04520807504224
 31
0.0
  0
LINE
  5
293
102
{ACAD_REACTORS
330
341
102
}
330
1F
100
AcDbEntity
  8
0
100
AcDbLine
 10
35.2789700654545
 20
74.04520807504225
 30
0.0
 11
36.2789700654545
 21
73.04520807504225
 31
0.0
  0
LINE
  5
294
330
1F
100
AcDbEntity
  8
0
100
AcDbLine
 10
36.2789700654545
 20
73.04520807504225
 30
0.0
 11
46.63596451797017
 21
73.04520807504225
 31
0.0
  0
LINE
  5
295
330
1F
100
AcDbEntity
  8
0
100
AcDbLine
 10
48.2789700654545
 20
70.54520807504225
 30
0.0
 11
58.17897006545448
 21
70.54520807504225
 31
0.0
  0
LWPOLYLINE
  5
29A
102
{ACAD_REACTORS
330
2FA
102
}
330
1F
100
AcDbEntity
  8
0
100
AcDbPolyline
 90
        2
 70
     0
 43
0.0
 10
96.6471355245979
 20
117.8452080750423
 10
107.1471355245979
 20
117.8452080750423
  0
LWPOLYLINE
  5
29B
102
{ACAD_REACTORS
330
2FA
102
}
330
1F
100
AcDbEntity
  8
0
100
AcDbPolyline
 90
        2
 70
     0
 43
0.0
 10
96.6471355245979
 20
76.04520807504224
 10
107.1471355245979
 20
76.04520807504224
  0
ARC
  5
2A6
330
1F
100
AcDbEntity
  8
0
100
AcDbCircle
 10
127.2471355245978
 20
123.8452080750423
 30
0.0
 40
0.3376165118283639
100
AcDbArc
 50
270.0
 51
180.0
  0
ARC
  5
2A7
330
1F
100
AcDbEntity
  8
0
100
AcDbCircle
 10
121.5350742990164
 20
123.8342904231016
 30
0.0
 40
0.3376165118283639
100
AcDbArc
 50
1.853121601617245
 51
272.0473062643896
  0
LINE
  5
2A8
330
1F
100
AcDbEntity
  8
0
100
AcDbLine
 10
121.5471355245978
 20
123.496889421478
 30
0.0
 11
121.5471355245978
 21
120.8452080750423
 31
0.0
  0
LINE
  5
2A9
330
1F
100
AcDbEntity
  8
0
100
AcDbLine
 10
127.2471355245978
 20
117.8452080750423
 30
0.0
 11
127.2471355245978
 21
123.5075915632139
 31
0.0
  0
LINE
  5
2AA
102
{ACAD_REACTORS
330
3DC
102
}
330
1F
100
AcDbEntity
  8
0
100
AcDbLine
 10
126.9095190127694
 20
123.8452080750423
 30
0.0
 11
121.8725142402433
 21
123.8452080750423
 31
0.0
  0
ARC
  5
2AB
330
1F
100
AcDbEntity
  8
0
100
AcDbCircle
 10
127.2471355245978
 20
73.04520807504227
 30
0.0
 40
0.3376165118283639
100
AcDbArc
 50
180.0
 51
90.0
  0
LWPOLYLINE
  5
2AC
330
1F
100
AcDbEntity
  8
0
100
AcDbPolyline
 90
        2
 70
     0
 43
0.0
 10
121.5471355245978
 20
73.39352672860662
 10
121.5471355245978
 20
76.04520807504224
  0
LWPOLYLINE
  5
2AD
102
{ACAD_REACTORS
330
43F
102
}
330
1F
100
AcDbEntity
  8
0
100
AcDbPolyline
 90
        2
 70
     0
 43
0.0
 10
127.2471355245978
 20
76.04520807504224
 10
127.2471355245978
 20
73.38282458687064
  0
ARC
  5
2AE
330
1F
100
AcDbEntity
  8
0
100
AcDbCircle
 10
121.5350742990164
 20
73.056125726983
 30
0.0
 40
0.3376165118283639
100
AcDbArc
 50
87.95269373561042
 51
358.1468783983828
  0
LWPOLYLINE
  5
2AF
102
{ACAD_REACTORS
330
3DC
102
}
330
1F
100
AcDbEntity
  8
0
100
AcDbPolyline
 90
        2
 70
     0
 43
0.0
 10
126.9095190127694
 20
73.04520807504227
 10
121.8725142402433
 20
73.04520807504227
  0
LWPOLYLINE
  5
2B4
330
1F
100
AcDbEntity
  8
0
100
AcDbPolyline
 90
        6
 70
     0
 43
0.0
 10
77.07897006545446
 20
123.8452080750423
 10
77.07897006545446
 20
127.8452080750423
 10
75.07897006545446
 20
129.8452080750423
 10
49.2789700654545
 20
129.8452080750423
 10
47.2789700654545
 20
127.8452080750423
 10
47.2789700654545
 20
123.8452080750423
  0
LINE
  5
2B5
330
1F
100
AcDbEntity
  8
0
100
AcDbLine
 10
77.07897006545446
 20
123.8452080750423
 30
0.0
 11
88.07897006545446
 21
123.8452080750423
 31
0.0
  0
LWPOLYLINE
  5
2BA
330
1F
100
AcDbEntity
  8
0
100
AcDbPolyline
 90
        4
 70
     1
 43
0.0
 10
29.2789700654545
 20
-29.76889886066425
 10
29.2789700654545
 20
36.03110113933575
 10
95.0789700654545
 20
36.03110113933575
 10
95.0789700654545
 20
-29.76889886066425
  0
DIMENSION
  5
2BC
102
{ACAD_REACTORS
330
2BE
102
}
102
{ACAD_XDICTIONARY
360
2BD
102
}
330
1F
100
AcDbEntity
  8
0
100
AcDbDimension
280
     0
  2
*D7
 10
83.07897006545446
 20
89.30347537819588
 30
0.0
 11
62.17897006545448
 21
91.42972537819588
 31
0.0
 70
    32
 71
     5
 42
41.79999999999995
 73
     0
 74
     0
 75
     0
  3
ISO-25
100
AcDbAlignedDimension
 13
41.2789700654545
 23
76.04520807504224
 33
0.0
 14
83.07897006545446
 24
76.04520807504224
 34
0.0
100
AcDbRotatedDimension
  0
DIMENSION
  5
2CB
102
{ACAD_REACTORS
330
2CD
102
}
102
{ACAD_XDICTIONARY
360
2CC
102
}
330
1F
100
AcDbEntity
  8
0
100
AcDbDimension
280
     0
  2
*D8
 10
137.7471355245978
 20
89.67651622309575
 30
0.0
 11
117.1971355245978
 21
89.67651622309575
 31
0.0
 70
   160
 71
     5
 42
41.09999999999994
 73
     0
 74
     0
 75
     0
  3
ISO-25
100
AcDbAlignedDimension
 13
96.64713552459787
 23
76.04520807504224
 33
0.0
 14
137.7471355245978
 24
76.04520807504221
 34
0.0
100
AcDbRotatedDimension
  0
DIMENSION
  5
2DA
102
{ACAD_REACTORS
330
2DC
102
}
102
{ACAD_XDICTIONARY
360
2DB
102
}
330
1F
100
AcDbEntity
  8
0
100
AcDbDimension
280
     0
  2
*D9
 10
58.77613450392147
 20
117.8452080750423
 30
0.0
 11
56.64988450392147
 21
96.94520807504227
 31
0.0
 70
    32
 71
     5
 42
41.80000000000005
 73
     0
 74
     0
 75
     0
  3
ISO-25
100
AcDbAlignedDimension
 13
41.2789700654545
 23
76.04520807504224
 33
0.0
 14
41.2789700654545
 24
117.8452080750423
 34
0.0
 50
90.0
100
AcDbRotatedDimension
  0
DIMENSION
  5
2F8
102
{ACAD_REACTORS
330
2FA
102
}
102
{ACAD_XDICTIONARY
360
2F9
102
}
330
1F
100
AcDbEntity
  8
0
100
AcDbDimension
280
     0
  2
*D11
 10
106.8604922242033
 20
117.8452080750423
 30
0.0
 11
104.7342422242033
 21
96.94520807504227
 31
0.0
 70
    32
 71
     5
 42
41.80000000000005
 73
     0
 74
     0
 75
     0
  3
ISO-25
100
AcDbAlignedDimension
 13
96.6471355245979
 23
76.04520807504224
 33
0.0
 14
96.6471355245979
 24
117.8452080750423
 34
0.0
 50
90.0
100
AcDbRotatedDimension
  0
DIMENSION
  5
308
102
{ACAD_REACTORS
330
30A
102
}
102
{ACAD_XDICTIONARY
360
309
102
}
330
1F
100
AcDbEntity
  8
0
100
AcDbDimension
280
     0
  2
*D12
 10
107.1471355245979
 20
67.0608751107999
 30
0.0
 11
101.8971355245979
 21
69.1871251107999
 31
0.0
 70
    32
 71
     5
 42
10.50000000000003
 73
     0
 74
     0
 75
     0
  3
ISO-25
100
AcDbAlignedDimension
 13
96.64713552459787
 23
76.67020807504224
 33
0.0
 14
107.1471355245979
 24
73.38282458687064
 34
0.0
100
AcDbRotatedDimension
  0
LWPOLYLINE
  5
321
330
1F
100
AcDbEntity
  8
0
100
AcDbPolyline
 90
        2
 70
     0
 43
0.0
 10
51.59263147577921
 20
6.131101139335748
 10
56.99263147577922
 20
6.131101139335748
  0
DIMENSION
  5
324
102
{ACAD_REACTORS
330
326
102
}
102
{ACAD_XDICTIONARY
360
325
102
}
330
1F
100
AcDbEntity
  8
0
100
AcDbDimension
280
     0
  2
*D13
 10
77.07897006545446
 20
66.19665270566027
 30
0.0
 11
62.17897006545448
 21
68.32290270566027
 31
0.0
 70
    32
 71
     5
 42
29.79999999999995
 73
     0
 74
     0
 75
     0
  3
ISO-25
100
AcDbAlignedDimension
 13
47.2789700654545
 23
71.54520807504225
 33
0.0
 14
77.07897006545446
 24
71.54520807504225
 34
0.0
100
AcDbRotatedDimension
  0
DIMENSION
  5
33F
102
{ACAD_REACTORS
330
341
102
}
102
{ACAD_XDICTIONARY
360
340
102
}
330
1F
100
AcDbEntity
  8
0
100
AcDbDimension
280
     0
  2
*D14
 10
4.372173789670655
 20
123.8452080750423
 30
0.0
 11
2.245923789670655
 21
98.44520807504227
 31
0.0
 70
    32
 71
     5
 42
50.80000000000004
 73
     0
 74
     0
 75
     0
  3
ISO-25
100
AcDbAlignedDimension
 13
36.2789700654545
 23
73.04520807504225
 33
0.0
 14
37.3153082917983
 24
123.8452080750423
 34
0.0
 50
90.0
100
AcDbRotatedDimension
  0
DIMENSION
  5
354
102
{ACAD_REACTORS
330
356
102
}
102
{ACAD_XDICTIONARY
360
355
102
}
330
1F
100
AcDbEntity
  8
0
100
AcDbDimension
280
     0
  2
*D15
 10
143.7471355245978
 20
56.00327430207561
 30
0.0
 11
117.1971355245978
 21
56.00327430207561
 31
0.0
 70
   160
 71
     5
 42
53.09999999999994
 73
     0
 74
     0
 75
     0
  3
ISO-25
100
AcDbAlignedDimension
 13
90.64713552459787
 23
71.54520807504224
 33
0.0
 14
143.7471355245978
 24
71.54520807504221
 34
0.0
100
AcDbRotatedDimension
  0
LWPOLYLINE
  5
363
330
1F
100
AcDbEntity
  8
0
100
AcDbPolyline
 90
        4
 70
     1
 43
0.0
 10
180.0234507203938
 20
21.47023232588144
 10
180.0234507203938
 20
26.87023232588144
 10
233.2234507203938
 20
26.87023232588144
 10
233.2234507203938
 20
21.47023232588144
  0
DIMENSION
  5
364
102
{ACAD_REACTORS
330
366
102
}
102
{ACAD_XDICTIONARY
360
365
102
}
330
1F
100
AcDbEntity
  8
0
100
AcDbDimension
280
     0
  2
*D16
 10
47.2789700654545
 20
65.4135177251894
 30
0.0
 11
41.2789700654545
 21
67.29351772518939
 31
0.0
 70
    32
 71
     5
 42
12.0
 73
     0
 74
     0
 75
     0
  3
ISO-25
100
AcDbAlignedDimension
 13
35.2789700654545
 23
74.04520807504225
 33
0.0
 14
47.2789700654545
 24
71.54520807504225
 34
0.0
100
AcDbRotatedDimension
  0
DIMENSION
  5
383
102
{ACAD_REACTORS
330
385
102
}
102
{ACAD_XDICTIONARY
360
384
102
}
330
1F
100
AcDbEntity
  8
0
100
AcDbDimension
280
     0
  2
*D18
 10
59.17897006545448
 20
81.87397955915048
 30
0.0
 11
53.22897006545449
 21
84.00022955915048
 31
0.0
 70
    32
 71
     5
 42
11.89999999999998
 73
     0
 74
     0
 75
     0
  3
ISO-25
100
AcDbAlignedDimension
 13
47.2789700654545
 23
71.54520807504225
 33
0.0
 14
59.17897006545448
 24
71.54520807504225
 34
0.0
100
AcDbRotatedDimension
  0
DIMENSION
  5
3B0
102
{ACAD_REACTORS
330
3B2
102
}
102
{ACAD_XDICTIONARY
360
3B1
102
}
330
1F
100
AcDbEntity
  8
0
100
AcDbDimension
280
     0
  2
*D21
 10
89.07897006545446
 20
135.8731683132339
 30
0.0
 11
62.17897006545448
 21
137.9994183132339
 31
0.0
 70
    32
 71
     5
 42
53.79999999999995
 73
     0
 74
     0
 75
     0
  3
ISO-25
100
AcDbAlignedDimension
 13
35.2789700654545
 23
122.8452080750423
 33
0.0
 14
89.07897006545446
 24
122.8452080750423
 34
0.0
100
AcDbRotatedDimension
  0
LWPOLYLINE
  5
3BF
330
1F
100
AcDbEntity
  8
0
100
AcDbPolyline
 90
        4
 70
     1
 43
0.0
 10
195.6994885618476
 20
37.63047487078292
 10
195.6994885618476
 20
91.43047487078292
 10
201.0994885618476
 20
91.43047487078292
 10
201.0994885618476
 20
37.63047487078292
  0
LWPOLYLINE
  5
3C2
330
1F
100
AcDbEntity
  8
0
100
AcDbPolyline
 90
        2
 70
     0
 43
0.0
 10
56.99263147577921
 20
18.03110113933575
 10
56.99263147577922
 20
6.131101139335748
  0
LWPOLYLINE
  5
3C3
102
{ACAD_REACTORS
330
4CC
102
}
330
1F
100
AcDbEntity
  8
0
100
AcDbPolyline
 90
        2
 70
     0
 43
0.0
 10
71.69263147577921
 20
18.03110113933574
 10
71.69263147577921
 20
6.131101139335748
  0
DIMENSION
  5
3DA
102
{ACAD_REACTORS
330
3DC
102
}
102
{ACAD_XDICTIONARY
360
3DB
102
}
330
1F
100
AcDbEntity
  8
0
100
AcDbDimension
280
     0
  2
*D23
 10
151.6433995335536
 20
123.8452080750423
 30
0.0
 11
149.5171495335536
 21
98.44520807504227
 31
0.0
 70
    32
 71
     5
 42
50.80000000000003
 73
     0
 74
     0
 75
     0
  3
ISO-25
100
AcDbAlignedDimension
 13
124.3910166265063
 23
73.04520807504227
 33
0.0
 14
124.3910166265063
 24
123.8452080750423
 34
0.0
 50
90.0
100
AcDbRotatedDimension
  0
LWPOLYLINE
  5
3F8
102
{ACAD_REACTORS
330
47B
330
4DB
330
519
102
}
330
1F
100
AcDbEntity
  8
0
100
AcDbPolyline
 90
        4
 70
     0
 43
0.0
 10
51.59263147577921
 20
23.43110113933574
 10
51.59263147577921
 20
30.03110113933575
 10
56.99263147577922
 20
30.03110113933575
 10
56.99263147577922
 20
23.43110113933575
  0
LWPOLYLINE
  5
3FA
330
1F
100
AcDbEntity
  8
0
100
AcDbPolyline
 90
        2
 70
     0
 43
0.0
 10
66.29263147577922
 20
18.03110113933574
 10
56.99263147577922
 20
18.03110113933575
  0
LWPOLYLINE
  5
3FC
102
{ACAD_REACTORS
330
412
330
47B
330
50A
102
}
330
1F
100
AcDbEntity
  8
0
100
AcDbPolyline
 90
        4
 70
     0
 43
0.0
 10
66.2926314757792
 20
23.43110113933574
 10
66.2926314757792
 20
30.03110113933575
 10
71.69263147577921
 20
30.03110113933575
 10
71.69263147577921
 20
23.43110113933575
  0
LWPOLYLINE
  5
3FF
330
1F
100
AcDbEntity
  8
0
100
AcDbPolyline
 90
        2
 70
     0
 43
0.0
 10
51.59263147577921
 20
6.131101139335751
 10
51.59263147577921
 20
18.03110113933575
  0
LWPOLYLINE
  5
401
330
1F
100
AcDbEntity
  8
0
100
AcDbPolyline
 90
        2
 70
     0
 43
0.0
 10
66.2926314757792
 20
6.131101139335751
 10
66.2926314757792
 20
18.03110113933574
  0
LWPOLYLINE
  5
40B
102
{ACAD_REACTORS
330
4CC
102
}
330
1F
100
AcDbEntity
  8
0
100
AcDbPolyline
 90
        2
 70
     0
 43
0.0
 10
66.2926314757792
 20
6.131101139335748
 10
71.69263147577921
 20
6.131101139335748
  0
DIMENSION
  5
410
102
{ACAD_REACTORS
330
412
102
}
102
{ACAD_XDICTIONARY
360
411
102
}
330
1F
100
AcDbEntity
  8
0
100
AcDbDimension
280
     0
  2
*D25
 10
136.9635694050712
 20
-23.76889886066425
 30
0.0
 11
134.8373194050712
 21
3.131101139335748
 31
0.0
 70
    32
 71
     5
 42
53.8
 73
     0
 74
     0
 75
     0
  3
ISO-25
100
AcDbAlignedDimension
 13
71.69263147577921
 23
30.03110113933575
 33
0.0
 14
71.69263147577921
 24
-23.76889886066424
 34
0.0
 50
90.0
100
AcDbRotatedDimension
  0
DIMENSION
  5
43D
102
{ACAD_REACTORS
330
43F
102
}
102
{ACAD_XDICTIONARY
360
43E
102
}
330
1F
100
AcDbEntity
  8
0
100
AcDbDimension
280
     0
  2
*D28
 10
127.2471355245978
 20
80.36649995075533
 30
0.0
 11
117.1971355245979
 21
80.36649995075533
 31
0.0
 70
   160
 71
     5
 42
20.09999999999989
 73
     0
 74
     0
 75
     0
  3
ISO-25
100
AcDbAlignedDimension
 13
107.1471355245979
 23
74.71401633095644
 33
0.0
 14
127.2471355245978
 24
74.71401633095644
 34
0.0
100
AcDbRotatedDimension
  0
DIMENSION
  5
45B
102
{ACAD_REACTORS
330
45D
102
}
102
{ACAD_XDICTIONARY
360
45C
102
}
330
1F
100
AcDbEntity
  8
0
100
AcDbDimension
280
     0
  2
*D30
 10
127.2471355245978
 20
65.93746953760893
 30
0.0
 11
135.4971355245978
 21
68.06371953760893
 31
0.0
 70
    32
 71
     5
 42
16.50000000000001
 73
     0
 74
     0
 75
     0
  3
ISO-25
100
AcDbAlignedDimension
 13
143.7471355245978
 23
71.54520807504221
 33
0.0
 14
127.2471355245978
 24
76.04520807504224
 34
0.0
100
AcDbRotatedDimension
  0
DIMENSION
  5
479
102
{ACAD_REACTORS
330
47B
102
}
102
{ACAD_XDICTIONARY
360
47A
102
}
330
1F
100
AcDbEntity
  8
0
100
AcDbDimension
280
     0
  2
*D32
 10
71.69263147577921
 20
40.62590649920217
 30
0.0
 11
61.64263147577921
 21
40.62590649920217
 31
0.0
 70
   160
 71
     5
 42
20.09999999999999
 73
     0
 74
     0
 75
     0
  3
ISO-25
100
AcDbAlignedDimension
 13
51.59263147577921
 23
30.03110113933575
 33
0.0
 14
71.69263147577921
 24
30.03110113933575
 34
0.0
100
AcDbRotatedDimension
  0
LINE
  5
48A
102
{ACAD_REACTORS
330
4DB
102
}
330
1F
100
AcDbEntity
  8
0
100
AcDbLine
 10
35.09263147577921
 20
18.03110113933575
 30
0.0
 11
51.59263147577921
 21
18.03110113933575
 31
0.0
  0
LINE
  5
48B
102
{ACAD_REACTORS
330
49A
330
5BE
102
}
330
1F
100
AcDbEntity
  8
0
100
AcDbLine
 10
71.69263147577921
 20
18.03110113933574
 30
0.0
 11
88.19263147577921
 21
18.03110113933575
 31
0.0
  0
DIMENSION
  5
498
102
{ACAD_REACTORS
330
49A
102
}
102
{ACAD_XDICTIONARY
360
499
102
}
330
1F
100
AcDbEntity
  8
0
100
AcDbDimension
280
     0
  2
*D33
 10
88.19263147577921
 20
49.65264297032979
 30
0.0
 11
61.64263147577921
 21
51.77889297032979
 31
0.0
 70
    32
 71
     5
 42
53.09999999999999
 73
     0
 74
     0
 75
     0
  3
ISO-25
100
AcDbAlignedDimension
 13
35.09263147577921
 23
18.03110113933575
 33
0.0
 14
88.19263147577921
 24
18.03110113933575
 34
0.0
100
AcDbRotatedDimension
  0
LINE
  5
4B6
330
1F
100
AcDbEntity
  8
0
100
AcDbLine
 10
88.19263147577921
 20
18.03110113933575
 30
0.0
 11
88.19263147577921
 21
23.43110113933574
 31
0.0
  0
LINE
  5
4B7
102
{ACAD_REACTORS
330
50A
102
}
330
1F
100
AcDbEntity
  8
0
100
AcDbLine
 10
88.19263147577921
 20
23.43110113933574
 30
0.0
 11
71.69263147577921
 21
23.43110113933575
 31
0.0
  0
LWPOLYLINE
  5
4B8
330
1F
100
AcDbEntity
  8
0
100
AcDbPolyline
 90
        2
 70
     0
 43
0.0
 10
66.29263147577922
 20
23.43110113933575
 10
56.99263147577922
 20
23.43110113933575
  0
LINE
  5
4B9
102
{ACAD_REACTORS
330
49A
330
519
102
}
330
1F
100
AcDbEntity
  8
0
100
AcDbLine
 10
35.09263147577921
 20
23.43110113933574
 30
0.0
 11
35.09263147577921
 21
18.03110113933575
 31
0.0
  0
LINE
  5
4BA
330
1F
100
AcDbEntity
  8
0
100
AcDbLine
 10
51.59263147577921
 20
23.43110113933574
 30
0.0
 11
35.09263147577921
 21
23.43110113933574
 31
0.0
  0
DIMENSION
  5
4CA
102
{ACAD_REACTORS
330
4CC
102
}
102
{ACAD_XDICTIONARY
360
4CB
102
}
330
1F
100
AcDbEntity
  8
0
100
AcDbDimension
280
     0
  2
*D36
 10
83.31182635287888
 20
6.131101139335747
 30
0.0
 11
81.18557635287888
 21
12.08110113933574
 31
0.0
 70
    32
 71
     5
 42
11.89999999999999
 73
     0
 74
     0
 75
     0
  3
ISO-25
100
AcDbAlignedDimension
 13
71.69263147577921
 23
18.03110113933574
 33
0.0
 14
71.69263147577921
 24
6.131101139335748
 34
0.0
 50
90.0
100
AcDbRotatedDimension
  0
DIMENSION
  5
4D9
102
{ACAD_REACTORS
330
4DB
102
}
102
{ACAD_XDICTIONARY
360
4DA
102
}
330
1F
100
AcDbEntity
  8
0
100
AcDbDimension
280
     0
  2
*D37
 10
19.45970638474277
 20
18.03110113933575
 30
0.0
 11
17.57970638474277
 21
24.03110113933575
 31
0.0
 70
    32
 71
     5
 42
12.00000000000001
 73
     0
 74
     0
 75
     0
  3
ISO-25
100
AcDbAlignedDimension
 13
51.59263147577921
 23
30.03110113933575
 33
0.0
 14
51.59263147577921
 24
18.03110113933575
 34
0.0
 50
90.0
100
AcDbRotatedDimension
  0
DIMENSION
  5
4E8
102
{ACAD_REACTORS
330
4EA
102
}
102
{ACAD_XDICTIONARY
360
4E9
102
}
330
1F
100
AcDbEntity
  8
0
100
AcDbDimension
280
     0
  2
*D38
 10
90.64713552459787
 20
60.95333833856922
 30
0.0
 11
98.89713552459789
 21
60.95333833856922
 31
0.0
 70
   160
 71
     5
 42
16.50000000000003
 73
     0
 74
     0
 75
     0
  3
ISO-25
100
AcDbAlignedDimension
 13
107.1471355245979
 23
73.38282458687064
 33
0.0
 14
90.64713552459787
 24
73.38282458687065
 34
0.0
100
AcDbRotatedDimension
  0
DIMENSION
  5
508
102
{ACAD_REACTORS
330
50A
102
}
102
{ACAD_XDICTIONARY
360
509
102
}
330
1F
100
AcDbEntity
  8
0
100
AcDbDimension
280
     0
  2
*D40
 10
88.19263147577921
 20
26.44844355089858
 30
0.0
 11
79.94263147577921
 21
28.57469355089858
 31
0.0
 70
    32
 71
     5
 42
16.5
 73
     0
 74
     0
 75
     0
  3
ISO-25
100
AcDbAlignedDimension
 13
71.69263147577921
 23
23.43110113933575
 33
0.0
 14
88.19263147577921
 24
23.43110113933574
 34
0.0
100
AcDbRotatedDimension
  0
DIMENSION
  5
517
102
{ACAD_REACTORS
330
519
102
}
102
{ACAD_XDICTIONARY
360
518
102
}
330
1F
100
AcDbEntity
  8
0
100
AcDbDimension
280
     0
  2
*D41
 10
51.59263147577921
 20
26.11990596743945
 30
0.0
 11
43.34263147577921
 21
28.24615596743945
 31
0.0
 70
    32
 71
     5
 42
16.5
 73
     0
 74
     0
 75
     0
  3
ISO-25
100
AcDbAlignedDimension
 13
35.09263147577921
 23
23.43110113933574
 33
0.0
 14
51.59263147577921
 24
23.43110113933574
 34
0.0
100
AcDbRotatedDimension
  0
DIMENSION
  5
529
102
{ACAD_REACTORS
330
52B
102
}
102
{ACAD_XDICTIONARY
360
52A
102
}
330
1F
100
AcDbEntity
  8
0
100
AcDbDimension
280
     0
  2
*D42
 10
143.7471355245978
 20
132.3770463504861
 30
0.0
 11
135.4971355245978
 21
134.5032963504861
 31
0.0
 70
    32
 71
     5
 42
16.50000000000001
 73
     0
 74
     0
 75
     0
  3
ISO-25
100
AcDbAlignedDimension
 13
127.2471355245978
 23
117.8452080750423
 33
0.0
 14
143.7471355245978
 24
126.8452080750423
 34
0.0
100
AcDbRotatedDimension
  0
LWPOLYLINE
  5
57E
330
1F
100
AcDbEntity
  8
0
100
AcDbPolyline
 90
        2
 70
     0
 43
0.0
 10
66.29263147577922
 20
-11.76889886066425
 10
56.99263147577922
 20
-11.76889886066425
  0
LWPOLYLINE
  5
57F
330
1F
100
AcDbEntity
  8
0
100
AcDbPolyline
 90
        2
 70
     0
 43
0.0
 10
51.59263147577921
 20
0.131101139335744
 10
51.59263147577921
 20
-11.76889886066425
  0
LWPOLYLINE
  5
580
330
1F
100
AcDbEntity
  8
0
100
AcDbPolyline
 90
        2
 70
     0
 43
0.0
 10
56.99263147577921
 20
-11.76889886066425
 10
56.99263147577922
 20
0.1311011393357475
  0
LWPOLYLINE
  5
581
330
1F
100
AcDbEntity
  8
0
100
AcDbPolyline
 90
        2
 70
     0
 43
0.0
 10
66.2926314757792
 20
0.131101139335744
 10
66.2926314757792
 20
-11.76889886066424
  0
LWPOLYLINE
  5
582
102
{ACAD_REACTORS
330
58E
102
}
330
1F
100
AcDbEntity
  8
0
100
AcDbPolyline
 90
        2
 70
     0
 43
0.0
 10
71.69263147577921
 20
-11.76889886066424
 10
71.69263147577921
 20
0.1311011393357475
  0
LWPOLYLINE
  5
583
102
{ACAD_REACTORS
330
58E
102
}
330
1F
100
AcDbEntity
  8
0
100
AcDbPolyline
 90
        2
 70
     0
 43
0.0
 10
66.2926314757792
 20
0.1311011393357475
 10
71.69263147577921
 20
0.1311011393357475
  0
LWPOLYLINE
  5
584
330
1F
100
AcDbEntity
  8
0
100
AcDbPolyline
 90
        2
 70
     0
 43
0.0
 10
51.59263147577921
 20
0.1311011393357475
 10
56.99263147577922
 20
0.1311011393357475
  0
LINE
  5
585
102
{ACAD_REACTORS
330
49A
330
5BE
102
}
330
1F
100
AcDbEntity
  8
0
100
AcDbLine
 10
71.69263147577921
 20
-11.76889886066424
 30
0.0
 11
88.19263147577921
 21
-11.76889886066425
 31
0.0
  0
LINE
  5
586
330
1F
100
AcDbEntity
  8
0
100
AcDbLine
 10
88.19263147577921
 20
-11.76889886066425
 30
0.0
 11
88.19263147577921
 21
-17.16889886066425
 31
0.0
  0
LINE
  5
587
102
{ACAD_REACTORS
330
594
102
}
330
1F
100
AcDbEntity
  8
0
100
AcDbLine
 10
88.19263147577921
 20
-17.16889886066425
 30
0.0
 11
71.69263147577921
 21
-17.16889886066425
 31
0.0
  0
LWPOLYLINE
  5
588
330
1F
100
AcDbEntity
  8
0
100
AcDbPolyline
 90
        2
 70
     0
 43
0.0
 10
66.29263147577922
 20
-17.16889886066425
 10
56.99263147577922
 20
-17.16889886066425
  0
LINE
  5
589
102
{ACAD_REACTORS
330
49A
330
597
102
}
330
1F
100
AcDbEntity
  8
0
100
AcDbLine
 10
35.09263147577921
 20
-17.16889886066425
 30
0.0
 11
35.09263147577921
 21
-11.76889886066425
 31
0.0
  0
LWPOLYLINE
  5
58A
102
{ACAD_REACTORS
330
47B
330
4DB
330
597
102
}
330
1F
100
AcDbEntity
  8
0
100
AcDbPolyline
 90
        4
 70
     0
 43
0.0
 10
51.59263147577921
 20
-17.16889886066425
 10
51.59263147577921
 20
-23.76889886066426
 10
56.99263147577922
 20
-23.76889886066426
 10
56.99263147577922
 20
-17.16889886066425
  0
LWPOLYLINE
  5
58B
102
{ACAD_REACTORS
330
412
330
47B
330
594
102
}
330
1F
100
AcDbEntity
  8
0
100
AcDbPolyline
 90
        4
 70
     0
 43
0.0
 10
66.2926314757792
 20
-17.16889886066425
 10
66.2926314757792
 20
-23.76889886066426
 10
71.69263147577921
 20
-23.76889886066426
 10
71.69263147577921
 20
-17.16889886066425
  0
DIMENSION
  5
58C
102
{ACAD_REACTORS
330
58E
102
}
102
{ACAD_XDICTIONARY
360
58D
102
}
330
1F
100
AcDbEntity
  8
0
100
AcDbDimension
280
     0
  2
*D43
 10
83.31182635287888
 20
0.1311011393357497
 30
0.0
 11
81.18557635287888
 21
-5.818898860664246
 31
0.0
 70
    32
 71
     5
 42
11.89999999999999
 73
     0
 74
     0
 75
     0
 52
-90.0
  3
ISO-25
100
AcDbAlignedDimension
 13
71.69263147577921
 23
-11.76889886066424
 33
0.0
 14
71.69263147577921
 24
0.1311011393357475
 34
0.0
 50
-90.0
100
AcDbRotatedDimension
  0
LINE
  5
590
330
1F
100
AcDbEntity
  8
0
100
AcDbLine
 10
51.59263147577921
 20
-17.16889886066425
 30
0.0
 11
35.09263147577921
 21
-17.16889886066425
 31
0.0
  0
LINE
  5
591
102
{ACAD_REACTORS
330
4DB
102
}
330
1F
100
AcDbEntity
  8
0
100
AcDbLine
 10
35.09263147577921
 20
-11.76889886066425
 30
0.0
 11
51.59263147577921
 21
-11.76889886066425
 31
0.0
  0
DIMENSION
  5
592
102
{ACAD_REACTORS
330
594
102
}
102
{ACAD_XDICTIONARY
360
593
102
}
330
1F
100
AcDbEntity
  8
0
100
AcDbDimension
280
     0
  2
*D44
 10
88.19263147577921
 20
-20.18624127222709
 30
0.0
 11
79.94263147577921
 21
-18.05999127222709
 31
0.0
 70
    32
 71
     5
 42
16.5
 73
     0
 74
     0
 75
     0
 52
-90.0
  3
ISO-25
100
AcDbAlignedDimension
 13
71.69263147577921
 23
-17.16889886066425
 33
0.0
 14
88.19263147577921
 24
-17.16889886066425
 34
0.0
100
AcDbRotatedDimension
  0
DIMENSION
  5
595
102
{ACAD_REACTORS
330
597
102
}
102
{ACAD_XDICTIONARY
360
596
102
}
330
1F
100
AcDbEntity
  8
0
100
AcDbDimension
280
     0
  2
*D45
 10
51.59263147577921
 20
-19.85770368876796
 30
0.0
 11
43.34263147577921
 21
-17.73145368876796
 31
0.0
 70
    32
 71
     5
 42
16.5
 73
     0
 74
     0
 75
     0
 52
-90.0
  3
ISO-25
100
AcDbAlignedDimension
 13
35.09263147577921
 23
-17.16889886066425
 33
0.0
 14
51.59263147577921
 24
-17.16889886066425
 34
0.0
100
AcDbRotatedDimension
  0
DIMENSION
  5
5BC
102
{ACAD_REACTORS
330
5BE
102
}
102
{ACAD_XDICTIONARY
360
5BD
102
}
330
1F
100
AcDbEntity
  8
0
100
AcDbDimension
280
     0
  2
*D46
 10
102.1994495220427
 20
18.03110113933575
 30
0.0
 11
100.0731995220427
 21
3.131101139335748
 31
0.0
 70
    32
 71
     5
 42
29.8
 73
     0
 74
     0
 75
     0
  3
ISO-25
100
AcDbAlignedDimension
 13
88.19263147577921
 23
-11.76889886066425
 33
0.0
 14
88.19263147577921
 24
18.03110113933575
 34
0.0
 50
90.0
100
AcDbRotatedDimension
  0
ENDSEC
  0
SECTION
  2
OBJECTS
  0
DICTIONARY
  5
C
330
0
100
AcDbDictionary
281
     1
  3
ACAD_DETAILVIEWSTYLE
350
B5
  3
ACAD_GROUP
350
D
  3
ACAD_IMAGE_VARS
350
6A
  3
ACAD_LAYOUT
350
1A
  3
ACAD_MATERIAL
350
72
  3
ACAD_MLEADERSTYLE
350
3F
  3
ACAD_MLINESTYLE
350
17
  3
ACAD_PLOTSETTINGS
350
19
  3
ACAD_PLOTSTYLENAME
350
E
  3
ACAD_SCALELIST
350
40
  3
ACAD_SECTIONVIEWSTYLE
350
B6
  3
ACAD_TABLESTYLE
350
3B
  3
ACAD_VISUALSTYLE
350
2A
  3
ACDB_RECOMPOSE_DATA
350
5DC
  3
AcDbVariableDictionary
350
3D
  3
APPDATA
350
71
  3
DimOffsetDictionary
350
20D
  0
SUN
  5
80
330
29
100
AcDbSun
 90
        1
290
     0
 63
     7
421
 16777215
 40
1.0
291
     1
 91
  2455826
 92
 54000000
292
     0
 70
     2
 71
   256
280
     1
  0
DICTIONARY
  5
2BD
330
2BC
100
AcDbDictionary
280
     1
281
     1
  3
ACAD_DIMASSOC
360
2BE
  0
DICTIONARY
  5
2CC
330
2CB
100
AcDbDictionary
280
     1
281
     1
  3
ACAD_DIMASSOC
360
2CD
  0
DICTIONARY
  5
2DB
330
2DA
100
AcDbDictionary
280
     1
281
     1
  3
ACAD_DIMASSOC
360
2DC
  0
DICTIONARY
  5
2F9
330
2F8
100
AcDbDictionary
280
     1
281
     1
  3
ACAD_DIMASSOC
360
2FA
  0
DICTIONARY
  5
309
330
308
100
AcDbDictionary
280
     1
281
     1
  3
ACAD_DIMASSOC
360
30A
  0
DICTIONARY
  5
325
330
324
100
AcDbDictionary
280
     1
281
     1
  3
ACAD_DIMASSOC
360
326
  0
DICTIONARY
  5
340
330
33F
100
AcDbDictionary
280
     1
281
     1
  3
ACAD_DIMASSOC
360
341
  0
DICTIONARY
  5
355
330
354
100
AcDbDictionary
280
     1
281
     1
  3
ACAD_DIMASSOC
360
356
  0
DICTIONARY
  5
365
330
364
100
AcDbDictionary
280
     1
281
     1
  3
ACAD_DIMASSOC
360
366
  0
DICTIONARY
  5
384
330
383
100
AcDbDictionary
280
     1
281
     1
  3
ACAD_DIMASSOC
360
385
  0
DICTIONARY
  5
3B1
330
3B0
100
AcDbDictionary
280
     1
281
     1
  3
ACAD_DIMASSOC
360
3B2
  0
DICTIONARY
  5
3DB
330
3DA
100
AcDbDictionary
280
     1
281
     1
  3
ACAD_DIMASSOC
360
3DC
  0
DICTIONARY
  5
411
330
410
100
AcDbDictionary
280
     1
281
     1
  3
ACAD_DIMASSOC
360
412
  0
DICTIONARY
  5
43E
330
43D
100
AcDbDictionary
280
     1
281
     1
  3
ACAD_DIMASSOC
360
43F
  0
DICTIONARY
  5
45C
330
45B
100
AcDbDictionary
280
     1
281
     1
  3
ACAD_DIMASSOC
360
45D
  0
DICTIONARY
  5
47A
330
479
100
AcDbDictionary
280
     1
281
     1
  3
ACAD_DIMASSOC
360
47B
  0
DICTIONARY
  5
499
330
498
100
AcDbDictionary
280
     1
281
     1
  3
ACAD_DIMASSOC
360
49A
  0
DICTIONARY
  5
4CB
330
4CA
100
AcDbDictionary
280
     1
281
     1
  3
ACAD_DIMASSOC
360
4CC
  0
DICTIONARY
  5
4DA
330
4D9
100
AcDbDictionary
280
     1
281
     1
  3
ACAD_DIMASSOC
360
4DB
  0
DICTIONARY
  5
4E9
330
4E8
100
AcDbDictionary
280
     1
281
     1
  3
ACAD_DIMASSOC
360
4EA
  0
DICTIONARY
  5
509
330
508
100
AcDbDictionary
280
     1
281
     1
  3
ACAD_DIMASSOC
360
50A
  0
DICTIONARY
  5
518
330
517
100
AcDbDictionary
280
     1
281
     1
  3
ACAD_DIMASSOC
360
519
  0
DICTIONARY
  5
52A
330
529
100
AcDbDictionary
280
     1
281
     1
  3
ACAD_DIMASSOC
360
52B
  0
DICTIONARY
  5
58D
330
58C
100
AcDbDictionary
280
     1
281
     1
  3
ACAD_DIMASSOC
360
58E
  0
DICTIONARY
  5
593
330
592
100
AcDbDictionary
280
     1
281
     1
  3
ACAD_DIMASSOC
360
594
  0
DICTIONARY
  5
596
330
595
100
AcDbDictionary
280
     1
281
     1
  3
ACAD_DIMASSOC
360
597
  0
DICTIONARY
  5
5BD
330
5BC
100
AcDbDictionary
280
     1
281
     1
  3
ACAD_DIMASSOC
360
5BE
  0
DICTIONARY
  5
B5
102
{ACAD_REACTORS
330
C
102
}
330
C
100
AcDbDictionary
281
     1
  0
DICTIONARY
  5
D
102
{ACAD_REACTORS
330
C
102
}
330
C
100
AcDbDictionary
281
     1
  0
RASTERVARIABLES
  5
6A
102
{ACAD_REACTORS
330
C
102
}
330
C
100
AcDbRasterVariables
 90
        0
 70
     1
 71
     1
 72
     1
  0
DICTIONARY
  5
1A
102
{ACAD_REACTORS
330
C
102
}
330
C
100
AcDbDictionary
281
     1
  3
Model
350
22
  3
Sheet1
350
1E
  3
Sheet2
350
26
  0
DICTIONARY
  5
72
102
{ACAD_REACTORS
330
C
102
}
330
C
100
AcDbDictionary
281
     1
  3
ByBlock
350
74
  3
ByLayer
350
73
  3
Global
350
75
  0
DICTIONARY
  5
3F
102
{ACAD_REACTORS
330
C
102
}
330
C
100
AcDbDictionary
281
     1
  3
Standard
350
B7
  0
DICTIONARY
  5
17
102
{ACAD_REACTORS
330
C
102
}
330
C
100
AcDbDictionary
281
     1
  3
Standard
350
18
  0
DICTIONARY
  5
19
102
{ACAD_REACTORS
330
C
102
}
330
C
100
AcDbDictionary
281
     1
  0
ACDBDICTIONARYWDFLT
  5
E
102
{ACAD_REACTORS
330
C
102
}
330
C
100
AcDbDictionary
281
     1
  3
Normal
350
F
100
AcDbDictionaryWithDefault
340
F
  0
DICTIONARY
  5
40
102
{ACAD_REACTORS
330
C
102
}
330
C
100
AcDbDictionary
281
     1
  3
*A1
350
144
  3
A0
350
41
  3
A1
350
42
  3
A2
350
43
  3
A3
350
44
  3
A4
350
45
  3
A5
350
46
  3
A6
350
47
  3
A7
350
48
  3
A8
350
49
  3
A9
350
4A
  3
B0
350
4B
  3
B1
350
4C
  3
B2
350
4D
  3
B3
350
4E
  3
B4
350
4F
  3
B5
350
50
  3
B6
350
51
  3
B7
350
52
  3
B8
350
53
  3
B9
350
54
  3
C0
350
55
  3
C1
350
56
  3
C2
350
57
  3
C3
350
58
  3
C4
350
59
  3
C5
350
5A
  3
C6
350
5B
  3
C7
350
5C
  3
C8
350
5D
  3
C9
350
5E
  3
D0
350
5F
  3
D1
350
60
  3
D2
350
61
  0
DICTIONARY
  5
B6
102
{ACAD_REACTORS
330
C
102
}
330
C
100
AcDbDictionary
281
     1
  0
DICTIONARY
  5
3B
102
{ACAD_REACTORS
330
C
102
}
330
C
100
AcDbDictionary
281
     1
  3
Standard
350
3C
  0
DICTIONARY
  5
2A
102
{ACAD_REACTORS
330
C
102
}
330
C
100
AcDbDictionary
281
     1
  3
2dWireframe
350
2F
  3
3D Hidden
350
31
  3
3dWireframe
350
30
  3
Basic
350
32
  3
Brighten
350
36
  3
ColorChange
350
3A
  3
Conceptual
350
34
  3
Dim
350
35
  3
EdgeColorOff
350
7A
  3
Facepattern
350
39
  3
Flat
350
2B
  3
FlatWithEdges
350
2C
  3
Gouraud
350
2D
  3
GouraudWithEdges
350
2E
  3
Hidden
350
77
  3
JitterOff
350
78
  3
Linepattern
350
38
  3
OverhangOff
350
79
  3
Realistic
350
33
  3
Shaded
350
7F
  3
Shaded with edges
350
7E
  3
Shades of Gray
350
7B
  3
Sketchy
350
7C
  3
Thicken
350
37
  3
Wireframe
350
76
  3
X-Ray
350
7D
  0
XRECORD
  5
5DC
102
{ACAD_REACTORS
330
C
102
}
330
C
100
AcDbXrecord
280
     1
 90
        1
330
3C
  0
DICTIONARY
  5
3D
102
{ACAD_REACTORS
330
C
102
}
330
C
100
AcDbDictionary
281
     1
  3
CANNOSCALE
350
62
  3
CMLEADERSTYLE
350
13A
  3
CTABLESTYLE
350
3E
  3
HPTRANSPARENCY
350
20C
  3
LIGHTSINBLOCKS
350
6F
  3
XCLIPFRAME
350
70
  0
DICTIONARY
  5
71
102
{ACAD_REACTORS
330
C
102
}
330
C
100
AcDbDictionary
281
     1
  0
DICTIONARY
  5
20D
102
{ACAD_REACTORS
330
C
102
}
330
C
100
AcDbDictionary
281
     1
  3
DIMRAILANGLE
350
351
  3
DIMRAILFIRSTOFFSET
350
34F
  3
DIMRAILOFFSET
350
350
  3
DIMRAILSENABLED
350
352
  0
DIMASSOC
  5
2BE
102
{ACAD_REACTORS
330
2BD
102
}
330
2BD
100
AcDbDimAssoc
330
2BC
 90
        3
 70
     0
 71
     1
  1
AcDbOsnapPointRef
 72
     1
331
292
 73
     0
 91
        0
 40
0.0
 10
0.0
 20
0.0
 30
0.0
 75
     0
  1
AcDbOsnapPointRef
 72
    13
331
276
 73
     0
 91
        0
 40
0.0
 10
0.0
 20
0.0
 30
0.0
 75
     0
  0
DIMASSOC
  5
2CD
102
{ACAD_REACTORS
330
2CC
102
}
330
2CC
100
AcDbDimAssoc
330
2CB
 90
        3
 70
     0
 71
     1
  1
AcDbOsnapPointRef
 72
    13
331
235
 73
     0
 91
        0
 40
0.0
 10
0.0
 20
0.0
 30
0.0
 75
     0
  1
AcDbOsnapPointRef
 72
     1
331
23F
 73
     0
 91
        0
 40
0.0
 10
0.0
 20
0.0
 30
0.0
 75
     0
  0
DIMASSOC
  5
2DC
102
{ACAD_REACTORS
330
2DB
102
}
330
2DB
100
AcDbDimAssoc
330
2DA
 90
        3
 70
     0
 71
     1
  1
AcDbOsnapPointRef
 72
     1
331
278
 73
     0
 91
        0
 40
0.0
 10
0.0
 20
0.0
 30
0.0
 75
     0
  1
AcDbOsnapPointRef
 72
     1
331
277
 73
     0
 91
        0
 40
0.0
 10
0.0
 20
0.0
 30
0.0
 75
     0
  0
DIMASSOC
  5
2FA
102
{ACAD_REACTORS
330
2F9
102
}
330
2F9
100
AcDbDimAssoc
330
2F8
 90
        3
 70
     0
 71
     1
  1
AcDbOsnapPointRef
 72
    13
331
29B
 73
     2
 91
        1
 40
0.0
 10
0.0
 20
0.0
 30
0.0
 75
     0
  1
AcDbOsnapPointRef
 72
    13
331
29A
 73
     2
 91
        1
 40
0.0
 10
0.0
 20
0.0
 30
0.0
 75
     0
  0
DIMASSOC
  5
30A
102
{ACAD_REACTORS
330
309
102
}
330
309
100
AcDbDimAssoc
330
308
 90
        2
 70
     0
 71
     1
  1
AcDbOsnapPointRef
 72
     1
331
12F
 73
     2
 91
        1
 40
1.0
 10
0.0
 20
0.0
 30
0.0
 75
     0
  0
DIMASSOC
  5
326
102
{ACAD_REACTORS
330
325
102
}
330
325
100
AcDbDimAssoc
330
324
 90
        3
 70
     0
 71
     1
  1
AcDbOsnapPointRef
 72
     1
331
28D
 73
     0
 91
        0
 40
0.0
 10
0.0
 20
0.0
 30
0.0
 75
     0
  1
AcDbOsnapPointRef
 72
     1
331
26F
 73
     0
 91
        0
 40
0.0
 10
0.0
 20
0.0
 30
0.0
 75
     0
  0
DIMASSOC
  5
341
102
{ACAD_REACTORS
330
340
102
}
330
340
100
AcDbDimAssoc
330
33F
 90
        3
 70
     0
 71
     1
  1
AcDbOsnapPointRef
 72
     1
331
293
 73
     0
 91
        0
 40
0.0
 10
0.0
 20
0.0
 30
0.0
 75
     0
  1
AcDbOsnapPointRef
 72
    10
331
284
 73
     0
 91
        0
 40
0.094212566031254
 10
0.0
 20
0.0
 30
0.0
 75
     0
  0
DIMASSOC
  5
356
102
{ACAD_REACTORS
330
355
102
}
330
355
100
AcDbDimAssoc
330
354
 90
        3
 70
     0
 71
     1
  1
AcDbOsnapPointRef
 72
    13
331
110
 73
     0
 91
        0
 40
0.0
 10
0.0
 20
0.0
 30
0.0
 75
     0
  1
AcDbOsnapPointRef
 72
     1
331
111
 73
     0
 91
        0
 40
0.0
 10
0.0
 20
0.0
 30
0.0
 75
     0
  0
DIMASSOC
  5
366
102
{ACAD_REACTORS
330
365
102
}
330
365
100
AcDbDimAssoc
330
364
 90
        3
 70
     0
 71
     1
  1
AcDbOsnapPointRef
 72
    13
331
282
 73
     0
 91
        0
 40
0.0
 10
0.0
 20
0.0
 30
0.0
 75
     0
  1
AcDbOsnapPointRef
 72
     1
331
28D
 73
     0
 91
        0
 40
0.0
 10
0.0
 20
0.0
 30
0.0
 75
     0
  0
DIMASSOC
  5
385
102
{ACAD_REACTORS
330
384
102
}
330
384
100
AcDbDimAssoc
330
383
 90
        3
 70
     0
 71
     1
  1
AcDbOsnapPointRef
 72
     1
331
28D
 73
     0
 91
        0
 40
0.0
 10
0.0
 20
0.0
 30
0.0
 75
     0
  1
AcDbOsnapPointRef
 72
     1
331
28F
 73
     0
 91
        0
 40
0.0
 10
0.0
 20
0.0
 30
0.0
 75
     0
  0
DIMASSOC
  5
3B2
102
{ACAD_REACTORS
330
3B1
102
}
330
3B1
100
AcDbDimAssoc
330
3B0
 90
        3
 70
     0
 71
     1
  1
AcDbOsnapPointRef
 72
     1
331
282
 73
     0
 91
        0
 40
0.0
 10
0.0
 20
0.0
 30
0.0
 75
     0
  1
AcDbOsnapPointRef
 72
     1
331
285
 73
     0
 91
        0
 40
0.0
 10
0.0
 20
0.0
 30
0.0
 75
     0
  0
DIMASSOC
  5
3DC
102
{ACAD_REACTORS
330
3DB
102
}
330
3DB
100
AcDbDimAssoc
330
3DA
 90
        3
 70
     0
 71
     1
  1
AcDbOsnapPointRef
 72
     2
331
2AF
 73
     2
 91
        1
 40
0.5000000000000014
 10
0.0
 20
0.0
 30
0.0
 75
     0
  1
AcDbOsnapPointRef
 72
     2
331
2AA
 73
     0
 91
        0
 40
0.5000000000000014
 10
0.0
 20
0.0
 30
0.0
 75
     0
  0
DIMASSOC
  5
412
102
{ACAD_REACTORS
330
411
102
}
330
411
100
AcDbDimAssoc
330
410
 90
        1
 70
     0
 71
     1
  1
AcDbOsnapPointRef
 72
     1
331
3FC
 73
     2
 91
        2
 40
1.0
 10
0.0
 20
0.0
 30
0.0
 75
     0
  0
DIMASSOC
  5
43F
102
{ACAD_REACTORS
330
43E
102
}
330
43E
100
AcDbDimAssoc
330
43D
 90
        3
 70
     0
 71
     1
  1
AcDbOsnapPointRef
 72
     2
331
12F
 73
     2
 91
        1
 40
0.5
 10
0.0
 20
0.0
 30
0.0
 75
     0
  1
AcDbOsnapPointRef
 72
     2
331
2AD
 73
     2
 91
        1
 40
0.5
 10
0.0
 20
0.0
 30
0.0
 75
     0
  0
DIMASSOC
  5
45D
102
{ACAD_REACTORS
330
45C
102
}
330
45C
100
AcDbDimAssoc
330
45B
 90
        3
 70
     0
 71
     1
  1
AcDbOsnapPointRef
 72
     1
331
111
 73
     0
 91
        0
 40
0.0
 10
0.0
 20
0.0
 30
0.0
 75
     0
  1
AcDbOsnapPointRef
 72
     1
331
240
 73
     0
 91
        0
 40
0.0
 10
0.0
 20
0.0
 30
0.0
 75
     0
  0
DIMASSOC
  5
47B
102
{ACAD_REACTORS
330
47A
102
}
330
47A
100
AcDbDimAssoc
330
479
 90
        3
 70
     0
 71
     1
  1
AcDbOsnapPointRef
 72
     1
331
3F8
 73
     2
 91
        1
 40
1.0
 10
0.0
 20
0.0
 30
0.0
 75
     0
  1
AcDbOsnapPointRef
 72
     1
331
3FC
 73
     2
 91
        2
 40
1.0
 10
0.0
 20
0.0
 30
0.0
 75
     0
  0
DIMASSOC
  5
49A
102
{ACAD_REACTORS
330
499
102
}
330
499
100
AcDbDimAssoc
330
498
 90
        2
 70
     0
 71
     1
  1
AcDbOsnapPointRef
 72
     1
331
48B
 73
     0
 91
        0
 40
0.0
 10
0.0
 20
0.0
 30
0.0
 75
     0
  0
DIMASSOC
  5
4CC
102
{ACAD_REACTORS
330
4CB
102
}
330
4CB
100
AcDbDimAssoc
330
4CA
 90
        3
 70
     0
 71
     1
  1
AcDbOsnapPointRef
 72
    13
331
3C3
 73
     2
 91
        1
 40
0.0
 10
0.0
 20
0.0
 30
0.0
 75
     0
  1
AcDbOsnapPointRef
 72
     1
331
40B
 73
     2
 91
        1
 40
1.0
 10
0.0
 20
0.0
 30
0.0
 75
     0
  0
DIMASSOC
  5
4DB
102
{ACAD_REACTORS
330
4DA
102
}
330
4DA
100
AcDbDimAssoc
330
4D9
 90
        3
 70
     0
 71
     1
  1
AcDbOsnapPointRef
 72
     1
331
3F8
 73
     2
 91
        1
 40
1.0
 10
0.0
 20
0.0
 30
0.0
 75
     0
  1
AcDbOsnapPointRef
 72
     1
331
48A
 73
     0
 91
        0
 40
0.0
 10
0.0
 20
0.0
 30
0.0
 75
     0
  0
DIMASSOC
  5
4EA
102
{ACAD_REACTORS
330
4E9
102
}
330
4E9
100
AcDbDimAssoc
330
4E8
 90
        3
 70
     0
 71
     1
  1
AcDbOsnapPointRef
 72
     1
331
12F
 73
     2
 91
        1
 40
1.0
 10
0.0
 20
0.0
 30
0.0
 75
     0
  1
AcDbOsnapPointRef
 72
     8
331
110
 73
     0
 91
        0
 40
0.0332299550059387
 10
0.0
 20
0.0
 30
0.0
 75
     1
  1
AcDbOsnapPointRef
 72
     1
331
12F
 73
     2
 91
        1
 40
1.0
 10
0.0
 20
0.0
 30
0.0
 75
     0
  0
DIMASSOC
  5
50A
102
{ACAD_REACTORS
330
509
102
}
330
509
100
AcDbDimAssoc
330
508
 90
        3
 70
     0
 71
     1
  1
AcDbOsnapPointRef
 72
     1
331
3FC
 73
     2
 91
        3
 40
1.0
 10
0.0
 20
0.0
 30
0.0
 75
     0
  1
AcDbOsnapPointRef
 72
    13
331
4B7
 73
     0
 91
        0
 40
0.0
 10
0.0
 20
0.0
 30
0.0
 75
     0
  0
DIMASSOC
  5
519
102
{ACAD_REACTORS
330
518
102
}
330
518
100
AcDbDimAssoc
330
517
 90
        3
 70
     0
 71
     1
  1
AcDbOsnapPointRef
 72
    13
331
4B9
 73
     0
 91
        0
 40
0.0
 10
0.0
 20
0.0
 30
0.0
 75
     0
  1
AcDbOsnapPointRef
 72
    13
331
3F8
 73
     2
 91
        1
 40
0.0
 10
0.0
 20
0.0
 30
0.0
 75
     0
  0
DIMASSOC
  5
52B
102
{ACAD_REACTORS
330
52A
102
}
330
52A
100
AcDbDimAssoc
330
529
 90
        3
 70
     0
 71
     1
  1
AcDbOsnapPointRef
 72
    13
331
23E
 73
     0
 91
        0
 40
0.0
 10
0.0
 20
0.0
 30
0.0
 75
     0
  1
AcDbOsnapPointRef
 72
    13
331
114
 73
     0
 91
        0
 40
0.0
 10
0.0
 20
0.0
 30
0.0
 75
     0
  0
DIMASSOC
  5
58E
102
{ACAD_REACTORS
330
58D
102
}
330
58D
100
AcDbDimAssoc
330
58C
 90
        3
 70
     0
 71
     1
  1
AcDbOsnapPointRef
 72
    13
331
582
 73
     2
 91
        1
 40
0.0
 10
0.0
 20
0.0
 30
0.0
 75
     0
  1
AcDbOsnapPointRef
 72
     1
331
583
 73
     2
 91
        1
 40
1.0
 10
0.0
 20
0.0
 30
0.0
 75
     0
  0
DIMASSOC
  5
594
102
{ACAD_REACTORS
330
593
102
}
330
593
100
AcDbDimAssoc
330
592
 90
        3
 70
     0
 71
     1
  1
AcDbOsnapPointRef
 72
     1
331
58B
 73
     2
 91
        3
 40
1.0
 10
0.0
 20
0.0
 30
0.0
 75
     0
  1
AcDbOsnapPointRef
 72
    13
331
587
 73
     0
 91
        0
 40
0.0
 10
0.0
 20
0.0
 30
0.0
 75
     0
  0
DIMASSOC
  5
597
102
{ACAD_REACTORS
330
596
102
}
330
596
100
AcDbDimAssoc
330
595
 90
        3
 70
     0
 71
     1
  1
AcDbOsnapPointRef
 72
    13
331
589
 73
     0
 91
        0
 40
0.0
 10
0.0
 20
0.0
 30
0.0
 75
     0
  1
AcDbOsnapPointRef
 72
    13
331
58A
 73
     2
 91
        1
 40
0.0
 10
0.0
 20
0.0
 30
0.0
 75
     0
  0
DIMASSOC
  5
5BE
102
{ACAD_REACTORS
330
5BD
102
}
330
5BD
100
AcDbDimAssoc
330
5BC
 90
        3
 70
     0
 71
     1
  1
AcDbOsnapPointRef
 72
     1
331
585
 73
     0
 91
        0
 40
0.0
 10
0.0
 20
0.0
 30
0.0
 75
     0
  1
AcDbOsnapPointRef
 72
     1
331
48B
 73
     0
 91
        0
 40
0.0
 10
0.0
 20
0.0
 30
0.0
 75
     0
  0
LAYOUT
  5
22
102
{ACAD_REACTORS
330
1A
102
}
330
1A
100
AcDbPlotSettings
  1

  2
none_device
  4
ISO_A3_(420.00_x_297.00_MM)
  6

 40
7.5
 41
20.0
 42
7.5
 43
20.0
 44
420.0
 45
297.0
 46
20.78282828282826
 47
0.0
 48
0.0
 49
0.0
140
0.0
141
0.0
142
1.0
143
1.155642023346303
 70
  1204
 72
     1
 73
     0
 74
     1
  7
monochrome.ctb
 75
     0
 76
     0
 77
     2
 78
   300
147
0.8653198653198654
148
-134.1869158878504
149
0.0
100
AcDbLayout
  1
Model
 70
     1
 71
     0
 10
0.0
 20
0.0
 11
420.0
 21
297.0
 12
0.0
 22
0.0
 32
0.0
 14
0.7615487896706554
 24
-29.76889886066426
 34
0.0
 15
233.2234507203938
 25
139.4837933132339
 35
0.0
146
0.0
 13
0.0
 23
0.0
 33
0.0
 16
1.0
 26
0.0
 36
0.0
 17
0.0
 27
1.0
 37
0.0
 76
     0
330
1F
331
29
  0
LAYOUT
  5
1E
102
{ACAD_REACTORS
330
1A
102
}
330
1A
100
AcDbPlotSettings
  1

  2
none_device
  4

  6

 40
0.0
 41
0.0
 42
0.0
 43
0.0
 44
0.0
 45
0.0
 46
0.0
 47
0.0
 48
0.0
 49
0.0
140
0.0
141
0.0
142
1.0
143
1.0
 70
   688
 72
     0
 73
     0
 74
     5
  7

 75
    16
 76
     0
 77
     2
 78
   300
147
1.0
148
0.0
149
0.0
100
AcDbLayout
  1
Sheet1
 70
     1
 71
     1
 10
0.0
 20
0.0
 11
420.0
 21
297.0
 12
0.0
 22
0.0
 32
0.0
 14
1.000000000000000E+20
 24
1.000000000000000E+20
 34
1.000000000000000E+20
 15
-1.000000000000000E+20
 25
-1.000000000000000E+20
 35
-1.000000000000000E+20
146
0.0
 13
0.0
 23
0.0
 33
0.0
 16
1.0
 26
0.0
 36
0.0
 17
0.0
 27
1.0
 37
0.0
 76
     0
330
1B
  0
LAYOUT
  5
26
102
{ACAD_REACTORS
330
1A
102
}
330
1A
100
AcDbPlotSettings
  1

  2
none_device
  4

  6

 40
0.0
 41
0.0
 42
0.0
 43
0.0
 44
0.0
 45
0.0
 46
0.0
 47
0.0
 48
0.0
 49
0.0
140
0.0
141
0.0
142
1.0
143
1.0
 70
   688
 72
     0
 73
     0
 74
     5
  7

 75
    16
 76
     0
 77
     2
 78
   300
147
1.0
148
0.0
149
0.0
100
AcDbLayout
  1
Sheet2
 70
     1
 71
     2
 10
0.0
 20
0.0
 11
0.0
 21
0.0
 12
0.0
 22
0.0
 32
0.0
 14
0.0
 24
0.0
 34
0.0
 15
0.0
 25
0.0
 35
0.0
146
0.0
 13
0.0
 23
0.0
 33
0.0
 16
1.0
 26
0.0
 36
0.0
 17
0.0
 27
1.0
 37
0.0
 76
     0
330
23
  0
MATERIAL
  5
74
102
{ACAD_REACTORS
330
72
102
}
330
72
100
AcDbMaterial
  1
ByBlock
 72
     1
 94
      127
  0
MATERIAL
  5
73
102
{ACAD_REACTORS
330
72
102
}
330
72
100
AcDbMaterial
  1
ByLayer
 72
     1
 94
      127
  0
MATERIAL
  5
75
102
{ACAD_REACTORS
330
72
102
}
330
72
100
AcDbMaterial
  1
Global
 72
     1
 94
      127
  0
MLEADERSTYLE
  5
B7
102
{ACAD_REACTORS
330
3F
102
}
330
3F
100
AcDbMLeaderStyle
179
     2
170
     2
171
     1
172
     0
 90
        2
 40
0.0
 41
0.0
173
     1
 91
-1056964608
340
14
 92
       -2
290
     1
 42
2.0
291
     1
 43
8.0
  3
Standard
341
0
 44
4.0
300

342
11
174
     1
178
     6
175
     1
176
     0
 93
-1056964608
 45
4.0
292
     0
297
     0
 46
4.0
343
0
 94
-1056964608
 47
1.0
 49
1.0
140
1.0
293
     1
141
0.0
294
     1
177
     0
142
1.0
295
     0
296
     0
143
3.75
271
     0
272
     9
273
     9
298
     0
  0
MLINESTYLE
  5
18
102
{ACAD_REACTORS
330
17
102
}
330
17
100
AcDbMlineStyle
  2
Standard
 70
     0
  3

 62
   256
 51
90.0
 52
90.0
 71
     2
 49
0.5
 62
   256
  6
BYLAYER
 49
-0.5
 62
   256
  6
BYLAYER
  0
ACDBPLACEHOLDER
  5
F
102
{ACAD_REACTORS
330
E
102
}
330
E
  0
SCALE
  5
144
102
{ACAD_REACTORS
330
40
102
}
330
40
100
AcDbScale
 70
     0
300
1:1_XREF_XREF
140
1.0
141
1.0
290
     0
  0
SCALE
  5
41
102
{ACAD_REACTORS
330
40
102
}
330
40
100
AcDbScale
 70
     0
300
1:1
140
1.0
141
1.0
290
     1
  0
SCALE
  5
42
102
{ACAD_REACTORS
330
40
102
}
330
40
100
AcDbScale
 70
     0
300
1:2
140
1.0
141
2.0
290
     0
  0
SCALE
  5
43
102
{ACAD_REACTORS
330
40
102
}
330
40
100
AcDbScale
 70
     0
300
1:4
140
1.0
141
4.0
290
     0
  0
SCALE
  5
44
102
{ACAD_REACTORS
330
40
102
}
330
40
100
AcDbScale
 70
     0
300
1:5
140
1.0
141
5.0
290
     0
  0
SCALE
  5
45
102
{ACAD_REACTORS
330
40
102
}
330
40
100
AcDbScale
 70
     0
300
1:8
140
1.0
141
8.0
290
     0
  0
SCALE
  5
46
102
{ACAD_REACTORS
330
40
102
}
330
40
100
AcDbScale
 70
     0
300
1:10
140
1.0
141
10.0
290
     0
  0
SCALE
  5
47
102
{ACAD_REACTORS
330
40
102
}
330
40
100
AcDbScale
 70
     0
300
1:16
140
1.0
141
16.0
290
     0
  0
SCALE
  5
48
102
{ACAD_REACTORS
330
40
102
}
330
40
100
AcDbScale
 70
     0
300
1:20
140
1.0
141
20.0
290
     0
  0
SCALE
  5
49
102
{ACAD_REACTORS
330
40
102
}
330
40
100
AcDbScale
 70
     0
300
1:30
140
1.0
141
30.0
290
     0
  0
SCALE
  5
4A
102
{ACAD_REACTORS
330
40
102
}
330
40
100
AcDbScale
 70
     0
300
1:40
140
1.0
141
40.0
290
     0
  0
SCALE
  5
4B
102
{ACAD_REACTORS
330
40
102
}
330
40
100
AcDbScale
 70
     0
300
1:50
140
1.0
141
50.0
290
     0
  0
SCALE
  5
4C
102
{ACAD_REACTORS
330
40
102
}
330
40
100
AcDbScale
 70
     0
300
1:100
140
1.0
141
100.0
290
     0
  0
SCALE
  5
4D
102
{ACAD_REACTORS
330
40
102
}
330
40
100
AcDbScale
 70
     0
300
2:1
140
2.0
141
1.0
290
     0
  0
SCALE
  5
4E
102
{ACAD_REACTORS
330
40
102
}
330
40
100
AcDbScale
 70
     0
300
4:1
140
4.0
141
1.0
290
     0
  0
SCALE
  5
4F
102
{ACAD_REACTORS
330
40
102
}
330
40
100
AcDbScale
 70
     0
300
8:1
140
8.0
141
1.0
290
     0
  0
SCALE
  5
50
102
{ACAD_REACTORS
330
40
102
}
330
40
100
AcDbScale
 70
     0
300
10:1
140
10.0
141
1.0
290
     0
  0
SCALE
  5
51
102
{ACAD_REACTORS
330
40
102
}
330
40
100
AcDbScale
 70
     0
300
100:1
140
100.0
141
1.0
290
     0
  0
SCALE
  5
52
102
{ACAD_REACTORS
330
40
102
}
330
40
100
AcDbScale
 70
     0
300
1/128" = 1'-0"
140
0.0078125
141
12.0
290
     0
  0
SCALE
  5
53
102
{ACAD_REACTORS
330
40
102
}
330
40
100
AcDbScale
 70
     0
300
1/64" = 1'-0"
140
0.015625
141
12.0
290
     0
  0
SCALE
  5
54
102
{ACAD_REACTORS
330
40
102
}
330
40
100
AcDbScale
 70
     0
300
1/32" = 1'-0"
140
0.03125
141
12.0
290
     0
  0
SCALE
  5
55
102
{ACAD_REACTORS
330
40
102
}
330
40
100
AcDbScale
 70
     0
300
1/16" = 1'-0"
140
0.0625
141
12.0
290
     0
  0
SCALE
  5
56
102
{ACAD_REACTORS
330
40
102
}
330
40
100
AcDbScale
 70
     0
300
3/32" = 1'-0"
140
0.09375
141
12.0
290
     0
  0
SCALE
  5
57
102
{ACAD_REACTORS
330
40
102
}
330
40
100
AcDbScale
 70
     0
300
1/8" = 1'-0"
140
0.125
141
12.0
290
     0
  0
SCALE
  5
58
102
{ACAD_REACTORS
330
40
102
}
330
40
100
AcDbScale
 70
     0
300
3/16" = 1'-0"
140
0.1875
141
12.0
290
     0
  0
SCALE
  5
59
102
{ACAD_REACTORS
330
40
102
}
330
40
100
AcDbScale
 70
     0
300
1/4" = 1'-0"
140
0.25
141
12.0
290
     0
  0
SCALE
  5
5A
102
{ACAD_REACTORS
330
40
102
}
330
40
100
AcDbScale
 70
     0
300
3/8" = 1'-0"
140
0.375
141
12.0
290
     0
  0
SCALE
  5
5B
102
{ACAD_REACTORS
330
40
102
}
330
40
100
AcDbScale
 70
     0
300
1/2" = 1'-0"
140
0.5
141
12.0
290
     0
  0
SCALE
  5
5C
102
{ACAD_REACTORS
330
40
102
}
330
40
100
AcDbScale
 70
     0
300
3/4" = 1'-0"
140
0.75
141
12.0
290
     0
  0
SCALE
  5
5D
102
{ACAD_REACTORS
330
40
102
}
330
40
100
AcDbScale
 70
     0
300
1" = 1'-0"
140
1.0
141
12.0
290
     0
  0
SCALE
  5
5E
102
{ACAD_REACTORS
330
40
102
}
330
40
100
AcDbScale
 70
     0
300
1-1/2" = 1'-0"
140
1.5
141
12.0
290
     0
  0
SCALE
  5
5F
102
{ACAD_REACTORS
330
40
102
}
330
40
100
AcDbScale
 70
     0
300
3" = 1'-0"
140
3.0
141
12.0
290
     0
  0
SCALE
  5
60
102
{ACAD_REACTORS
330
40
102
}
330
40
100
AcDbScale
 70
     0
300
6" = 1'-0"
140
6.0
141
12.0
290
     0
  0
SCALE
  5
61
102
{ACAD_REACTORS
330
40
102
}
330
40
100
AcDbScale
 70
     0
300
1'-0" = 1'-0"
140
12.0
141
12.0
290
     0
  0
TABLESTYLE
  5
3C
102
{ACAD_REACTORS
330
3B
102
}
102
{ACAD_XDICTIONARY
360
5DA
102
}
330
3B
100
AcDbTableStyle
  3
Standard
 70
     0
 71
     0
 40
1.5
 41
1.5
280
     0
281
     0
  7
Standard
140
4.5
170
     2
 62
     0
 63
   257
283
     0
 90
      512
 91
        0
  1

274
    -2
284
     1
 64
     0
275
    -2
285
     1
 65
     0
276
    -2
286
     1
 66
     0
277
    -2
287
     1
 67
     0
278
    -2
288
     1
 68
     0
279
    -2
289
     1
 69
     0
  7
Standard
140
6.0
170
     5
 62
     0
 63
   257
283
     0
 90
      512
 91
        0
  1

274
    -2
284
     1
 64
     0
275
    -2
285
     1
 65
     0
276
    -2
286
     1
 66
     0
277
    -2
287
     1
 67
     0
278
    -2
288
     1
 68
     0
279
    -2
289
     1
 69
     0
  7
Standard
140
4.5
170
     5
 62
     0
 63
   257
283
     0
 90
      512
 91
        0
  1

274
    -2
284
     1
 64
     0
275
    -2
285
     1
 65
     0
276
    -2
286
     1
 66
     0
277
    -2
287
     1
 67
     0
278
    -2
288
     1
 68
     0
279
    -2
289
     1
 69
     0
  0
VISUALSTYLE
  5
2F
102
{ACAD_REACTORS
330
2A
102
}
330
2A
100
AcDbVisualStyle
  2
2dWireframe
 70
     4
177
     3
291
     0
 70
    58
 90
        0
176
     1
 90
        2
176
     1
 90
        0
176
     1
 90
        0
176
     1
 40
-0.6
176
     1
 40
-30.0
176
     1
 62
     7
420
 16777215
176
     1
 90
        1
176
     1
 90
        4
176
     1
 62
     7
176
     1
 62
   257
176
     1
 90
        1
176
     1
 90
        1
176
     1
 40
1.0
176
     1
 90
        0
176
     1
 62
   257
176
     1
 40
1.0
176
     1
 90
        1
176
     1
 90
        6
176
     1
 90
        2
176
     1
 62
     7
176
     1
 90
        5
176
     1
 90
        0
176
     1
 90
        0
176
     1
290
     0
176
     1
 90
        1
176
     1
 40
0.0
176
     1
 90
        0
176
     1
290
     1
176
     1
290
     1
176
     1
290
     0
176
     1
290
     0
176
     1
290
     0
176
     1
290
     0
176
     1
290
     0
176
     1
290
     0
176
     1
290
     0
176
     1
 90
       50
176
     1
 40
0.0
176
     1
 40
1.0
176
     1
 90
        0
176
     1
 62
   178
420
        0
176
     1
 90
       50
176
     1
 90
        3
176
     1
 62
     5
420
      255
176
     1
290
     0
176
     1
 90
       50
176
     1
 90
       50
176
     1
 90
       50
176
     1
290
     0
176
     1
 90
       50
176
     1
 62
   256
176
     0
 40
1.0
176
     0
 90
        2
176
     1
  1
strokes_ogs.tif
176
     1
290
     0
176
     1
 40
1.0
176
     1
 40
1.0
176
     1
  0
VISUALSTYLE
  5
31
102
{ACAD_REACTORS
330
2A
102
}
330
2A
100
AcDbVisualStyle
  2
3D Hidden
 70
     6
177
     3
291
     0
 70
    58
 90
        1
176
     1
 90
        2
176
     1
 90
        2
176
     1
 90
        0
176
     1
 40
-0.6
176
     1
 40
-30.0
176
     1
 62
     7
420
 16777215
176
     1
 90
        2
176
     1
 90
        2
176
     1
 62
     7
176
     1
 62
   257
176
     1
 90
        2
176
     1
 90
        1
176
     1
 40
40.0
176
     1
 90
        0
176
     1
 62
   257
176
     1
 40
1.0
176
     1
 90
        1
176
     1
 90
        6
176
     1
 90
        2
176
     1
 62
     7
176
     1
 90
        3
176
     1
 90
        0
176
     1
 90
        0
176
     1
290
     0
176
     1
 90
        1
176
     1
 40
0.0
176
     1
 90
        0
176
     1
290
     0
176
     1
290
     1
176
     1
290
     1
176
     1
290
     0
176
     1
290
     0
176
     1
290
     0
176
     1
290
     0
176
     1
290
     0
176
     1
290
     0
176
     1
 90
       50
176
     1
 40
0.0
176
     1
 40
1.0
176
     1
 90
        0
176
     1
 62
   178
420
        0
176
     1
 90
       50
176
     1
 90
        3
176
     1
 62
     5
420
      255
176
     1
290
     0
176
     1
 90
       50
176
     1
 90
       50
176
     1
 90
       50
176
     1
290
     0
176
     1
 90
       50
176
     1
 62
   256
176
     0
 40
1.0
176
     0
 90
        2
176
     1
  1
strokes_ogs.tif
176
     1
290
     0
176
     1
 40
1.0
176
     1
 40
1.0
176
     1
  0
VISUALSTYLE
  5
30
102
{ACAD_REACTORS
330
2A
102
}
330
2A
100
AcDbVisualStyle
  2
3dWireframe
 70
     5
177
     3
291
     0
 70
    58
 90
        0
176
     1
 90
        2
176
     1
 90
        0
176
     1
 90
        0
176
     1
 40
-0.6
176
     1
 40
-30.0
176
     1
 62
     7
420
 16777215
176
     1
 90
        1
176
     1
 90
        4
176
     1
 62
     7
176
     1
 62
   257
176
     1
 90
        1
176
     1
 90
        1
176
     1
 40
1.0
176
     1
 90
        0
176
     1
 62
   257
176
     1
 40
1.0
176
     1
 90
        1
176
     1
 90
        6
176
     1
 90
        2
176
     1
 62
     7
176
     1
 90
        5
176
     1
 90
        0
176
     1
 90
        0
176
     1
290
     0
176
     1
 90
        1
176
     1
 40
0.0
176
     1
 90
        0
176
     1
290
     0
176
     1
290
     1
176
     1
290
     1
176
     1
290
     0
176
     1
290
     0
176
     1
290
     0
176
     1
290
     0
176
     1
290
     0
176
     1
290
     0
176
     1
 90
       50
176
     1
 40
0.0
176
     1
 40
1.0
176
     1
 90
        0
176
     1
 62
   178
420
        0
176
     1
 90
       50
176
     1
 90
        3
176
     1
 62
     5
420
      255
176
     1
290
     0
176
     1
 90
       50
176
     1
 90
       50
176
     1
 90
       50
176
     1
290
     0
176
     1
 90
       50
176
     1
 62
   256
176
     0
 40
1.0
176
     0
 90
        2
176
     1
  1
strokes_ogs.tif
176
     1
290
     0
176
     1
 40
1.0
176
     1
 40
1.0
176
     1
  0
VISUALSTYLE
  5
32
102
{ACAD_REACTORS
330
2A
102
}
330
2A
100
AcDbVisualStyle
  2
Basic
 70
     7
177
     3
291
     1
 70
    58
 90
        1
176
     1
 90
        0
176
     1
 90
        1
176
     1
 90
        0
176
     1
 40
-0.6
176
     1
 40
-30.0
176
     1
 62
     7
420
 16777215
176
     1
 90
        0
176
     1
 90
        4
176
     1
 62
     7
176
     1
 62
   257
176
     1
 90
        1
176
     1
 90
        1
176
     1
 40
1.0
176
     1
 90
        8
176
     1
 62
     7
176
     1
 40
1.0
176
     1
 90
        1
176
     1
 90
        6
176
     1
 90
        2
176
     1
 62
     7
176
     1
 90
        5
176
     1
 90
        0
176
     1
 90
        0
176
     1
290
     0
176
     1
 90
        1
176
     1
 40
0.0
176
     1
 90
        0
176
     1
290
     0
176
     1
290
     1
176
     1
290
     1
176
     1
290
     0
176
     1
290
     0
176
     1
290
     0
176
     1
290
     0
176
     1
290
     0
176
     1
290
     0
176
     1
 90
       50
176
     1
 40
0.0
176
     1
 40
1.0
176
     1
 90
        0
176
     1
 62
   178
420
        0
176
     1
 90
       50
176
     1
 90
        3
176
     1
 62
     5
420
      255
176
     1
290
     0
176
     1
 90
       50
176
     1
 90
       50
176
     1
 90
       50
176
     1
290
     0
176
     1
 90
       50
176
     1
 62
   256
176
     0
 40
1.0
176
     0
 90
        2
176
     1
  1
strokes_ogs.tif
176
     1
290
     0
176
     1
 40
1.0
176
     1
 40
1.0
176
     1
  0
VISUALSTYLE
  5
36
102
{ACAD_REACTORS
330
2A
102
}
330
2A
100
AcDbVisualStyle
  2
Brighten
 70
    12
177
     3
291
     1
 70
    58
 90
        2
176
     1
 90
        2
176
     1
 90
        0
176
     1
 90
        0
176
     1
 40
-0.6
176
     1
 40
-30.0
176
     1
 62
     7
420
 16777215
176
     1
 90
        1
176
     1
 90
        4
176
     1
 62
     7
176
     1
 62
   257
176
     1
 90
        1
176
     1
 90
        1
176
     1
 40
1.0
176
     1
 90
        8
176
     1
 62
     7
176
     1
 40
1.0
176
     1
 90
        1
176
     1
 90
        6
176
     1
 90
        2
176
     1
 62
     7
176
     1
 90
        5
176
     1
 90
        0
176
     1
 90
        0
176
     1
290
     0
176
     1
 90
        1
176
     1
 40
50.0
176
     1
 90
        0
176
     1
290
     0
176
     1
290
     1
176
     1
290
     1
176
     1
290
     0
176
     1
290
     0
176
     1
290
     0
176
     1
290
     0
176
     1
290
     0
176
     1
290
     0
176
     1
 90
       50
176
     1
 40
0.0
176
     1
 40
1.0
176
     1
 90
        0
176
     1
 62
   178
420
        0
176
     1
 90
       50
176
     1
 90
        3
176
     1
 62
     5
420
      255
176
     1
290
     0
176
     1
 90
       50
176
     1
 90
       50
176
     1
 90
       50
176
     1
290
     0
176
     1
 90
       50
176
     1
 62
   256
176
     0
 40
1.0
176
     0
 90
        2
176
     1
  1
strokes_ogs.tif
176
     1
290
     0
176
     1
 40
1.0
176
     1
 40
1.0
176
     1
  0
VISUALSTYLE
  5
3A
102
{ACAD_REACTORS
330
2A
102
}
330
2A
100
AcDbVisualStyle
  2
ColorChange
 70
    16
177
     3
291
     1
 70
    58
 90
        2
176
     1
 90
        2
176
     1
 90
        3
176
     1
 90
        0
176
     1
 40
-0.6
176
     1
 40
-30.0
176
     1
 62
     8
420
  8421504
176
     1
 90
        1
176
     1
 90
        4
176
     1
 62
     7
176
     1
 62
   257
176
     1
 90
        1
176
     1
 90
        1
176
     1
 40
1.0
176
     1
 90
        8
176
     1
 62
     8
420
  8421504
176
     1
 40
1.0
176
     1
 90
        1
176
     1
 90
        6
176
     1
 90
        2
176
     1
 62
     7
176
     1
 90
        5
176
     1
 90
        0
176
     1
 90
        0
176
     1
290
     0
176
     1
 90
        1
176
     1
 40
0.0
176
     1
 90
        0
176
     1
290
     0
176
     1
290
     1
176
     1
290
     1
176
     1
290
     0
176
     1
290
     0
176
     1
290
     0
176
     1
290
     0
176
     1
290
     0
176
     1
290
     0
176
     1
 90
       50
176
     1
 40
0.0
176
     1
 40
1.0
176
     1
 90
        0
176
     1
 62
   178
420
        0
176
     1
 90
       50
176
     1
 90
        3
176
     1
 62
     5
420
      255
176
     1
290
     0
176
     1
 90
       50
176
     1
 90
       50
176
     1
 90
       50
176
     1
290
     0
176
     1
 90
       50
176
     1
 62
   256
176
     0
 40
1.0
176
     0
 90
        2
176
     1
  1
strokes_ogs.tif
176
     1
290
     0
176
     1
 40
1.0
176
     1
 40
1.0
176
     1
  0
VISUALSTYLE
  5
34
102
{ACAD_REACTORS
330
2A
102
}
330
2A
100
AcDbVisualStyle
  2
Conceptual
 70
     9
177
     3
291
     0
 70
    58
 90
        3
176
     1
 90
        2
176
     1
 90
        0
176
     1
 90
        0
176
     1
 40
-0.6
176
     1
 40
-30.0
176
     1
 62
     7
420
 16777215
176
     1
 90
        2
176
     1
 90
        2
176
     1
 62
     7
176
     1
 62
   257
176
     1
 90
        1
176
     1
 90
        1
176
     1
 40
40.0
176
     1
 90
        8
176
     1
 62
     7
176
     1
 40
1.0
176
     1
 90
        1
176
     1
 90
        6
176
     1
 90
        2
176
     1
 62
     7
176
     1
 90
        3
176
     1
 90
        0
176
     1
 90
        0
176
     1
290
     0
176
     1
 90
        1
176
     1
 40
0.0
176
     1
 90
        0
176
     1
290
     0
176
     1
290
     1
176
     1
290
     1
176
     1
290
     0
176
     1
290
     0
176
     1
290
     0
176
     1
290
     0
176
     1
290
     0
176
     1
290
     0
176
     1
 90
       50
176
     1
 40
0.0
176
     1
 40
1.0
176
     1
 90
        0
176
     1
 62
   178
420
        0
176
     1
 90
       50
176
     1
 90
        3
176
     1
 62
     5
420
      255
176
     1
290
     0
176
     1
 90
       50
176
     1
 90
       50
176
     1
 90
       50
176
     1
290
     0
176
     1
 90
       50
176
     1
 62
   256
176
     0
 40
1.0
176
     0
 90
        2
176
     1
  1
strokes_ogs.tif
176
     1
290
     0
176
     1
 40
1.0
176
     1
 40
1.0
176
     1
  0
VISUALSTYLE
  5
35
102
{ACAD_REACTORS
330
2A
102
}
330
2A
100
AcDbVisualStyle
  2
Dim
 70
    11
177
     3
291
     1
 70
    58
 90
        2
176
     1
 90
        2
176
     1
 90
        0
176
     1
 90
        0
176
     1
 40
-0.6
176
     1
 40
-30.0
176
     1
 62
     7
420
 16777215
176
     1
 90
        1
176
     1
 90
        4
176
     1
 62
     7
176
     1
 62
   257
176
     1
 90
        1
176
     1
 90
        1
176
     1
 40
1.0
176
     1
 90
        8
176
     1
 62
     7
176
     1
 40
1.0
176
     1
 90
        1
176
     1
 90
        6
176
     1
 90
        2
176
     1
 62
     7
176
     1
 90
        5
176
     1
 90
        0
176
     1
 90
        0
176
     1
290
     0
176
     1
 90
        1
176
     1
 40
-50.0
176
     1
 90
        0
176
     1
290
     0
176
     1
290
     1
176
     1
290
     1
176
     1
290
     0
176
     1
290
     0
176
     1
290
     0
176
     1
290
     0
176
     1
290
     0
176
     1
290
     0
176
     1
 90
       50
176
     1
 40
0.0
176
     1
 40
1.0
176
     1
 90
        0
176
     1
 62
   178
420
        0
176
     1
 90
       50
176
     1
 90
        3
176
     1
 62
     5
420
      255
176
     1
290
     0
176
     1
 90
       50
176
     1
 90
       50
176
     1
 90
       50
176
     1
290
     0
176
     1
 90
       50
176
     1
 62
   256
176
     0
 40
1.0
176
     0
 90
        2
176
     1
  1
strokes_ogs.tif
176
     1
290
     0
176
     1
 40
1.0
176
     1
 40
1.0
176
     1
  0
VISUALSTYLE
  5
7A
102
{ACAD_REACTORS
330
2A
102
}
330
2A
100
AcDbVisualStyle
  2
EdgeColorOff
 70
    22
177
     3
291
     1
 70
    58
 90
        2
176
     1
 90
        2
176
     1
 90
        0
176
     1
 90
        0
176
     1
 40
0.6
176
     1
 40
30.0
176
     1
 62
     7
420
 16777215
176
     1
 90
        1
176
     1
 90
        4
176
     1
 62
     7
176
     1
 62
   257
176
     1
 90
        1
176
     1
 90
        1
176
     1
 40
1.0
176
     1
 90
        8
176
     1
 62
     7
176
     1
 40
1.0
176
     1
 90
        1
176
     1
 90
        6
176
     1
 90
        2
176
     1
 62
     7
176
     1
 90
        5
176
     1
 90
        0
176
     1
 90
        0
176
     1
290
     0
176
     1
 90
        1
176
     1
 40
0.0
176
     1
 90
        0
176
     1
290
     0
176
     1
290
     1
176
     1
290
     1
176
     1
290
     0
176
     1
290
     0
176
     1
290
     0
176
     1
290
     0
176
     1
290
     0
176
     1
290
     0
176
     1
 90
       50
176
     1
 40
0.0
176
     1
 40
1.0
176
     1
 90
        0
176
     1
 62
   178
420
        0
176
     1
 90
       50
176
     1
 90
        3
176
     1
 62
     5
420
      255
176
     1
290
     0
176
     1
 90
       50
176
     1
 90
       50
176
     1
 90
       50
176
     1
290
     0
176
     1
 90
       50
176
     1
 62
   256
176
     0
 40
1.0
176
     0
 90
        2
176
     1
  1
strokes_ogs.tif
176
     1
290
     0
176
     1
 40
1.0
176
     1
 40
1.0
176
     1
  0
VISUALSTYLE
  5
39
102
{ACAD_REACTORS
330
2A
102
}
330
2A
100
AcDbVisualStyle
  2
Facepattern
 70
    15
177
     3
291
     1
 70
    58
 90
        2
176
     1
 90
        2
176
     1
 90
        0
176
     1
 90
        0
176
     1
 40
-0.6
176
     1
 40
-30.0
176
     1
 62
     7
420
 16777215
176
     1
 90
        1
176
     1
 90
        4
176
     1
 62
     7
176
     1
 62
   257
176
     1
 90
        1
176
     1
 90
        1
176
     1
 40
1.0
176
     1
 90
        8
176
     1
 62
     7
176
     1
 40
1.0
176
     1
 90
        1
176
     1
 90
        6
176
     1
 90
        2
176
     1
 62
     7
176
     1
 90
        5
176
     1
 90
        0
176
     1
 90
        0
176
     1
290
     0
176
     1
 90
        1
176
     1
 40
0.0
176
     1
 90
        0
176
     1
290
     0
176
     1
290
     1
176
     1
290
     1
176
     1
290
     0
176
     1
290
     0
176
     1
290
     0
176
     1
290
     0
176
     1
290
     0
176
     1
290
     0
176
     1
 90
       50
176
     1
 40
0.0
176
     1
 40
1.0
176
     1
 90
        0
176
     1
 62
   178
420
        0
176
     1
 90
       50
176
     1
 90
        3
176
     1
 62
     5
420
      255
176
     1
290
     0
176
     1
 90
       50
176
     1
 90
       50
176
     1
 90
       50
176
     1
290
     0
176
     1
 90
       50
176
     1
 62
   256
176
     0
 40
1.0
176
     0
 90
        2
176
     1
  1
strokes_ogs.tif
176
     1
290
     0
176
     1
 40
1.0
176
     1
 40
1.0
176
     1
  0
VISUALSTYLE
  5
2B
102
{ACAD_REACTORS
330
2A
102
}
330
2A
100
AcDbVisualStyle
  2
Flat
 70
     0
177
     3
291
     1
 70
    58
 90
        2
176
     1
 90
        1
176
     1
 90
        1
176
     1
 90
        2
176
     1
 40
-0.6
176
     1
 40
30.0
176
     1
 62
     7
420
 16777215
176
     1
 90
        0
176
     1
 90
        4
176
     1
 62
     7
176
     1
 62
   257
176
     1
 90
        1
176
     1
 90
        1
176
     1
 40
1.0
176
     1
 90
        8
176
     1
 62
     7
176
     1
 40
1.0
176
     1
 90
        1
176
     1
 90
        6
176
     1
 90
        2
176
     1
 62
     7
176
     1
 90
        5
176
     1
 90
        0
176
     1
 90
        0
176
     1
290
     0
176
     1
 90
       13
176
     1
 40
0.0
176
     1
 90
        0
176
     1
290
     0
176
     1
290
     1
176
     1
290
     1
176
     1
290
     0
176
     1
290
     0
176
     1
290
     0
176
     1
290
     0
176
     1
290
     0
176
     1
290
     0
176
     1
 90
       50
176
     1
 40
0.0
176
     1
 40
1.0
176
     1
 90
        0
176
     1
 62
   178
420
        0
176
     1
 90
       50
176
     1
 90
        3
176
     1
 62
     5
420
      255
176
     1
290
     0
176
     1
 90
       50
176
     1
 90
       50
176
     1
 90
       50
176
     1
290
     0
176
     1
 90
       50
176
     1
 62
   256
176
     0
 40
1.0
176
     0
 90
        2
176
     1
  1
strokes_ogs.tif
176
     1
290
     0
176
     1
 40
1.0
176
     1
 40
1.0
176
     1
  0
VISUALSTYLE
  5
2C
102
{ACAD_REACTORS
330
2A
102
}
330
2A
100
AcDbVisualStyle
  2
FlatWithEdges
 70
     1
177
     3
291
     1
 70
    58
 90
        2
176
     1
 90
        1
176
     1
 90
        1
176
     1
 90
        2
176
     1
 40
-0.6
176
     1
 40
30.0
176
     1
 62
     7
420
 16777215
176
     1
 90
        1
176
     1
 90
        4
176
     1
 62
     7
176
     1
 62
   257
176
     1
 90
        1
176
     1
 90
        1
176
     1
 40
1.0
176
     1
 90
        0
176
     1
 62
   257
176
     1
 40
1.0
176
     1
 90
        1
176
     1
 90
        6
176
     1
 90
        2
176
     1
 62
     7
176
     1
 90
        5
176
     1
 90
        0
176
     1
 90
        0
176
     1
290
     0
176
     1
 90
       13
176
     1
 40
0.0
176
     1
 90
        0
176
     1
290
     0
176
     1
290
     1
176
     1
290
     1
176
     1
290
     0
176
     1
290
     0
176
     1
290
     0
176
     1
290
     0
176
     1
290
     0
176
     1
290
     0
176
     1
 90
       50
176
     1
 40
0.0
176
     1
 40
1.0
176
     1
 90
        0
176
     1
 62
   178
420
        0
176
     1
 90
       50
176
     1
 90
        3
176
     1
 62
     5
420
      255
176
     1
290
     0
176
     1
 90
       50
176
     1
 90
       50
176
     1
 90
       50
176
     1
290
     0
176
     1
 90
       50
176
     1
 62
   256
176
     0
 40
1.0
176
     0
 90
        2
176
     1
  1
strokes_ogs.tif
176
     1
290
     0
176
     1
 40
1.0
176
     1
 40
1.0
176
     1
  0
VISUALSTYLE
  5
2D
102
{ACAD_REACTORS
330
2A
102
}
330
2A
100
AcDbVisualStyle
  2
Gouraud
 70
     2
177
     3
291
     1
 70
    58
 90
        2
176
     1
 90
        2
176
     1
 90
        1
176
     1
 90
        2
176
     1
 40
-0.6
176
     1
 40
30.0
176
     1
 62
     7
420
 16777215
176
     1
 90
        0
176
     1
 90
        4
176
     1
 62
     7
176
     1
 62
   257
176
     1
 90
        1
176
     1
 90
        1
176
     1
 40
1.0
176
     1
 90
        0
176
     1
 62
     7
176
     1
 40
1.0
176
     1
 90
        1
176
     1
 90
        6
176
     1
 90
        2
176
     1
 62
     7
176
     1
 90
        5
176
     1
 90
        0
176
     1
 90
        0
176
     1
290
     0
176
     1
 90
       13
176
     1
 40
0.0
176
     1
 90
        0
176
     1
290
     0
176
     1
290
     1
176
     1
290
     1
176
     1
290
     0
176
     1
290
     0
176
     1
290
     0
176
     1
290
     0
176
     1
290
     0
176
     1
290
     0
176
     1
 90
       50
176
     1
 40
0.0
176
     1
 40
1.0
176
     1
 90
        0
176
     1
 62
   178
420
        0
176
     1
 90
       50
176
     1
 90
        3
176
     1
 62
     5
420
      255
176
     1
290
     0
176
     1
 90
       50
176
     1
 90
       50
176
     1
 90
       50
176
     1
290
     0
176
     1
 90
       50
176
     1
 62
   256
176
     0
 40
1.0
176
     0
 90
        2
176
     1
  1
strokes_ogs.tif
176
     1
290
     0
176
     1
 40
1.0
176
     1
 40
1.0
176
     1
  0
VISUALSTYLE
  5
2E
102
{ACAD_REACTORS
330
2A
102
}
330
2A
100
AcDbVisualStyle
  2
GouraudWithEdges
 70
     3
177
     3
291
     1
 70
    58
 90
        2
176
     1
 90
        2
176
     1
 90
        1
176
     1
 90
        2
176
     1
 40
-0.6
176
     1
 40
30.0
176
     1
 62
     7
420
 16777215
176
     1
 90
        1
176
     1
 90
        4
176
     1
 62
     7
176
     1
 62
   257
176
     1
 90
        1
176
     1
 90
        1
176
     1
 40
1.0
176
     1
 90
        0
176
     1
 62
   257
176
     1
 40
1.0
176
     1
 90
        1
176
     1
 90
        6
176
     1
 90
        2
176
     1
 62
     7
176
     1
 90
        5
176
     1
 90
        0
176
     1
 90
        0
176
     1
290
     0
176
     1
 90
       13
176
     1
 40
0.0
176
     1
 90
        0
176
     1
290
     0
176
     1
290
     1
176
     1
290
     1
176
     1
290
     0
176
     1
290
     0
176
     1
290
     0
176
     1
290
     0
176
     1
290
     0
176
     1
290
     0
176
     1
 90
       50
176
     1
 40
0.0
176
     1
 40
1.0
176
     1
 90
        0
176
     1
 62
   178
420
        0
176
     1
 90
       50
176
     1
 90
        3
176
     1
 62
     5
420
      255
176
     1
290
     0
176
     1
 90
       50
176
     1
 90
       50
176
     1
 90
       50
176
     1
290
     0
176
     1
 90
       50
176
     1
 62
   256
176
     0
 40
1.0
176
     0
 90
        2
176
     1
  1
strokes_ogs.tif
176
     1
290
     0
176
     1
 40
1.0
176
     1
 40
1.0
176
     1
  0
VISUALSTYLE
  5
77
102
{ACAD_REACTORS
330
2A
102
}
330
2A
100
AcDbVisualStyle
  2
Hidden
 70
     6
177
     3
291
     0
 70
    58
 90
        1
176
     1
 90
        2
176
     1
 90
        2
176
     1
 90
        0
176
     1
 40
0.6
176
     1
 40
30.0
176
     1
 62
     7
420
 16777215
176
     1
 90
        2
176
     1
 90
        2
176
     1
 62
     7
176
     1
 62
   257
176
     1
 90
        2
176
     1
 90
        1
176
     1
 40
40.0
176
     1
 90
        0
176
     1
 62
   257
176
     1
 40
1.0
176
     1
 90
        1
176
     1
 90
        6
176
     1
 90
        2
176
     1
 62
     7
176
     1
 90
        3
176
     1
 90
        0
176
     1
 90
        0
176
     1
290
     0
176
     1
 90
        1
176
     1
 40
0.0
176
     1
 90
        0
176
     1
290
     0
176
     1
290
     1
176
     1
290
     1
176
     1
290
     0
176
     1
290
     0
176
     1
290
     0
176
     1
290
     0
176
     1
290
     0
176
     1
290
     0
176
     1
 90
       50
176
     1
 40
0.0
176
     1
 40
1.0
176
     1
 90
        0
176
     1
 62
   178
420
        0
176
     1
 90
       50
176
     1
 90
        3
176
     1
 62
     5
420
      255
176
     1
290
     0
176
     1
 90
       50
176
     1
 90
       50
176
     1
 90
       50
176
     1
290
     0
176
     1
 90
       50
176
     1
 62
   256
176
     0
 40
1.0
176
     0
 90
        2
176
     1
  1
strokes_ogs.tif
176
     1
290
     0
176
     1
 40
1.0
176
     1
 40
1.0
176
     1
  0
VISUALSTYLE
  5
78
102
{ACAD_REACTORS
330
2A
102
}
330
2A
100
AcDbVisualStyle
  2
JitterOff
 70
    20
177
     3
291
     1
 70
    58
 90
        2
176
     1
 90
        2
176
     1
 90
        0
176
     1
 90
        0
176
     1
 40
0.6
176
     1
 40
30.0
176
     1
 62
     7
420
 16777215
176
     1
 90
        1
176
     1
 90
        4
176
     1
 62
     7
176
     1
 62
   257
176
     1
 90
        1
176
     1
 90
        1
176
     1
 40
1.0
176
     1
 90
       10
176
     1
 62
     7
176
     1
 40
1.0
176
     1
 90
        1
176
     1
 90
        6
176
     1
 90
        2
176
     1
 62
     7
176
     1
 90
        5
176
     1
 90
        0
176
     1
 90
        0
176
     1
290
     0
176
     1
 90
        1
176
     1
 40
0.0
176
     1
 90
        0
176
     1
290
     0
176
     1
290
     1
176
     1
290
     1
176
     1
290
     0
176
     1
290
     0
176
     1
290
     0
176
     1
290
     0
176
     1
290
     0
176
     1
290
     0
176
     1
 90
       50
176
     1
 40
0.0
176
     1
 40
1.0
176
     1
 90
        0
176
     1
 62
   178
420
        0
176
     1
 90
       50
176
     1
 90
        3
176
     1
 62
     5
420
      255
176
     1
290
     0
176
     1
 90
       50
176
     1
 90
       50
176
     1
 90
       50
176
     1
290
     0
176
     1
 90
       50
176
     1
 62
   256
176
     0
 40
1.0
176
     0
 90
        2
176
     1
  1
strokes_ogs.tif
176
     1
290
     0
176
     1
 40
1.0
176
     1
 40
1.0
176
     1
  0
VISUALSTYLE
  5
38
102
{ACAD_REACTORS
330
2A
102
}
330
2A
100
AcDbVisualStyle
  2
Linepattern
 70
    14
177
     3
291
     1
 70
    58
 90
        2
176
     1
 90
        2
176
     1
 90
        0
176
     1
 90
        0
176
     1
 40
-0.6
176
     1
 40
-30.0
176
     1
 62
     7
420
 16777215
176
     1
 90
        1
176
     1
 90
        4
176
     1
 62
     7
176
     1
 62
   257
176
     1
 90
        7
176
     1
 90
        7
176
     1
 40
1.0
176
     1
 90
        8
176
     1
 62
     7
176
     1
 40
1.0
176
     1
 90
        1
176
     1
 90
        6
176
     1
 90
        2
176
     1
 62
     7
176
     1
 90
        5
176
     1
 90
        0
176
     1
 90
        0
176
     1
290
     0
176
     1
 90
        1
176
     1
 40
0.0
176
     1
 90
        0
176
     1
290
     0
176
     1
290
     1
176
     1
290
     1
176
     1
290
     0
176
     1
290
     0
176
     1
290
     0
176
     1
290
     0
176
     1
290
     0
176
     1
290
     0
176
     1
 90
       50
176
     1
 40
0.0
176
     1
 40
1.0
176
     1
 90
        0
176
     1
 62
   178
420
        0
176
     1
 90
       50
176
     1
 90
        3
176
     1
 62
     5
420
      255
176
     1
290
     0
176
     1
 90
       50
176
     1
 90
       50
176
     1
 90
       50
176
     1
290
     0
176
     1
 90
       50
176
     1
 62
   256
176
     0
 40
1.0
176
     0
 90
        2
176
     1
  1
strokes_ogs.tif
176
     1
290
     0
176
     1
 40
1.0
176
     1
 40
1.0
176
     1
  0
VISUALSTYLE
  5
79
102
{ACAD_REACTORS
330
2A
102
}
330
2A
100
AcDbVisualStyle
  2
OverhangOff
 70
    21
177
     3
291
     1
 70
    58
 90
        2
176
     1
 90
        2
176
     1
 90
        0
176
     1
 90
        0
176
     1
 40
0.6
176
     1
 40
30.0
176
     1
 62
     7
420
 16777215
176
     1
 90
        1
176
     1
 90
        4
176
     1
 62
     7
176
     1
 62
   257
176
     1
 90
        1
176
     1
 90
        1
176
     1
 40
1.0
176
     1
 90
        9
176
     1
 62
     7
176
     1
 40
1.0
176
     1
 90
        1
176
     1
 90
        6
176
     1
 90
        2
176
     1
 62
     7
176
     1
 90
        5
176
     1
 90
        0
176
     1
 90
        0
176
     1
290
     0
176
     1
 90
        1
176
     1
 40
0.0
176
     1
 90
        0
176
     1
290
     0
176
     1
290
     1
176
     1
290
     1
176
     1
290
     0
176
     1
290
     0
176
     1
290
     0
176
     1
290
     0
176
     1
290
     0
176
     1
290
     0
176
     1
 90
       50
176
     1
 40
0.0
176
     1
 40
1.0
176
     1
 90
        0
176
     1
 62
   178
420
        0
176
     1
 90
       50
176
     1
 90
        3
176
     1
 62
     5
420
      255
176
     1
290
     0
176
     1
 90
       50
176
     1
 90
       50
176
     1
 90
       50
176
     1
290
     0
176
     1
 90
       50
176
     1
 62
   256
176
     0
 40
1.0
176
     0
 90
        2
176
     1
  1
strokes_ogs.tif
176
     1
290
     0
176
     1
 40
1.0
176
     1
 40
1.0
176
     1
  0
VISUALSTYLE
  5
33
102
{ACAD_REACTORS
330
2A
102
}
330
2A
100
AcDbVisualStyle
  2
Realistic
 70
     8
177
     3
291
     0
 70
    58
 90
        2
176
     1
 90
        2
176
     1
 90
        0
176
     1
 90
        0
176
     1
 40
-0.6
176
     1
 40
-30.0
176
     1
 62
     7
420
 16777215
176
     1
 90
        1
176
     1
 90
        0
176
     1
 62
     7
176
     1
 62
   257
176
     1
 90
        1
176
     1
 90
        1
176
     1
 40
1.0
176
     1
 90
        8
176
     1
 62
     8
420
  7895160
176
     1
 40
1.0
176
     1
 90
        1
176
     1
 90
        6
176
     1
 90
        2
176
     1
 62
     7
176
     1
 90
        5
176
     1
 90
        0
176
     1
 90
        0
176
     1
290
     0
176
     1
 90
       13
176
     1
 40
0.0
176
     1
 90
        0
176
     1
290
     0
176
     1
290
     1
176
     1
290
     1
176
     1
290
     0
176
     1
290
     0
176
     1
290
     0
176
     1
290
     0
176
     1
290
     0
176
     1
290
     0
176
     1
 90
       50
176
     1
 40
0.0
176
     1
 40
1.0
176
     1
 90
        0
176
     1
 62
   178
420
        0
176
     1
 90
       50
176
     1
 90
        3
176
     1
 62
     5
420
      255
176
     1
290
     0
176
     1
 90
       50
176
     1
 90
       50
176
     1
 90
       50
176
     1
290
     0
176
     1
 90
       50
176
     1
 62
   256
176
     0
 40
1.0
176
     0
 90
        2
176
     1
  1
strokes_ogs.tif
176
     1
290
     0
176
     1
 40
1.0
176
     1
 40
1.0
176
     1
  0
VISUALSTYLE
  5
7F
102
{ACAD_REACTORS
330
2A
102
}
330
2A
100
AcDbVisualStyle
  2
Shaded
 70
    27
177
     3
291
     0
 70
    58
 90
        2
176
     1
 90
        2
176
     1
 90
        1
176
     1
 90
        2
176
     1
 40
0.6
176
     1
 40
30.0
176
     1
 62
     7
420
 16777215
176
     1
 90
        0
176
     1
 90
        4
176
     1
 62
     7
176
     1
 62
   257
176
     1
 90
        1
176
     1
 90
        1
176
     1
 40
1.0
176
     1
 90
        8
176
     1
 62
   257
176
     1
 40
1.0
176
     1
 90
        1
176
     1
 90
        6
176
     1
 90
        2
176
     1
 62
     8
420
  7895160
176
     1
 90
        3
176
     1
 90
        0
176
     1
 90
        0
176
     1
290
     0
176
     1
 90
        5
176
     1
 40
0.0
176
     1
 90
        0
176
     1
290
     0
176
     1
290
     1
176
     1
290
     1
176
     1
290
     0
176
     1
290
     0
176
     1
290
     0
176
     1
290
     0
176
     1
290
     0
176
     1
290
     0
176
     1
 90
       50
176
     1
 40
0.0
176
     1
 40
1.0
176
     1
 90
        0
176
     1
 62
   178
420
        0
176
     1
 90
       50
176
     1
 90
        3
176
     1
 62
     5
420
      255
176
     1
290
     0
176
     1
 90
       50
176
     1
 90
       50
176
     1
 90
       50
176
     1
290
     0
176
     1
 90
       50
176
     1
 62
   256
176
     0
 40
1.0
176
     0
 90
        2
176
     1
  1
strokes_ogs.tif
176
     1
290
     0
176
     1
 40
1.0
176
     1
 40
1.0
176
     1
  0
VISUALSTYLE
  5
7E
102
{ACAD_REACTORS
330
2A
102
}
330
2A
100
AcDbVisualStyle
  2
Shaded with edges
 70
    26
177
     3
291
     0
 70
    58
 90
        2
176
     1
 90
        2
176
     1
 90
        1
176
     1
 90
        2
176
     1
 40
0.6
176
     1
 40
30.0
176
     1
 62
     7
420
 16777215
176
     1
 90
        1
176
     1
 90
       10
176
     1
 62
     7
176
     1
 62
   257
176
     1
 90
        2
176
     1
 90
        1
176
     1
 40
1.0
176
     1
 90
        8
176
     1
 62
   257
176
     1
 40
1.0
176
     1
 90
        1
176
     1
 90
        6
176
     1
 90
        2
176
     1
 62
     7
176
     1
 90
        3
176
     1
 90
        0
176
     1
 90
        0
176
     1
290
     0
176
     1
 90
        5
176
     1
 40
0.0
176
     1
 90
        0
176
     1
290
     0
176
     1
290
     1
176
     1
290
     1
176
     1
290
     0
176
     1
290
     0
176
     1
290
     0
176
     1
290
     0
176
     1
290
     0
176
     1
290
     0
176
     1
 90
       50
176
     1
 40
0.0
176
     1
 40
1.0
176
     1
 90
        0
176
     1
 62
   178
420
        0
176
     1
 90
       50
176
     1
 90
        3
176
     1
 62
     5
420
      255
176
     1
290
     0
176
     1
 90
       50
176
     1
 90
       50
176
     1
 90
       50
176
     1
290
     0
176
     1
 90
       50
176
     1
 62
   256
176
     0
 40
1.0
176
     0
 90
        2
176
     1
  1
strokes_ogs.tif
176
     1
290
     0
176
     1
 40
1.0
176
     1
 40
1.0
176
     1
  0
VISUALSTYLE
  5
7B
102
{ACAD_REACTORS
330
2A
102
}
330
2A
100
AcDbVisualStyle
  2
Shades of Gray
 70
    23
177
     3
291
     0
 70
    58
 90
        2
176
     1
 90
        2
176
     1
 90
        3
176
     1
 90
        0
176
     1
 40
0.6
176
     1
 40
30.0
176
     1
 62
     7
420
 16777215
176
     1
 90
        2
176
     1
 90
        2
176
     1
 62
     7
176
     1
 62
     7
176
     1
 90
        1
176
     1
 90
        1
176
     1
 40
40.0
176
     1
 90
        8
176
     1
 62
     7
176
     1
 40
1.0
176
     1
 90
        1
176
     1
 90
        6
176
     1
 90
        2
176
     1
 62
     7
176
     1
 90
        3
176
     1
 90
        0
176
     1
 90
        0
176
     1
290
     0
176
     1
 90
        1
176
     1
 40
0.0
176
     1
 90
        0
176
     1
290
     0
176
     1
290
     1
176
     1
290
     1
176
     1
290
     0
176
     1
290
     0
176
     1
290
     0
176
     1
290
     0
176
     1
290
     0
176
     1
290
     0
176
     1
 90
       50
176
     1
 40
0.0
176
     1
 40
1.0
176
     1
 90
        0
176
     1
 62
   178
420
        0
176
     1
 90
       50
176
     1
 90
        3
176
     1
 62
     5
420
      255
176
     1
290
     0
176
     1
 90
       50
176
     1
 90
       50
176
     1
 90
       50
176
     1
290
     0
176
     1
 90
       50
176
     1
 62
   256
176
     0
 40
1.0
176
     0
 90
        2
176
     1
  1
strokes_ogs.tif
176
     1
290
     0
176
     1
 40
1.0
176
     1
 40
1.0
176
     1
  0
VISUALSTYLE
  5
7C
102
{ACAD_REACTORS
330
2A
102
}
330
2A
100
AcDbVisualStyle
  2
Sketchy
 70
    24
177
     3
291
     0
 70
    58
 90
        1
176
     1
 90
        2
176
     1
 90
        2
176
     1
 90
        0
176
     1
 40
0.6
176
     1
 40
30.0
176
     1
 62
     7
420
 16777215
176
     1
 90
        2
176
     1
 90
        2
176
     1
 62
     7
176
     1
 62
     7
176
     1
 90
        1
176
     1
 90
        1
176
     1
 40
40.0
176
     1
 90
       11
176
     1
 62
     7
176
     1
 40
1.0
176
     1
 90
        1
176
     1
 90
        6
176
     1
 90
        2
176
     1
 62
     7
176
     1
 90
        6
176
     1
 90
        0
176
     1
 90
        0
176
     1
290
     0
176
     1
 90
        1
176
     1
 40
0.0
176
     1
 90
        0
176
     1
290
     0
176
     1
290
     1
176
     1
290
     1
176
     1
290
     0
176
     1
290
     0
176
     1
290
     0
176
     1
290
     0
176
     1
290
     0
176
     1
290
     0
176
     1
 90
       50
176
     1
 40
0.0
176
     1
 40
1.0
176
     1
 90
        0
176
     1
 62
   178
420
        0
176
     1
 90
       50
176
     1
 90
        3
176
     1
 62
     5
420
      255
176
     1
290
     0
176
     1
 90
       50
176
     1
 90
       50
176
     1
 90
       50
176
     1
290
     0
176
     1
 90
       50
176
     1
 62
   256
176
     0
 40
1.0
176
     0
 90
        2
176
     1
  1
strokes_ogs.tif
176
     1
290
     0
176
     1
 40
1.0
176
     1
 40
1.0
176
     1
  0
VISUALSTYLE
  5
37
102
{ACAD_REACTORS
330
2A
102
}
330
2A
100
AcDbVisualStyle
  2
Thicken
 70
    13
177
     3
291
     1
 70
    58
 90
        2
176
     1
 90
        2
176
     1
 90
        0
176
     1
 90
        0
176
     1
 40
-0.6
176
     1
 40
-30.0
176
     1
 62
     7
420
 16777215
176
     1
 90
        1
176
     1
 90
        4
176
     1
 62
     7
176
     1
 62
   257
176
     1
 90
        1
176
     1
 90
        1
176
     1
 40
1.0
176
     1
 90
       12
176
     1
 62
     7
176
     1
 40
1.0
176
     1
 90
        1
176
     1
 90
        6
176
     1
 90
        2
176
     1
 62
     7
176
     1
 90
        5
176
     1
 90
        0
176
     1
 90
        0
176
     1
290
     0
176
     1
 90
        1
176
     1
 40
0.0
176
     1
 90
        0
176
     1
290
     0
176
     1
290
     1
176
     1
290
     1
176
     1
290
     0
176
     1
290
     0
176
     1
290
     0
176
     1
290
     0
176
     1
290
     0
176
     1
290
     0
176
     1
 90
       50
176
     1
 40
0.0
176
     1
 40
1.0
176
     1
 90
        0
176
     1
 62
   178
420
        0
176
     1
 90
       50
176
     1
 90
        3
176
     1
 62
     5
420
      255
176
     1
290
     0
176
     1
 90
       50
176
     1
 90
       50
176
     1
 90
       50
176
     1
290
     0
176
     1
 90
       50
176
     1
 62
   256
176
     0
 40
1.0
176
     0
 90
        2
176
     1
  1
strokes_ogs.tif
176
     1
290
     0
176
     1
 40
1.0
176
     1
 40
1.0
176
     1
  0
VISUALSTYLE
  5
76
102
{ACAD_REACTORS
330
2A
102
}
330
2A
100
AcDbVisualStyle
  2
Wireframe
 70
     5
177
     3
291
     0
 70
    58
 90
        0
176
     1
 90
        2
176
     1
 90
        0
176
     1
 90
        0
176
     1
 40
0.6
176
     1
 40
30.0
176
     1
 62
     7
420
 16777215
176
     1
 90
        1
176
     1
 90
        4
176
     1
 62
     7
176
     1
 62
   257
176
     1
 90
        1
176
     1
 90
        1
176
     1
 40
1.0
176
     1
 90
        0
176
     1
 62
   257
176
     1
 40
1.0
176
     1
 90
        1
176
     1
 90
        6
176
     1
 90
        2
176
     1
 62
     7
176
     1
 90
        3
176
     1
 90
        0
176
     1
 90
        0
176
     1
290
     0
176
     1
 90
        1
176
     1
 40
0.0
176
     1
 90
        0
176
     1
290
     0
176
     1
290
     1
176
     1
290
     1
176
     1
290
     0
176
     1
290
     0
176
     1
290
     0
176
     1
290
     0
176
     1
290
     0
176
     1
290
     0
176
     1
 90
       50
176
     1
 40
0.0
176
     1
 40
1.0
176
     1
 90
        0
176
     1
 62
   178
420
        0
176
     1
 90
       50
176
     1
 90
        3
176
     1
 62
     5
420
      255
176
     1
290
     0
176
     1
 90
       50
176
     1
 90
       50
176
     1
 90
       50
176
     1
290
     0
176
     1
 90
       50
176
     1
 62
   256
176
     0
 40
1.0
176
     0
 90
        2
176
     1
  1
strokes_ogs.tif
176
     1
290
     0
176
     1
 40
1.0
176
     1
 40
1.0
176
     1
  0
VISUALSTYLE
  5
7D
102
{ACAD_REACTORS
330
2A
102
}
330
2A
100
AcDbVisualStyle
  2
X-Ray
 70
    25
177
     3
291
     0
 70
    58
 90
        2
176
     1
 90
        2
176
     1
 90
        1
176
     1
 90
        1
176
     1
 40
0.5
176
     1
 40
30.0
176
     1
 62
     7
420
 16777215
176
     1
 90
        1
176
     1
 90
        0
176
     1
 62
     7
176
     1
 62
   257
176
     1
 90
        1
176
     1
 90
        1
176
     1
 40
1.0
176
     1
 90
        8
176
     1
 62
     7
176
     1
 40
1.0
176
     1
 90
        1
176
     1
 90
        6
176
     1
 90
        2
176
     1
 62
     7
176
     1
 90
        3
176
     1
 90
        0
176
     1
 90
        0
176
     1
290
     0
176
     1
 90
       13
176
     1
 40
0.0
176
     1
 90
        0
176
     1
290
     0
176
     1
290
     1
176
     1
290
     1
176
     1
290
     0
176
     1
290
     0
176
     1
290
     0
176
     1
290
     0
176
     1
290
     0
176
     1
290
     0
176
     1
 90
       50
176
     1
 40
0.0
176
     1
 40
1.0
176
     1
 90
        0
176
     1
 62
   178
420
        0
176
     1
 90
       50
176
     1
 90
        3
176
     1
 62
     5
420
      255
176
     1
290
     0
176
     1
 90
       50
176
     1
 90
       50
176
     1
 90
       50
176
     1
290
     0
176
     1
 90
       50
176
     1
 62
   256
176
     0
 40
1.0
176
     0
 90
        2
176
     1
  1
strokes_ogs.tif
176
     1
290
     0
176
     1
 40
1.0
176
     1
 40
1.0
176
     1
  0
DICTIONARYVAR
  5
62
102
{ACAD_REACTORS
330
3D
102
}
330
3D
100
DictionaryVariables
280
     0
  1
1:1
  0
DICTIONARYVAR
  5
13A
102
{ACAD_REACTORS
330
3D
102
}
330
3D
100
DictionaryVariables
280
     0
  1
Standard
  0
DICTIONARYVAR
  5
3E
102
{ACAD_REACTORS
330
3D
102
}
330
3D
100
DictionaryVariables
280
     0
  1
Standard
  0
DICTIONARYVAR
  5
20C
102
{ACAD_REACTORS
330
3D
102
}
330
3D
100
DictionaryVariables
280
     0
  1
ByLayer
  0
DICTIONARYVAR
  5
6F
102
{ACAD_REACTORS
330
3D
102
}
330
3D
100
DictionaryVariables
280
     0
  1
0
  0
DICTIONARYVAR
  5
70
102
{ACAD_REACTORS
330
3D
102
}
330
3D
100
DictionaryVariables
280
     0
  1
0
  0
DICTIONARYVAR
  5
351
102
{ACAD_REACTORS
330
20D
102
}
330
20D
100
DictionaryVariables
280
     0
  1
0.261799
  0
DICTIONARYVAR
  5
34F
102
{ACAD_REACTORS
330
20D
102
}
330
20D
100
DictionaryVariables
280
     0
  1
0.400000
  0
DICTIONARYVAR
  5
350
102
{ACAD_REACTORS
330
20D
102
}
330
20D
100
DictionaryVariables
280
     0
  1
0.250000
  0
DICTIONARYVAR
  5
352
102
{ACAD_REACTORS
330
20D
102
}
330
20D
100
DictionaryVariables
280
     0
  1
1
  0
DICTIONARY
  5
5DA
330
3C
100
AcDbDictionary
280
     1
281
     1
  3
ACAD_ROUNDTRIP_2008_TABLESTYLE_CELLSTYLEMAP
360
5DB
  0
CELLSTYLEMAP
  5
5DB
102
{ACAD_REACTORS
330
5DA
102
}
330
5DA
100
AcDbCellStyleMap
 90
        3
300
CELLSTYLE
  1
TABLEFORMAT_BEGIN
 90
        5
170
     1
 91
        0
 92
    32768
 62
   257
 93
        1
300
CONTENTFORMAT
  1
CONTENTFORMAT_BEGIN
 90
        0
 91
        0
 92
      512
 93
        0
300

 40
0.0
140
1.0
 94
        5
 62
     0
340
11
144
6.0
309
CONTENTFORMAT_END
171
     1
301
MARGIN
  1
CELLMARGIN_BEGIN
 40
1.5
 40
1.5
 40
1.5
 40
1.5
 40
0.18
 40
0.18
309
CELLMARGIN_END
 94
        6
 95
        1
302
GRIDFORMAT
  1
GRIDFORMAT_BEGIN
 90
        0
 91
        1
 62
     0
 92
       -2
340
0
 93
        0
 40
0.045
309
GRIDFORMAT_END
 95
        2
302
GRIDFORMAT
  1
GRIDFORMAT_BEGIN
 90
        0
 91
        1
 62
     0
 92
       -2
340
0
 93
        0
 40
0.045
309
GRIDFORMAT_END
 95
        4
302
GRIDFORMAT
  1
GRIDFORMAT_BEGIN
 90
        0
 91
        1
 62
     0
 92
       -2
340
0
 93
        0
 40
0.045
309
GRIDFORMAT_END
 95
        8
302
GRIDFORMAT
  1
GRIDFORMAT_BEGIN
 90
        0
 91
        1
 62
     0
 92
       -2
340
0
 93
        0
 40
0.045
309
GRIDFORMAT_END
 95
       16
302
GRIDFORMAT
  1
GRIDFORMAT_BEGIN
 90
        0
 91
        1
 62
     0
 92
       -2
340
0
 93
        0
 40
0.045
309
GRIDFORMAT_END
 95
       32
302
GRIDFORMAT
  1
GRIDFORMAT_BEGIN
 90
        0
 91
        1
 62
     0
 92
       -2
340
0
 93
        0
 40
0.045
309
GRIDFORMAT_END
309
TABLEFORMAT_END
  1
CELLSTYLE_BEGIN
 90
        1
 91
        1
300
_TITLE
309
CELLSTYLE_END
300
CELLSTYLE
  1
TABLEFORMAT_BEGIN
 90
        5
170
     1
 91
        0
 92
        0
 62
   257
 93
        1
300
CONTENTFORMAT
  1
CONTENTFORMAT_BEGIN
 90
        0
 91
        0
 92
      512
 93
        0
300

 40
0.0
140
1.0
 94
        5
 62
     0
340
11
144
4.5
309
CONTENTFORMAT_END
171
     1
301
MARGIN
  1
CELLMARGIN_BEGIN
 40
1.5
 40
1.5
 40
1.5
 40
1.5
 40
0.18
 40
0.18
309
CELLMARGIN_END
 94
        6
 95
        1
302
GRIDFORMAT
  1
GRIDFORMAT_BEGIN
 90
        0
 91
        1
 62
     0
 92
       -2
340
0
 93
        0
 40
0.045
309
GRIDFORMAT_END
 95
        2
302
GRIDFORMAT
  1
GRIDFORMAT_BEGIN
 90
        0
 91
        1
 62
     0
 92
       -2
340
0
 93
        0
 40
0.045
309
GRIDFORMAT_END
 95
        4
302
GRIDFORMAT
  1
GRIDFORMAT_BEGIN
 90
        0
 91
        1
 62
     0
 92
       -2
340
0
 93
        0
 40
0.045
309
GRIDFORMAT_END
 95
        8
302
GRIDFORMAT
  1
GRIDFORMAT_BEGIN
 90
        0
 91
        1
 62
     0
 92
       -2
340
0
 93
        0
 40
0.045
309
GRIDFORMAT_END
 95
       16
302
GRIDFORMAT
  1
GRIDFORMAT_BEGIN
 90
        0
 91
        1
 62
     0
 92
       -2
340
0
 93
        0
 40
0.045
309
GRIDFORMAT_END
 95
       32
302
GRIDFORMAT
  1
GRIDFORMAT_BEGIN
 90
        0
 91
        1
 62
     0
 92
       -2
340
0
 93
        0
 40
0.045
309
GRIDFORMAT_END
309
TABLEFORMAT_END
  1
CELLSTYLE_BEGIN
 90
        2
 91
        1
300
_HEADER
309
CELLSTYLE_END
300
CELLSTYLE
  1
TABLEFORMAT_BEGIN
 90
        5
170
     1
 91
        0
 92
        0
 62
   257
 93
        1
300
CONTENTFORMAT
  1
CONTENTFORMAT_BEGIN
 90
        0
 91
        0
 92
      512
 93
        0
300

 40
0.0
140
1.0
 94
        2
 62
     0
340
11
144
4.5
309
CONTENTFORMAT_END
171
     1
301
MARGIN
  1
CELLMARGIN_BEGIN
 40
1.5
 40
1.5
 40
1.5
 40
1.5
 40
0.18
 40
0.18
309
CELLMARGIN_END
 94
        6
 95
        1
302
GRIDFORMAT
  1
GRIDFORMAT_BEGIN
 90
        0
 91
        1
 62
     0
 92
       -2
340
0
 93
        0
 40
0.045
309
GRIDFORMAT_END
 95
        2
302
GRIDFORMAT
  1
GRIDFORMAT_BEGIN
 90
        0
 91
        1
 62
     0
 92
       -2
340
0
 93
        0
 40
0.045
309
GRIDFORMAT_END
 95
        4
302
GRIDFORMAT
  1
GRIDFORMAT_BEGIN
 90
        0
 91
        1
 62
     0
 92
       -2
340
0
 93
        0
 40
0.045
309
GRIDFORMAT_END
 95
        8
302
GRIDFORMAT
  1
GRIDFORMAT_BEGIN
 90
        0
 91
        1
 62
     0
 92
       -2
340
0
 93
        0
 40
0.045
309
GRIDFORMAT_END
 95
       16
302
GRIDFORMAT
  1
GRIDFORMAT_BEGIN
 90
        0
 91
        1
 62
     0
 92
       -2
340
0
 93
        0
 40
0.045
309
GRIDFORMAT_END
 95
       32
302
GRIDFORMAT
  1
GRIDFORMAT_BEGIN
 90
        0
 91
        1
 62
     0
 92
       -2
340
0
 93
        0
 40
0.045
309
GRIDFORMAT_END
309
TABLEFORMAT_END
  1
CELLSTYLE_BEGIN
 90
        3
 91
        2
300
_DATA
309
CELLSTYLE_END
  0
ENDSEC
  0
EOF
