  0
SECTION
  2
HEADER
  9
$ACADVER
  1
AC1015
  9
$ACADMAINTVER
 70
     6
  9
$DWGCODEPAGE
  3
ANSI_1252
  9
$INSBASE
 10
0.0
 20
0.0
 30
0.0
  9
$EXTMIN
 10
1.000000000000000E+20
 20
1.000000000000000E+20
 30
1.000000000000000E+20
  9
$EXTMAX
 10
-1.000000000000000E+20
 20
-1.000000000000000E+20
 30
-1.000000000000000E+20
  9
$LIMMIN
 10
0.0
 20
0.0
  9
$LIMMAX
 10
420.0
 20
297.0
  9
$ORTHOMODE
 70
     0
  9
$REGENMODE
 70
     1
  9
$FILLMODE
 70
     1
  9
$QTEXTMODE
 70
     0
  9
$MIRRTEXT
 70
     0
  9
$LTSCALE
 40
1.0
  9
$ATTMODE
 70
     1
  9
$TEXTSIZE
 40
2.5
  9
$TRACEWID
 40
1.0
  9
$TEXTSTYLE
  7
Standard
  9
$CLAYER
  8
0
  9
$CELTYPE
  6
ByLayer
  9
$CECOLOR
 62
   256
  9
$CELTSCALE
 40
1.0
  9
$DISPSILH
 70
     0
  9
$DIMSCALE
 40
1.0
  9
$DIMASZ
 40
2.5
  9
$DIMEXO
 40
0.625
  9
$DIMDLI
 40
3.75
  9
$DIMRND
 40
0.0
  9
$DIMDLE
 40
0.0
  9
$DIMEXE
 40
1.25
  9
$DIMTP
 40
0.0
  9
$DIMTM
 40
0.0
  9
$DIMTXT
 40
2.5
  9
$DIMCEN
 40
2.5
  9
$DIMTSZ
 40
0.0
  9
$DIMTOL
 70
     0
  9
$DIMLIM
 70
     0
  9
$DIMTIH
 70
     0
  9
$DIMTOH
 70
     0
  9
$DIMSE1
 70
     0
  9
$DIMSE2
 70
     0
  9
$DIMTAD
 70
     1
  9
$DIMZIN
 70
     8
  9
$DIMBLK
  1

  9
$DIMASO
 70
     1
  9
$DIMSHO
 70
     1
  9
$DIMPOST
  1

  9
$DIMAPOST
  1

  9
$DIMALT
 70
     0
  9
$DIMALTD
 70
     3
  9
$DIMALTF
 40
0.03937007874016
  9
$DIMLFAC
 40
1.0
  9
$DIMTOFL
 70
     1
  9
$DIMTVP
 40
0.0
  9
$DIMTIX
 70
     0
  9
$DIMSOXD
 70
     0
  9
$DIMSAH
 70
     0
  9
$DIMBLK1
  1

  9
$DIMBLK2
  1

  9
$DIMSTYLE
  2
ISO-25
  9
$DIMCLRD
 70
     0
  9
$DIMCLRE
 70
     0
  9
$DIMCLRT
 70
     0
  9
$DIMTFAC
 40
1.0
  9
$DIMGAP
 40
0.625
  9
$DIMJUST
 70
     0
  9
$DIMSD1
 70
     0
  9
$DIMSD2
 70
     0
  9
$DIMTOLJ
 70
     0
  9
$DIMTZIN
 70
     8
  9
$DIMALTZ
 70
     0
  9
$DIMALTTZ
 70
     0
  9
$DIMUPT
 70
     0
  9
$DIMDEC
 70
     2
  9
$DIMTDEC
 70
     2
  9
$DIMALTU
 70
     2
  9
$DIMALTTD
 70
     3
  9
$DIMTXSTY
  7
Standard
  9
$DIMAUNIT
 70
     0
  9
$DIMADEC
 70
     0
  9
$DIMALTRND
 40
0.0
  9
$DIMAZIN
 70
     0
  9
$DIMDSEP
 70
    44
  9
$DIMATFIT
 70
     3
  9
$DIMFRAC
 70
     0
  9
$DIMLDRBLK
  1

  9
$DIMLUNIT
 70
     2
  9
$DIMLWD
 70
    -2
  9
$DIMLWE
 70
    -2
  9
$DIMTMOVE
 70
     0
  9
$LUNITS
 70
     2
  9
$LUPREC
 70
     3
  9
$SKETCHINC
 40
1.0
  9
$FILLETRAD
 40
1.0
  9
$AUNITS
 70
     0
  9
$AUPREC
 70
     0
  9
$MENU
  1
.
  9
$ELEVATION
 40
0.0
  9
$PELEVATION
 40
0.0
  9
$THICKNESS
 40
0.0
  9
$LIMCHECK
 70
     0
  9
$CHAMFERA
 40
10.0
  9
$CHAMFERB
 40
10.0
  9
$CHAMFERC
 40
20.0
  9
$CHAMFERD
 40
0.0
  9
$SKPOLY
 70
     0
  9
$TDCREATE
 40
2455022.67902618
  9
$TDUCREATE
 40
2455022.637359514
  9
$TDUPDATE
 40
2457428.467823831
  9
$TDUUPDATE
 40
2457428.426157164
  9
$TDINDWG
 40
0.0385746296
  9
$TDUSRTIMER
 40
2457427.743277766
  9
$USRTIMER
 70
     1
  9
$ANGBASE
 50
0.0
  9
$ANGDIR
 70
     0
  9
$PDMODE
 70
     0
  9
$PDSIZE
 40
0.0
  9
$PLINEWID
 40
0.0
  9
$SPLFRAME
 70
     0
  9
$SPLINETYPE
 70
     6
  9
$SPLINESEGS
 70
     8
  9
$HANDSEED
  5
70D
  9
$SURFTAB1
 70
     6
  9
$SURFTAB2
 70
     6
  9
$SURFTYPE
 70
     6
  9
$SURFU
 70
     6
  9
$SURFV
 70
     6
  9
$UCSBASE
  2

  9
$UCSNAME
  2

  9
$UCSORG
 10
0.0
 20
0.0
 30
0.0
  9
$UCSXDIR
 10
1.0
 20
0.0
 30
0.0
  9
$UCSYDIR
 10
0.0
 20
1.0
 30
0.0
  9
$UCSORTHOREF
  2

  9
$UCSORTHOVIEW
 70
     0
  9
$UCSORGTOP
 10
0.0
 20
0.0
 30
0.0
  9
$UCSORGBOTTOM
 10
0.0
 20
0.0
 30
0.0
  9
$UCSORGLEFT
 10
0.0
 20
0.0
 30
0.0
  9
$UCSORGRIGHT
 10
0.0
 20
0.0
 30
0.0
  9
$UCSORGFRONT
 10
0.0
 20
0.0
 30
0.0
  9
$UCSORGBACK
 10
0.0
 20
0.0
 30
0.0
  9
$PUCSBASE
  2

  9
$PUCSNAME
  2

  9
$PUCSORG
 10
0.0
 20
0.0
 30
0.0
  9
$PUCSXDIR
 10
1.0
 20
0.0
 30
0.0
  9
$PUCSYDIR
 10
0.0
 20
1.0
 30
0.0
  9
$PUCSORTHOREF
  2

  9
$PUCSORTHOVIEW
 70
     0
  9
$PUCSORGTOP
 10
0.0
 20
0.0
 30
0.0
  9
$PUCSORGBOTTOM
 10
0.0
 20
0.0
 30
0.0
  9
$PUCSORGLEFT
 10
0.0
 20
0.0
 30
0.0
  9
$PUCSORGRIGHT
 10
0.0
 20
0.0
 30
0.0
  9
$PUCSORGFRONT
 10
0.0
 20
0.0
 30
0.0
  9
$PUCSORGBACK
 10
0.0
 20
0.0
 30
0.0
  9
$USERI1
 70
     0
  9
$USERI2
 70
     0
  9
$USERI3
 70
     0
  9
$USERI4
 70
     0
  9
$USERI5
 70
     0
  9
$USERR1
 40
0.0
  9
$USERR2
 40
0.0
  9
$USERR3
 40
0.0
  9
$USERR4
 40
0.0
  9
$USERR5
 40
0.0
  9
$WORLDVIEW
 70
     1
  9
$SHADEDGE
 70
     3
  9
$SHADEDIF
 70
    70
  9
$TILEMODE
 70
     1
  9
$MAXACTVP
 70
    64
  9
$PINSBASE
 10
0.0
 20
0.0
 30
0.0
  9
$PLIMCHECK
 70
     0
  9
$PEXTMIN
 10
1.000000000000000E+20
 20
1.000000000000000E+20
 30
1.000000000000000E+20
  9
$PEXTMAX
 10
-1.000000000000000E+20
 20
-1.000000000000000E+20
 30
-1.000000000000000E+20
  9
$PLIMMIN
 10
0.0
 20
0.0
  9
$PLIMMAX
 10
0.0
 20
0.0
  9
$UNITMODE
 70
     0
  9
$VISRETAIN
 70
     1
  9
$PLINEGEN
 70
     0
  9
$PSLTSCALE
 70
     1
  9
$TREEDEPTH
 70
  3020
  9
$CMLSTYLE
  2
Standard
  9
$CMLJUST
 70
     0
  9
$CMLSCALE
 40
20.0
  9
$PROXYGRAPHICS
 70
     1
  9
$MEASUREMENT
 70
     1
  9
$CELWEIGHT
370
    -1
  9
$ENDCAPS
280
     0
  9
$JOINSTYLE
280
     0
  9
$LWDISPLAY
290
     0
  9
$INSUNITS
 70
     4
  9
$HYPERLINKBASE
  1

  9
$STYLESHEET
  1

  9
$XEDIT
290
     1
  9
$CEPSNTYPE
380
     0
  9
$PSTYLEMODE
290
     1
  9
$FINGERPRINTGUID
  2
{EC6BB858-51AA-46EC-B484-6C9CC7AB3E2E}
  9
$VERSIONGUID
  2
{FAEB1C32-E019-11D5-929B-00C0DF256EC4}
  9
$EXTNAMES
290
     1
  9
$PSVPSCALE
 40
0.0
  9
$OLESTARTUP
290
     0
  0
ENDSEC
  0
SECTION
  2
CLASSES
  0
CLASS
  1
ACDBDICTIONARYWDFLT
  2
AcDbDictionaryWithDefault
  3
ObjectDBX Classes
 90
        0
280
     0
281
     0
  0
CLASS
  1
VISUALSTYLE
  2
AcDbVisualStyle
  3
ObjectDBX Classes
 90
     4095
280
     0
281
     0
  0
CLASS
  1
TABLESTYLE
  2
AcDbTableStyle
  3
ObjectDBX Classes
 90
     4095
280
     0
281
     0
  0
CLASS
  1
DICTIONARYVAR
  2
AcDbDictionaryVar
  3
ObjectDBX Classes
 90
        0
280
     0
281
     0
  0
CLASS
  1
SCALE
  2
AcDbScale
  3
ObjectDBX Classes
 90
     1153
280
     0
281
     0
  0
CLASS
  1
CELLSTYLEMAP
  2
AcDbCellStyleMap
  3
ObjectDBX Classes
 90
     1152
280
     0
281
     0
  0
CLASS
  1
RASTERVARIABLES
  2
AcDbRasterVariables
  3
ISM
 90
        0
280
     0
281
     0
  0
CLASS
  1
MATERIAL
  2
AcDbMaterial
  3
ObjectDBX Classes
 90
     1153
280
     0
281
     0
  0
CLASS
  1
SUN
  2
AcDbSun
  3
SCENEOE
 90
     1153
280
     0
281
     0
  0
CLASS
  1
MLEADERSTYLE
  2
AcDbMLeaderStyle
  3
ACDB_MLEADERSTYLE_CLASS
 90
     4095
280
     0
281
     0
  0
CLASS
  1
DIMASSOC
  2
AcDbDimAssoc
  3
"AcDbDimAssoc|Product Desc:     AcDim ARX App For Dimension|Company:          Autodesk, Inc.|WEB Address:      www.autodesk.com"
 90
        0
280
     0
281
     0
  0
CLASS
  1
ACDBPLACEHOLDER
  2
AcDbPlaceHolder
  3
ObjectDBX Classes
 90
        0
280
     0
281
     0
  0
CLASS
  1
LAYOUT
  2
AcDbLayout
  3
ObjectDBX Classes
 90
        0
280
     0
281
     0
  0
ENDSEC
  0
SECTION
  2
TABLES
  0
TABLE
  2
VPORT
  5
8
330
0
100
AcDbSymbolTable
 70
     1
  0
VPORT
  5
29
330
8
100
AcDbSymbolTableRecord
100
AcDbViewportTableRecord
  2
*Active
 70
     0
 10
0.0
 20
0.0
 11
1.0
 21
1.0
 12
1812.602372483444
 22
906.9469952113413
 13
0.0
 23
0.0
 14
10.0
 24
10.0
 15
10.0
 25
10.0
 16
0.0
 26
0.0
 36
1.0
 17
-134.1869158878499
 27
0.0
 37
0.0
 40
2295.970916748045
 41
1.948466257668712
 42
50.0
 43
0.0
 44
0.0
 50
0.0
 51
0.0
 71
    16
 72
  1000
 73
     1
 74
     3
 75
     0
 76
     0
 77
     0
 78
     0
281
     0
 65
     1
110
0.0
120
0.0
130
0.0
111
1.0
121
0.0
131
0.0
112
0.0
122
1.0
132
0.0
 79
     0
146
0.0
  0
ENDTAB
  0
TABLE
  2
LTYPE
  5
5
330
0
100
AcDbSymbolTable
 70
     1
  0
LTYPE
  5
14
330
5
100
AcDbSymbolTableRecord
100
AcDbLinetypeTableRecord
  2
ByBlock
 70
     0
  3

 72
    65
 73
     0
 40
0.0
  0
LTYPE
  5
15
330
5
100
AcDbSymbolTableRecord
100
AcDbLinetypeTableRecord
  2
ByLayer
 70
     0
  3

 72
    65
 73
     0
 40
0.0
  0
LTYPE
  5
16
330
5
100
AcDbSymbolTableRecord
100
AcDbLinetypeTableRecord
  2
Continuous
 70
     0
  3
Solid line
 72
    65
 73
     0
 40
0.0
  0
ENDTAB
  0
TABLE
  2
LAYER
  5
2
102
{ACAD_XDICTIONARY
360
CE
102
}
330
0
100
AcDbSymbolTable
 70
     4
  0
LAYER
  5
10
330
2
100
AcDbSymbolTableRecord
100
AcDbLayerTableRecord
  2
0
 70
     0
 62
     3
  6
Continuous
370
    -3
390
F
  0
LAYER
  5
D1
330
2
100
AcDbSymbolTableRecord
100
AcDbLayerTableRecord
  2
Main
 70
     0
 62
     7
  6
Continuous
370
    -3
390
F
1001
AcAecLayerStandard
1000

1000

  0
LAYER
  5
D3
330
2
100
AcDbSymbolTableRecord
100
AcDbLayerTableRecord
  2
Aux
 70
     0
 62
     1
  6
Continuous
370
    -3
390
F
1001
AcAecLayerStandard
1000

1000

  0
LAYER
  5
1B5
330
2
100
AcDbSymbolTableRecord
100
AcDbLayerTableRecord
  2
Defpoints
 70
     0
 62
     7
  6
Continuous
290
     0
370
    -3
390
F
  0
ENDTAB
  0
TABLE
  2
STYLE
  5
3
330
0
100
AcDbSymbolTable
 70
     1
  0
STYLE
  5
11
330
3
100
AcDbSymbolTableRecord
100
AcDbTextStyleTableRecord
  2
Standard
 70
     0
 40
0.0
 41
1.0
 50
0.0
 71
     0
 42
2.5
  3
arial.ttf
  4

1001
ACAD
1000
Arial
1071
        0
  0
ENDTAB
  0
TABLE
  2
VIEW
  5
6
330
0
100
AcDbSymbolTable
 70
     0
  0
ENDTAB
  0
TABLE
  2
UCS
  5
7
330
0
100
AcDbSymbolTable
 70
     0
  0
ENDTAB
  0
TABLE
  2
APPID
  5
9
330
0
100
AcDbSymbolTable
 70
     2
  0
APPID
  5
12
330
9
100
AcDbSymbolTableRecord
100
AcDbRegAppTableRecord
  2
ACAD
 70
     0
  0
APPID
  5
D2
330
9
100
AcDbSymbolTableRecord
100
AcDbRegAppTableRecord
  2
AcAecLayerStandard
 70
     0
  0
ENDTAB
  0
TABLE
  2
DIMSTYLE
  5
A
330
0
100
AcDbSymbolTable
 70
     1
100
AcDbDimStyleTable
  0
DIMSTYLE
105
27
102
{ACAD_REACTORS
330
1B6
330
1C5
330
1D4
330
1E3
330
1F2
330
201
102
}
330
A
100
AcDbSymbolTableRecord
100
AcDbDimStyleTableRecord
  2
ISO-25
 70
     0
 41
2.5
 42
0.625
 43
3.75
 44
1.25
 73
     0
 74
     0
 77
     1
 78
     8
140
2.5
141
2.5
143
0.03937007874016
147
0.625
171
     3
172
     1
178
     0
271
     2
272
     2
274
     3
278
    44
283
     0
284
     8
340
11
  0
ENDTAB
  0
TABLE
  2
BLOCK_RECORD
  5
1
330
0
100
AcDbSymbolTable
 70
    28
  0
BLOCK_RECORD
  5
1F
330
1
100
AcDbSymbolTableRecord
100
AcDbBlockTableRecord
  2
*Model_Space
340
22
  0
BLOCK_RECORD
  5
1B
330
1
100
AcDbSymbolTableRecord
100
AcDbBlockTableRecord
  2
*Paper_Space
340
1E
  0
BLOCK_RECORD
  5
23
330
1
100
AcDbSymbolTableRecord
100
AcDbBlockTableRecord
  2
*Paper_Space0
340
26
  0
BLOCK_RECORD
  5
1B9
330
1
100
AcDbSymbolTableRecord
100
AcDbBlockTableRecord
  2
*D4
340
0
  0
BLOCK_RECORD
  5
1C8
330
1
100
AcDbSymbolTableRecord
100
AcDbBlockTableRecord
  2
*D5
340
0
  0
BLOCK_RECORD
  5
1D7
330
1
100
AcDbSymbolTableRecord
100
AcDbBlockTableRecord
  2
*D6
340
0
  0
BLOCK_RECORD
  5
1E6
330
1
100
AcDbSymbolTableRecord
100
AcDbBlockTableRecord
  2
*D7
340
0
  0
BLOCK_RECORD
  5
1F5
330
1
100
AcDbSymbolTableRecord
100
AcDbBlockTableRecord
  2
*D8
340
0
  0
BLOCK_RECORD
  5
204
330
1
100
AcDbSymbolTableRecord
100
AcDbBlockTableRecord
  2
*D9
340
0
  0
ENDTAB
  0
ENDSEC
  0
SECTION
  2
BLOCKS
  0
BLOCK
  5
20
330
1F
100
AcDbEntity
  8
0
100
AcDbBlockBegin
  2
*Model_Space
 70
     0
 10
0.0
 20
0.0
 30
0.0
  3
*Model_Space
  1
*Model_Space
  0
ENDBLK
  5
21
330
1F
100
AcDbEntity
  8
0
100
AcDbBlockEnd
  0
BLOCK
  5
1C
330
1B
100
AcDbEntity
 67
     1
  8
0
100
AcDbBlockBegin
  2
*Paper_Space
 70
     0
 10
0.0
 20
0.0
 30
0.0
  3
*Paper_Space
  1
*Paper_Space
  0
ENDBLK
  5
1D
330
1B
100
AcDbEntity
 67
     1
  8
0
100
AcDbBlockEnd
  0
BLOCK
  5
24
330
23
100
AcDbEntity
  8
0
100
AcDbBlockBegin
  2
*Paper_Space0
 70
     0
 10
0.0
 20
0.0
 30
0.0
  3
*Paper_Space0
  1
*Paper_Space0
  0
ENDBLK
  5
25
330
23
100
AcDbEntity
  8
0
100
AcDbBlockEnd
  0
BLOCK
  5
1BA
330
1B9
100
AcDbEntity
  8
0
100
AcDbBlockBegin
  2
*D4
 70
     1
 10
0.0
 20
0.0
 30
0.0
  3
*D4
  1
*D4
  0
LINE
  5
1BC
330
1B9
100
AcDbEntity
  8
0
 62
     0
370
    -2
100
AcDbLine
 10
513.5926380368098
 20
83.35990797546015
 30
0.0
 11
513.5926380368098
 21
31.59949220669085
 31
0.0
  0
LINE
  5
1BD
330
1B9
100
AcDbEntity
  8
0
 62
     0
370
    -2
100
AcDbLine
 10
56.39263803680979
 20
83.35990797546015
 30
0.0
 11
56.39263803680979
 21
31.59949220669085
 31
0.0
  0
LINE
  5
1BE
330
1B9
100
AcDbEntity
  8
0
 62
     0
370
    -2
100
AcDbLine
 10
511.0926380368098
 20
32.84949220669085
 30
0.0
 11
58.89263803680979
 21
32.84949220669085
 31
0.0
  0
SOLID
  5
1BF
330
1B9
100
AcDbEntity
  8
0
 62
     0
100
AcDbTrace
 10
511.0926380368098
 20
32.43282554002419
 30
0.0
 11
511.0926380368098
 21
33.26615887335752
 31
0.0
 12
513.5926380368098
 22
32.84949220669085
 32
0.0
 13
513.5926380368098
 23
32.84949220669085
 33
0.0
  0
SOLID
  5
1C0
330
1B9
100
AcDbEntity
  8
0
 62
     0
100
AcDbTrace
 10
58.89263803680979
 20
33.26615887335752
 30
0.0
 11
58.89263803680979
 21
32.43282554002419
 31
0.0
 12
56.39263803680979
 22
32.84949220669085
 32
0.0
 13
56.39263803680979
 23
32.84949220669085
 33
0.0
  0
MTEXT
  5
1C1
330
1B9
100
AcDbEntity
  8
0
 62
     0
100
AcDbMText
 10
284.9926380368098
 20
45.48449220669086
 30
0.0
 40
20.0
 41
0.0
 71
     5
 72
     1
  1
457,2
 73
     1
 44
1.0
  0
POINT
  5
1C2
330
1B9
100
AcDbEntity
  8
Defpoints
 62
     0
100
AcDbPoint
 10
513.5926380368098
 20
83.98490797546015
 30
0.0
  0
POINT
  5
1C3
330
1B9
100
AcDbEntity
  8
Defpoints
 62
     0
100
AcDbPoint
 10
56.39263803680979
 20
83.98490797546015
 30
0.0
  0
POINT
  5
1C4
330
1B9
100
AcDbEntity
  8
Defpoints
 62
     0
100
AcDbPoint
 10
56.39263803680979
 20
32.84949220669085
 30
0.0
  0
ENDBLK
  5
1BB
330
1B9
100
AcDbEntity
  8
0
100
AcDbBlockEnd
  0
BLOCK
  5
1C9
330
1C8
100
AcDbEntity
  8
0
100
AcDbBlockBegin
  2
*D5
 70
     1
 10
0.0
 20
0.0
 30
0.0
  3
*D5
  1
*D5
  0
LINE
  5
1CB
330
1C8
100
AcDbEntity
  8
0
 62
     0
370
    -2
100
AcDbLine
 10
55.76763803680979
 20
388.7849079754602
 30
0.0
 11
-30.58254925312643
 21
388.7849079754602
 31
0.0
  0
LINE
  5
1CC
330
1C8
100
AcDbEntity
  8
0
 62
     0
370
    -2
100
AcDbLine
 10
55.76763803680981
 20
83.98490797546015
 30
0.0
 11
-30.58254925312645
 21
83.98490797546015
 31
0.0
  0
LINE
  5
1CD
330
1C8
100
AcDbEntity
  8
0
 62
     0
370
    -2
100
AcDbLine
 10
-29.33254925312643
 20
386.2849079754602
 30
0.0
 11
-29.33254925312645
 21
86.48490797546015
 31
0.0
  0
SOLID
  5
1CE
330
1C8
100
AcDbEntity
  8
0
 62
     0
100
AcDbTrace
 10
-28.91588258645977
 20
386.2849079754602
 30
0.0
 11
-29.7492159197931
 21
386.2849079754602
 31
0.0
 12
-29.33254925312643
 22
388.7849079754602
 32
0.0
 13
-29.33254925312643
 23
388.7849079754602
 33
0.0
  0
SOLID
  5
1CF
330
1C8
100
AcDbEntity
  8
0
 62
     0
100
AcDbTrace
 10
-29.74921591979312
 20
86.48490797546015
 30
0.0
 11
-28.91588258645978
 21
86.48490797546015
 31
0.0
 12
-29.33254925312645
 22
83.98490797546015
 32
0.0
 13
-29.33254925312645
 23
83.98490797546015
 33
0.0
  0
MTEXT
  5
1D0
330
1C8
100
AcDbEntity
  8
0
 62
     0
100
AcDbMText
 10
-41.96754925312644
 20
236.3849079754602
 30
0.0
 40
20.0
 41
0.0
 71
     5
 72
     1
  1
304,8
 11
5.827942386483761E-17
 21
1.0
 31
0.0
 73
     1
 44
1.0
  0
POINT
  5
1D1
330
1C8
100
AcDbEntity
  8
Defpoints
 62
     0
100
AcDbPoint
 10
56.39263803680979
 20
388.7849079754602
 30
0.0
  0
POINT
  5
1D2
330
1C8
100
AcDbEntity
  8
Defpoints
 62
     0
100
AcDbPoint
 10
56.39263803680981
 20
83.98490797546015
 30
0.0
  0
POINT
  5
1D3
330
1C8
100
AcDbEntity
  8
Defpoints
 62
     0
100
AcDbPoint
 10
-29.33254925312645
 20
83.98490797546015
 30
0.0
  0
ENDBLK
  5
1CA
330
1C8
100
AcDbEntity
  8
0
100
AcDbBlockEnd
  0
BLOCK
  5
1D8
330
1D7
100
AcDbEntity
  8
0
100
AcDbBlockBegin
  2
*D6
 70
     1
 10
0.0
 20
0.0
 30
0.0
  3
*D6
  1
*D6
  0
LINE
  5
1DA
330
1D7
100
AcDbEntity
  8
0
 62
     0
370
    -2
100
AcDbLine
 10
157.9926380368098
 20
567.2099079754602
 30
0.0
 11
157.9926380368098
 21
602.0353656010545
 31
0.0
  0
LINE
  5
1DB
330
1D7
100
AcDbEntity
  8
0
 62
     0
370
    -2
100
AcDbLine
 10
221.4926380368098
 20
567.2099079754602
 30
0.0
 11
221.4926380368098
 21
602.0353656010545
 31
0.0
  0
LINE
  5
1DC
330
1D7
100
AcDbEntity
  8
0
 62
     0
370
    -2
100
AcDbLine
 10
160.4926380368098
 20
600.7853656010545
 30
0.0
 11
218.9926380368098
 21
600.7853656010545
 31
0.0
  0
SOLID
  5
1DD
330
1D7
100
AcDbEntity
  8
0
 62
     0
100
AcDbTrace
 10
160.4926380368098
 20
601.2020322677212
 30
0.0
 11
160.4926380368098
 21
600.3686989343879
 31
0.0
 12
157.9926380368098
 22
600.7853656010545
 32
0.0
 13
157.9926380368098
 23
600.7853656010545
 33
0.0
  0
SOLID
  5
1DE
330
1D7
100
AcDbEntity
  8
0
 62
     0
100
AcDbTrace
 10
218.9926380368098
 20
600.3686989343879
 30
0.0
 11
218.9926380368098
 21
601.2020322677212
 31
0.0
 12
221.4926380368098
 22
600.7853656010545
 32
0.0
 13
221.4926380368098
 23
600.7853656010545
 33
0.0
  0
MTEXT
  5
1DF
330
1D7
100
AcDbEntity
  8
0
 62
     0
100
AcDbMText
 10
189.7426380368098
 20
613.4203656010545
 30
0.0
 40
20.0
 41
0.0
 71
     5
 72
     1
  1
63,5
 73
     1
 44
1.0
  0
POINT
  5
1E0
330
1D7
100
AcDbEntity
  8
Defpoints
 62
     0
100
AcDbPoint
 10
157.9926380368098
 20
566.5849079754602
 30
0.0
  0
POINT
  5
1E1
330
1D7
100
AcDbEntity
  8
Defpoints
 62
     0
100
AcDbPoint
 10
221.4926380368098
 20
566.5849079754602
 30
0.0
  0
POINT
  5
1E2
330
1D7
100
AcDbEntity
  8
Defpoints
 62
     0
100
AcDbPoint
 10
221.4926380368098
 20
600.7853656010545
 30
0.0
  0
ENDBLK
  5
1D9
330
1D7
100
AcDbEntity
  8
0
100
AcDbBlockEnd
  0
BLOCK
  5
1E7
330
1E6
100
AcDbEntity
  8
0
100
AcDbBlockBegin
  2
*D7
 70
     1
 10
0.0
 20
0.0
 30
0.0
  3
*D7
  1
*D7
  0
LINE
  5
1E9
330
1E6
100
AcDbEntity
  8
0
 62
     0
370
    -2
100
AcDbLine
 10
157.9926380368098
 20
567.2099079754602
 30
0.0
 11
157.9926380368098
 21
667.3930653170726
 31
0.0
  0
LINE
  5
1EA
330
1E6
100
AcDbEntity
  8
0
 62
     0
370
    -2
100
AcDbLine
 10
411.9926380368098
 20
567.2099079754602
 30
0.0
 11
411.9926380368098
 21
667.3930653170726
 31
0.0
  0
LINE
  5
1EB
330
1E6
100
AcDbEntity
  8
0
 62
     0
370
    -2
100
AcDbLine
 10
160.4926380368098
 20
666.1430653170726
 30
0.0
 11
409.4926380368098
 21
666.1430653170726
 31
0.0
  0
SOLID
  5
1EC
330
1E6
100
AcDbEntity
  8
0
 62
     0
100
AcDbTrace
 10
160.4926380368098
 20
666.5597319837392
 30
0.0
 11
160.4926380368098
 21
665.7263986504059
 31
0.0
 12
157.9926380368098
 22
666.1430653170726
 32
0.0
 13
157.9926380368098
 23
666.1430653170726
 33
0.0
  0
SOLID
  5
1ED
330
1E6
100
AcDbEntity
  8
0
 62
     0
100
AcDbTrace
 10
409.4926380368098
 20
665.7263986504059
 30
0.0
 11
409.4926380368098
 21
666.5597319837392
 31
0.0
 12
411.9926380368098
 22
666.1430653170726
 32
0.0
 13
411.9926380368098
 23
666.1430653170726
 33
0.0
  0
MTEXT
  5
1EE
330
1E6
100
AcDbEntity
  8
0
 62
     0
100
AcDbMText
 10
284.9926380368098
 20
676.9780653170726
 30
0.0
 40
20.0
 41
0.0
 71
     5
 72
     1
  1
254
 73
     1
 44
1.0
  0
POINT
  5
1EF
330
1E6
100
AcDbEntity
  8
Defpoints
 62
     0
100
AcDbPoint
 10
157.9926380368098
 20
566.5849079754602
 30
0.0
  0
POINT
  5
1F0
330
1E6
100
AcDbEntity
  8
Defpoints
 62
     0
100
AcDbPoint
 10
411.9926380368098
 20
566.5849079754602
 30
0.0
  0
POINT
  5
1F1
330
1E6
100
AcDbEntity
  8
Defpoints
 62
     0
100
AcDbPoint
 10
411.9926380368098
 20
666.1430653170726
 30
0.0
  0
ENDBLK
  5
1E8
330
1E6
100
AcDbEntity
  8
0
100
AcDbBlockEnd
  0
BLOCK
  5
1F6
330
1F5
100
AcDbEntity
  8
0
100
AcDbBlockBegin
  2
*D8
 70
     1
 10
0.0
 20
0.0
 30
0.0
  3
*D8
  1
*D8
  0
LINE
  5
1F8
330
1F5
100
AcDbEntity
  8
0
 62
     0
370
    -2
100
AcDbLine
 10
221.4926380368098
 20
567.2099079754602
 30
0.0
 11
221.4926380368098
 21
602.0353656010545
 31
0.0
  0
LINE
  5
1F9
330
1F5
100
AcDbEntity
  8
0
 62
     0
370
    -2
100
AcDbLine
 10
348.4926380368098
 20
567.2099079754602
 30
0.0
 11
348.4926380368098
 21
602.0353656010545
 31
0.0
  0
LINE
  5
1FA
330
1F5
100
AcDbEntity
  8
0
 62
     0
370
    -2
100
AcDbLine
 10
223.9926380368098
 20
600.7853656010545
 30
0.0
 11
345.9926380368098
 21
600.7853656010545
 31
0.0
  0
SOLID
  5
1FB
330
1F5
100
AcDbEntity
  8
0
 62
     0
100
AcDbTrace
 10
223.9926380368098
 20
601.2020322677212
 30
0.0
 11
223.9926380368098
 21
600.3686989343879
 31
0.0
 12
221.4926380368098
 22
600.7853656010545
 32
0.0
 13
221.4926380368098
 23
600.7853656010545
 33
0.0
  0
SOLID
  5
1FC
330
1F5
100
AcDbEntity
  8
0
 62
     0
100
AcDbTrace
 10
345.9926380368098
 20
600.3686989343879
 30
0.0
 11
345.9926380368098
 21
601.2020322677212
 31
0.0
 12
348.4926380368098
 22
600.7853656010545
 32
0.0
 13
348.4926380368098
 23
600.7853656010545
 33
0.0
  0
MTEXT
  5
1FD
330
1F5
100
AcDbEntity
  8
0
 62
     0
100
AcDbMText
 10
284.9926380368098
 20
611.4503656010545
 30
0.0
 40
20.0
 41
0.0
 71
     5
 72
     1
  1
127
 73
     1
 44
1.0
  0
POINT
  5
1FE
330
1F5
100
AcDbEntity
  8
Defpoints
 62
     0
100
AcDbPoint
 10
221.4926380368098
 20
566.5849079754602
 30
0.0
  0
POINT
  5
1FF
330
1F5
100
AcDbEntity
  8
Defpoints
 62
     0
100
AcDbPoint
 10
348.4926380368098
 20
566.5849079754602
 30
0.0
  0
POINT
  5
200
330
1F5
100
AcDbEntity
  8
Defpoints
 62
     0
100
AcDbPoint
 10
348.4926380368098
 20
600.7853656010545
 30
0.0
  0
ENDBLK
  5
1F7
330
1F5
100
AcDbEntity
  8
0
100
AcDbBlockEnd
  0
BLOCK
  5
205
330
204
100
AcDbEntity
  8
0
100
AcDbBlockBegin
  2
*D9
 70
     1
 10
0.0
 20
0.0
 30
0.0
  3
*D9
  1
*D9
  0
LINE
  5
207
330
204
100
AcDbEntity
  8
0
 62
     0
370
    -2
100
AcDbLine
 10
55.76763803680979
 20
83.35990797546015
 30
0.0
 11
-86.92539383590068
 21
83.35990797546015
 31
0.0
  0
LINE
  5
208
330
204
100
AcDbEntity
  8
0
 62
     0
370
    -2
100
AcDbLine
 10
157.3676380368098
 20
566.5849079754602
 30
0.0
 11
-86.92539383590065
 21
566.5849079754602
 31
0.0
  0
LINE
  5
209
330
204
100
AcDbEntity
  8
0
 62
     0
370
    -2
100
AcDbLine
 10
-85.67539383590068
 20
85.85990797546015
 30
0.0
 11
-85.67539383590065
 21
564.0849079754602
 31
0.0
  0
SOLID
  5
20A
330
204
100
AcDbEntity
  8
0
 62
     0
100
AcDbTrace
 10
-86.09206050256735
 20
85.85990797546015
 30
0.0
 11
-85.258727169234
 21
85.85990797546015
 31
0.0
 12
-85.67539383590068
 22
83.35990797546015
 32
0.0
 13
-85.67539383590068
 23
83.35990797546015
 33
0.0
  0
SOLID
  5
20B
330
204
100
AcDbEntity
  8
0
 62
     0
100
AcDbTrace
 10
-85.25872716923398
 20
564.0849079754602
 30
0.0
 11
-86.09206050256732
 21
564.0849079754602
 31
0.0
 12
-85.67539383590065
 22
566.5849079754602
 32
0.0
 13
-85.67539383590065
 23
566.5849079754602
 33
0.0
  0
MTEXT
  5
20C
330
204
100
AcDbEntity
  8
0
 62
     0
100
AcDbMText
 10
-98.31039383590065
 20
324.9724079754602
 30
0.0
 40
20.0
 41
0.0
 71
     5
 72
     1
  1
483,23
 11
5.881671981044856E-17
 21
1.0
 31
0.0
 73
     1
 44
1.0
  0
POINT
  5
20D
330
204
100
AcDbEntity
  8
Defpoints
 62
     0
100
AcDbPoint
 10
56.39263803680979
 20
83.35990797546015
 30
0.0
  0
POINT
  5
20E
330
204
100
AcDbEntity
  8
Defpoints
 62
     0
100
AcDbPoint
 10
157.9926380368098
 20
566.5849079754602
 30
0.0
  0
POINT
  5
20F
330
204
100
AcDbEntity
  8
Defpoints
 62
     0
100
AcDbPoint
 10
-85.67539383590065
 20
566.5849079754602
 30
0.0
  0
ENDBLK
  5
206
330
204
100
AcDbEntity
  8
0
100
AcDbBlockEnd
  0
ENDSEC
  0
SECTION
  2
ENTITIES
  0
LINE
  5
B8
102
{ACAD_REACTORS
102
}
330
1F
100
AcDbEntity
  8
Main
100
AcDbLine
 10
56.39263803680981
 20
83.98490797546015
 30
0.0
 11
513.5926380368098
 21
83.98490797546015
 31
0.0
  0
LINE
  5
B9
102
{ACAD_REACTORS
102
}
330
1F
100
AcDbEntity
  8
Main
100
AcDbLine
 10
513.5926380368098
 20
83.98490797546015
 30
0.0
 11
513.5926380368098
 21
388.7849079754602
 31
0.0
  0
LINE
  5
BB
330
1F
100
AcDbEntity
  8
Aux
100
AcDbLine
 10
284.9926380368098
 20
83.98490797546015
 30
0.0
 11
284.9926380368098
 21
325.2849079754602
 31
0.0
  0
LINE
  5
BF
330
1F
100
AcDbEntity
  8
Main
100
AcDbLine
 10
411.9926380368098
 20
566.5849079754602
 30
0.0
 11
411.9926380368098
 21
388.7849079754602
 31
0.0
  0
LINE
  5
C0
330
1F
100
AcDbEntity
  8
Main
100
AcDbLine
 10
411.9926380368098
 20
388.7849079754602
 30
0.0
 11
513.5926380368098
 21
388.7849079754602
 31
0.0
  0
LINE
  5
C1
102
{ACAD_REACTORS
102
}
330
1F
100
AcDbEntity
  8
Main
100
AcDbLine
 10
56.39263803680979
 20
83.98490797546015
 30
0.0
 11
56.39263803680979
 21
388.7849079754602
 31
0.0
  0
LINE
  5
C3
330
1F
100
AcDbEntity
  8
Main
100
AcDbLine
 10
157.9926380368098
 20
566.5849079754602
 30
0.0
 11
157.9926380368098
 21
388.7849079754602
 31
0.0
  0
LINE
  5
C4
330
1F
100
AcDbEntity
  8
Main
100
AcDbLine
 10
157.9926380368098
 20
388.7849079754602
 30
0.0
 11
56.39263803680979
 21
388.7849079754602
 31
0.0
  0
LINE
  5
C5
330
1F
100
AcDbEntity
  8
Aux
100
AcDbLine
 10
513.5926380368098
 20
388.7849079754602
 30
0.0
 11
513.5926380368098
 21
566.5849079754602
 31
0.0
  0
LINE
  5
C6
102
{ACAD_REACTORS
102
}
330
1F
100
AcDbEntity
  8
Aux
100
AcDbLine
 10
513.5926380368098
 20
566.5849079754602
 30
0.0
 11
411.9926380368098
 21
566.5849079754602
 31
0.0
  0
LINE
  5
C7
102
{ACAD_REACTORS
102
}
330
1F
100
AcDbEntity
  8
Main
100
AcDbLine
 10
348.4926380368098
 20
566.5849079754602
 30
0.0
 11
284.9926380368098
 21
325.2849079754602
 31
0.0
  0
LINE
  5
C8
102
{ACAD_REACTORS
102
}
330
1F
100
AcDbEntity
  8
Main
100
AcDbLine
 10
284.9926380368098
 20
325.2849079754602
 30
0.0
 11
221.4926380368098
 21
566.5849079754602
 31
0.0
  0
LINE
  5
C9
102
{ACAD_REACTORS
102
}
330
1F
100
AcDbEntity
  8
Aux
100
AcDbLine
 10
157.9926380368098
 20
566.5849079754602
 30
0.0
 11
56.3926380368098
 21
566.5849079754602
 31
0.0
  0
LINE
  5
CA
330
1F
100
AcDbEntity
  8
Aux
100
AcDbLine
 10
56.3926380368098
 20
566.5849079754602
 30
0.0
 11
56.39263803680979
 21
388.7849079754602
 31
0.0
  0
LINE
  5
CC
330
1F
100
AcDbEntity
  8
Main
100
AcDbLine
 10
157.9926380368098
 20
566.5849079754602
 30
0.0
 11
221.4926380368098
 21
566.5849079754602
 31
0.0
  0
LINE
  5
CD
330
1F
100
AcDbEntity
  8
Main
100
AcDbLine
 10
348.4926380368098
 20
566.5849079754602
 30
0.0
 11
411.9926380368098
 21
566.5849079754602
 31
0.0
  0
LINE
  5
10D
330
1F
100
AcDbEntity
  8
Main
100
AcDbLine
 10
684.5513136038746
 20
83.98490797546015
 30
0.0
 11
1141.751313603875
 21
83.98490797546015
 31
0.0
  0
LINE
  5
10E
330
1F
100
AcDbEntity
  8
Main
100
AcDbLine
 10
1141.751313603875
 20
83.98490797546015
 30
0.0
 11
1141.751313603875
 21
335.3658088604513
 31
0.0
  0
LINE
  5
10F
330
1F
100
AcDbEntity
  8
Aux
100
AcDbLine
 10
913.1513136038747
 20
83.98490797546015
 30
0.0
 11
913.1513136038747
 21
354.5786733842372
 31
0.0
  0
LINE
  5
112
330
1F
100
AcDbEntity
  8
Main
100
AcDbLine
 10
684.5513136038746
 20
83.98490797546015
 30
0.0
 11
684.5513136038746
 21
335.3658088604513
 31
0.0
  0
LINE
  5
115
330
1F
100
AcDbEntity
  8
Aux
100
AcDbLine
 10
1141.751313603875
 20
335.3658088604513
 30
0.0
 11
1141.751313603875
 21
566.5849079754602
 31
0.0
  0
LINE
  5
116
330
1F
100
AcDbEntity
  8
Aux
100
AcDbLine
 10
1141.751313603875
 20
566.5849079754602
 30
0.0
 11
1040.151313603875
 21
566.5849079754602
 31
0.0
  0
LINE
  5
117
330
1F
100
AcDbEntity
  8
Main
100
AcDbLine
 10
976.6513136038747
 20
566.5849079754602
 30
0.0
 11
922.8220589765011
 21
362.0337403914407
 31
0.0
  0
LINE
  5
118
330
1F
100
AcDbEntity
  8
Main
100
AcDbLine
 10
903.4805682312482
 20
362.0337403914407
 30
0.0
 11
849.6513136038747
 21
566.5849079754602
 31
0.0
  0
LINE
  5
157
330
1F
100
AcDbEntity
  8
Main
100
AcDbLine
 10
56.39263803680984
 20
745.2103173753231
 30
0.0
 11
513.5926380368098
 21
745.2103173753231
 31
0.0
  0
LINE
  5
158
330
1F
100
AcDbEntity
  8
Main
100
AcDbLine
 10
513.5926380368098
 20
745.2103173753231
 30
0.0
 11
513.5926380368098
 21
1050.010317375323
 31
0.0
  0
LINE
  5
159
330
1F
100
AcDbEntity
  8
Aux
100
AcDbLine
 10
284.9926380368098
 20
745.2103173753231
 30
0.0
 11
284.9926380368098
 21
1227.810317375323
 31
0.0
  0
LINE
  5
15A
330
1F
100
AcDbEntity
  8
Main
100
AcDbLine
 10
411.9926380368098
 20
1227.810317375323
 30
0.0
 11
411.9926380368098
 21
1050.010317375323
 31
0.0
  0
LINE
  5
15B
330
1F
100
AcDbEntity
  8
Main
100
AcDbLine
 10
411.9926380368098
 20
1050.010317375323
 30
0.0
 11
513.5926380368098
 21
1050.010317375323
 31
0.0
  0
LINE
  5
15C
330
1F
100
AcDbEntity
  8
Main
100
AcDbLine
 10
56.39263803680981
 20
745.2103173753231
 30
0.0
 11
56.39263803680981
 21
1050.010317375323
 31
0.0
  0
LINE
  5
15D
330
1F
100
AcDbEntity
  8
Main
100
AcDbLine
 10
157.9926380368098
 20
1227.810317375323
 30
0.0
 11
157.9926380368098
 21
1050.010317375323
 31
0.0
  0
LINE
  5
15E
330
1F
100
AcDbEntity
  8
Main
100
AcDbLine
 10
157.9926380368098
 20
1050.010317375323
 30
0.0
 11
56.39263803680981
 21
1050.010317375323
 31
0.0
  0
LINE
  5
15F
330
1F
100
AcDbEntity
  8
Aux
100
AcDbLine
 10
513.5926380368098
 20
1050.010317375323
 30
0.0
 11
513.5926380368098
 21
1227.810317375323
 31
0.0
  0
LINE
  5
160
330
1F
100
AcDbEntity
  8
Aux
100
AcDbLine
 10
513.5926380368098
 20
1227.810317375323
 30
0.0
 11
411.9926380368098
 21
1227.810317375323
 31
0.0
  0
LINE
  5
163
330
1F
100
AcDbEntity
  8
Aux
100
AcDbLine
 10
157.9926380368098
 20
1227.810317375323
 30
0.0
 11
56.39263803680983
 21
1227.810317375323
 31
0.0
  0
LINE
  5
164
330
1F
100
AcDbEntity
  8
Aux
100
AcDbLine
 10
56.39263803680983
 20
1227.810317375323
 30
0.0
 11
56.39263803680981
 21
1050.010317375323
 31
0.0
  0
LINE
  5
166
330
1F
100
AcDbEntity
  8
Main
100
AcDbLine
 10
157.9926380368098
 20
1227.810317375323
 30
0.0
 11
221.4926380368098
 21
1227.810317375323
 31
0.0
  0
LINE
  5
167
330
1F
100
AcDbEntity
  8
Main
100
AcDbLine
 10
348.4926380368098
 20
1227.810317375323
 30
0.0
 11
411.9926380368098
 21
1227.810317375323
 31
0.0
  0
LINE
  5
168
330
1F
100
AcDbEntity
  8
Main
100
AcDbLine
 10
221.4926380368098
 20
1227.810317375323
 30
0.0
 11
348.4926380368098
 21
1227.810317375323
 31
0.0
  0
ARC
  5
1B2
330
1F
100
AcDbEntity
  8
Main
100
AcDbCircle
 10
913.1513136038747
 20
364.5786733842372
 30
0.0
 40
10.0
100
AcDbArc
 50
194.7435628364708
 51
345.2564371635293
  0
DIMENSION
  5
1B6
102
{ACAD_REACTORS
102
}
102
{ACAD_XDICTIONARY
360
1B7
102
}
330
1F
100
AcDbEntity
  8
0
 62
     7
100
AcDbDimension
  2
*D4
 10
56.39263803680979
 20
32.84949220669085
 30
0.0
 11
284.9926380368098
 21
45.48449220669086
 31
0.0
 70
    32
 71
     5
 42
457.2
  3
ISO-25
100
AcDbAlignedDimension
 13
513.5926380368098
 23
83.98490797546015
 33
0.0
 14
56.39263803680979
 24
83.98490797546015
 34
0.0
100
AcDbRotatedDimension
1001
ACAD
1000
DSTYLE
1002
{
1070
   140
1040
20.0
1002
}
  0
DIMENSION
  5
1C5
102
{ACAD_REACTORS
102
}
102
{ACAD_XDICTIONARY
360
1C6
102
}
330
1F
100
AcDbEntity
  8
0
 62
     7
100
AcDbDimension
  2
*D5
 10
-29.33254925312645
 20
83.98490797546015
 30
0.0
 11
-41.96754925312644
 21
236.3849079754602
 31
0.0
 70
    32
 71
     5
 42
304.8
  3
ISO-25
100
AcDbAlignedDimension
 13
56.39263803680979
 23
388.7849079754602
 33
0.0
 14
56.39263803680981
 24
83.98490797546015
 34
0.0
 50
90.0
100
AcDbRotatedDimension
1001
ACAD
1000
DSTYLE
1002
{
1070
   140
1040
20.0
1002
}
  0
DIMENSION
  5
1D4
102
{ACAD_REACTORS
102
}
102
{ACAD_XDICTIONARY
360
1D5
102
}
330
1F
100
AcDbEntity
  8
0
 62
     7
100
AcDbDimension
  2
*D6
 10
221.4926380368098
 20
600.7853656010545
 30
0.0
 11
189.7426380368098
 21
613.4203656010545
 31
0.0
 70
    32
 71
     5
 42
63.5
  3
ISO-25
100
AcDbAlignedDimension
 13
157.9926380368098
 23
566.5849079754602
 33
0.0
 14
221.4926380368098
 24
566.5849079754602
 34
0.0
100
AcDbRotatedDimension
1001
ACAD
1000
DSTYLE
1002
{
1070
   140
1040
20.0
1002
}
  0
DIMENSION
  5
1E3
102
{ACAD_REACTORS
102
}
102
{ACAD_XDICTIONARY
360
1E4
102
}
330
1F
100
AcDbEntity
  8
0
 62
     7
100
AcDbDimension
  2
*D7
 10
411.9926380368098
 20
666.1430653170726
 30
0.0
 11
284.9926380368098
 21
676.9780653170726
 31
0.0
 70
    32
 71
     5
 42
254.0
  3
ISO-25
100
AcDbAlignedDimension
 13
157.9926380368098
 23
566.5849079754602
 33
0.0
 14
411.9926380368098
 24
566.5849079754602
 34
0.0
100
AcDbRotatedDimension
1001
ACAD
1000
DSTYLE
1002
{
1070
   140
1040
20.0
1002
}
  0
DIMENSION
  5
1F2
102
{ACAD_REACTORS
102
}
102
{ACAD_XDICTIONARY
360
1F3
102
}
330
1F
100
AcDbEntity
  8
0
 62
     7
100
AcDbDimension
  2
*D8
 10
348.4926380368098
 20
600.7853656010545
 30
0.0
 11
284.9926380368098
 21
611.4503656010545
 31
0.0
 70
    32
 71
     5
 42
127.0
  3
ISO-25
100
AcDbAlignedDimension
 13
221.4926380368098
 23
566.5849079754602
 33
0.0
 14
348.4926380368098
 24
566.5849079754602
 34
0.0
100
AcDbRotatedDimension
1001
ACAD
1000
DSTYLE
1002
{
1070
   140
1040
20.0
1002
}
  0
DIMENSION
  5
201
102
{ACAD_REACTORS
102
}
102
{ACAD_XDICTIONARY
360
202
102
}
330
1F
100
AcDbEntity
  8
0
 62
     7
100
AcDbDimension
  2
*D9
 10
-85.67539383590065
 20
566.5849079754602
 30
0.0
 11
-98.31039383590065
 21
324.9724079754602
 31
0.0
 70
    32
 71
     5
 42
483.225
  3
ISO-25
100
AcDbAlignedDimension
 13
56.39263803680979
 23
83.35990797546015
 33
0.0
 14
157.9926380368098
 24
566.5849079754602
 34
0.0
 50
90.0
100
AcDbRotatedDimension
1001
ACAD
1000
DSTYLE
1002
{
1070
   140
1040
20.0
1002
}
  0
LINE
  5
212
330
1F
100
AcDbEntity
  8
Aux
100
AcDbLine
 10
1040.151313603875
 20
566.5849079754602
 30
0.0
 11
1040.151313603875
 21
546.5849079754602
 31
0.0
  0
LINE
  5
214
330
1F
100
AcDbEntity
  8
Main
100
AcDbLine
 10
976.6513136038747
 20
566.5849079754602
 30
0.0
 11
1040.151313603875
 21
546.5849079754602
 31
0.0
  0
LINE
  5
218
330
1F
100
AcDbEntity
  8
Main
100
AcDbLine
 10
1040.151313603875
 20
546.5849079754602
 30
0.0
 11
1040.151313603875
 21
467.5235851138063
 31
0.0
  0
LINE
  5
219
330
1F
100
AcDbEntity
  8
Main
100
AcDbLine
 10
1040.151313603875
 20
467.5235851138063
 30
0.0
 11
1078.448368049106
 21
393.6017730212067
 31
0.0
  0
LINE
  5
21A
330
1F
100
AcDbEntity
  8
Main
100
AcDbLine
 10
1078.448368049106
 20
393.6017730212067
 30
0.0
 11
1141.751313603875
 21
335.3658088604513
 31
0.0
  0
LINE
  5
21B
330
1F
100
AcDbEntity
  8
Main
100
AcDbLine
 10
849.6513136038747
 20
566.5849079754602
 30
0.0
 11
786.1513136038745
 21
546.5849079754602
 31
0.0
  0
LINE
  5
21C
330
1F
100
AcDbEntity
  8
Main
100
AcDbLine
 10
786.1513136038745
 20
546.5849079754602
 30
0.0
 11
786.1513136038745
 21
467.5235851138063
 31
0.0
  0
LINE
  5
21D
330
1F
100
AcDbEntity
  8
Main
100
AcDbLine
 10
786.1513136038745
 20
467.5235851138063
 30
0.0
 11
747.8542591586438
 21
393.6017730212067
 31
0.0
  0
LINE
  5
21E
330
1F
100
AcDbEntity
  8
Main
100
AcDbLine
 10
747.8542591586438
 20
393.6017730212067
 30
0.0
 11
684.5513136038746
 21
335.3658088604513
 31
0.0
  0
LINE
  5
259
330
1F
100
AcDbEntity
  8
Main
100
AcDbLine
 10
684.5513136038746
 20
745.2103173753231
 30
0.0
 11
1141.751313603875
 21
745.2103173753231
 31
0.0
  0
LINE
  5
25A
330
1F
100
AcDbEntity
  8
Main
100
AcDbLine
 10
1141.751313603875
 20
745.2103173753231
 30
0.0
 11
1141.751313603875
 21
996.5912182603142
 31
0.0
  0
LINE
  5
25B
330
1F
100
AcDbEntity
  8
Aux
100
AcDbLine
 10
913.1513136038747
 20
745.2103173753231
 30
0.0
 11
913.1513136038747
 21
1227.810317375323
 31
0.0
  0
LINE
  5
25C
330
1F
100
AcDbEntity
  8
Main
100
AcDbLine
 10
684.5513136038746
 20
745.2103173753231
 30
0.0
 11
684.5513136038746
 21
996.5912182603142
 31
0.0
  0
LINE
  5
25D
330
1F
100
AcDbEntity
  8
Aux
100
AcDbLine
 10
1141.751313603875
 20
996.5912182603142
 30
0.0
 11
1141.751313603875
 21
1227.810317375323
 31
0.0
  0
LINE
  5
25E
330
1F
100
AcDbEntity
  8
Aux
100
AcDbLine
 10
1141.751313603875
 20
1227.810317375323
 30
0.0
 11
1040.151313603875
 21
1227.810317375323
 31
0.0
  0
LINE
  5
263
330
1F
100
AcDbEntity
  8
Aux
100
AcDbLine
 10
1040.151313603875
 20
1227.810317375323
 30
0.0
 11
1040.151313603875
 21
1207.810317375323
 31
0.0
  0
LINE
  5
264
330
1F
100
AcDbEntity
  8
Main
100
AcDbLine
 10
976.6513136038747
 20
1227.810317375323
 30
0.0
 11
1040.151313603875
 21
1207.810317375323
 31
0.0
  0
LINE
  5
265
330
1F
100
AcDbEntity
  8
Main
100
AcDbLine
 10
1040.151313603875
 20
1207.810317375323
 30
0.0
 11
1040.151313603875
 21
1128.748994513669
 31
0.0
  0
LINE
  5
266
330
1F
100
AcDbEntity
  8
Main
100
AcDbLine
 10
1040.151313603875
 20
1128.748994513669
 30
0.0
 11
1078.448368049106
 21
1054.82718242107
 31
0.0
  0
LINE
  5
267
330
1F
100
AcDbEntity
  8
Main
100
AcDbLine
 10
1078.448368049106
 20
1054.82718242107
 30
0.0
 11
1141.751313603875
 21
996.5912182603142
 31
0.0
  0
LINE
  5
268
330
1F
100
AcDbEntity
  8
Main
100
AcDbLine
 10
849.6513136038747
 20
1227.810317375323
 30
0.0
 11
786.1513136038745
 21
1207.810317375323
 31
0.0
  0
LINE
  5
269
330
1F
100
AcDbEntity
  8
Main
100
AcDbLine
 10
786.1513136038745
 20
1207.810317375323
 30
0.0
 11
786.1513136038745
 21
1128.748994513669
 31
0.0
  0
LINE
  5
26A
330
1F
100
AcDbEntity
  8
Main
100
AcDbLine
 10
786.1513136038745
 20
1128.748994513669
 30
0.0
 11
747.8542591586438
 21
1054.82718242107
 31
0.0
  0
LINE
  5
26B
330
1F
100
AcDbEntity
  8
Main
100
AcDbLine
 10
747.8542591586438
 20
1054.82718242107
 30
0.0
 11
684.5513136038746
 21
996.5912182603142
 31
0.0
  0
LINE
  5
26C
330
1F
100
AcDbEntity
  8
Main
100
AcDbLine
 10
849.6513136038747
 20
1227.810317375323
 30
0.0
 11
881.7973272596466
 21
1207.810317375323
 31
0.0
  0
LINE
  5
26D
330
1F
100
AcDbEntity
  8
Main
100
AcDbLine
 10
976.6513136038747
 20
1227.810317375323
 30
0.0
 11
944.5052999481027
 21
1207.810317375323
 31
0.0
  0
LINE
  5
26E
330
1F
100
AcDbEntity
  8
Main
100
AcDbLine
 10
881.7973272596466
 20
1207.810317375323
 30
0.0
 11
944.5052999481027
 21
1207.810317375323
 31
0.0
  0
LINE
  5
2BB
330
1F
100
AcDbEntity
  8
Main
100
AcDbLine
 10
1332.720009161729
 20
83.98490797546015
 30
0.0
 11
1789.920009161729
 21
83.98490797546015
 31
0.0
  0
LINE
  5
2BC
330
1F
100
AcDbEntity
  8
Main
100
AcDbLine
 10
1789.920009161729
 20
83.98490797546015
 30
0.0
 11
1789.920009161729
 21
335.3658088604513
 31
0.0
  0
LINE
  5
2BD
330
1F
100
AcDbEntity
  8
Aux
100
AcDbLine
 10
1561.32000916173
 20
83.98490797546015
 30
0.0
 11
1561.32000916173
 21
354.5786733842372
 31
0.0
  0
LINE
  5
2BE
330
1F
100
AcDbEntity
  8
Main
100
AcDbLine
 10
1332.720009161729
 20
83.98490797546015
 30
0.0
 11
1332.720009161729
 21
335.3658088604513
 31
0.0
  0
LINE
  5
2BF
330
1F
100
AcDbEntity
  8
Aux
100
AcDbLine
 10
1789.920009161729
 20
335.3658088604513
 30
0.0
 11
1789.920009161729
 21
566.5849079754602
 31
0.0
  0
LINE
  5
2C0
330
1F
100
AcDbEntity
  8
Aux
100
AcDbLine
 10
1789.920009161729
 20
566.5849079754602
 30
0.0
 11
1688.32000916173
 21
566.5849079754602
 31
0.0
  0
LINE
  5
2C1
330
1F
100
AcDbEntity
  8
Main
100
AcDbLine
 10
1624.82000916173
 20
566.5849079754602
 30
0.0
 11
1570.990754534356
 21
362.0337403914407
 31
0.0
  0
LINE
  5
2C2
330
1F
100
AcDbEntity
  8
Main
100
AcDbLine
 10
1551.649263789103
 20
362.0337403914407
 30
0.0
 11
1497.82000916173
 21
566.5849079754602
 31
0.0
  0
ARC
  5
2C3
330
1F
100
AcDbEntity
  8
Main
100
AcDbCircle
 10
1561.32000916173
 20
364.5786733842372
 30
0.0
 40
10.0
100
AcDbArc
 50
194.7435628364703
 51
345.256437163529
  0
LINE
  5
2C5
330
1F
100
AcDbEntity
  8
Main
100
AcDbLine
 10
1624.82000916173
 20
566.5849079754602
 30
0.0
 11
1688.32000916173
 21
546.5849079754602
 31
0.0
  0
LINE
  5
2C9
330
1F
100
AcDbEntity
  8
Main
100
AcDbLine
 10
1497.82000916173
 20
566.5849079754602
 30
0.0
 11
1434.320009161729
 21
546.5849079754602
 31
0.0
  0
ARC
  5
2DF
330
1F
100
AcDbEntity
  8
Main
100
AcDbCircle
 10
1925.586595898508
 20
530.6689765227329
 30
0.0
 40
237.7998108824505
100
AcDbArc
 50
176.1623269959736
 51
235.2143738774771
  0
ARC
  5
2E0
330
1F
100
AcDbEntity
  8
Main
100
AcDbCircle
 10
1197.053422424951
 20
530.6689765227329
 30
0.0
 40
237.7998108824505
100
AcDbArc
 50
304.785626122523
 51
3.837673004026426
  0
LINE
  5
316
330
1F
100
AcDbEntity
  8
Main
100
AcDbLine
 10
1332.72000916173
 20
745.2103173753231
 30
0.0
 11
1789.92000916173
 21
745.2103173753231
 31
0.0
  0
LINE
  5
317
330
1F
100
AcDbEntity
  8
Main
100
AcDbLine
 10
1789.92000916173
 20
745.2103173753231
 30
0.0
 11
1789.92000916173
 21
996.5912182603142
 31
0.0
  0
LINE
  5
318
330
1F
100
AcDbEntity
  8
Aux
100
AcDbLine
 10
1561.32000916173
 20
745.2103173753231
 30
0.0
 11
1561.32000916173
 21
1203.70282240883
 31
0.0
  0
LINE
  5
319
330
1F
100
AcDbEntity
  8
Main
100
AcDbLine
 10
1332.72000916173
 20
745.2103173753231
 30
0.0
 11
1332.72000916173
 21
996.5912182603142
 31
0.0
  0
LINE
  5
31A
330
1F
100
AcDbEntity
  8
Aux
100
AcDbLine
 10
1789.92000916173
 20
996.5912182603142
 30
0.0
 11
1789.92000916173
 21
1227.810317375323
 31
0.0
  0
LINE
  5
31B
330
1F
100
AcDbEntity
  8
Aux
100
AcDbLine
 10
1789.92000916173
 20
1227.810317375323
 30
0.0
 11
1688.32000916173
 21
1227.810317375323
 31
0.0
  0
LINE
  5
31F
330
1F
100
AcDbEntity
  8
Main
100
AcDbLine
 10
1624.82000916173
 20
1227.810317375323
 30
0.0
 11
1688.32000916173
 21
1207.810317375323
 31
0.0
  0
LINE
  5
320
330
1F
100
AcDbEntity
  8
Main
100
AcDbLine
 10
1497.82000916173
 20
1227.810317375323
 30
0.0
 11
1434.32000916173
 21
1207.810317375323
 31
0.0
  0
ARC
  5
321
330
1F
100
AcDbEntity
  8
Main
100
AcDbCircle
 10
1197.053422424951
 20
1191.894385922596
 30
0.0
 40
237.7998108824505
100
AcDbArc
 50
304.785626122523
 51
3.837673004026399
  0
ARC
  5
322
330
1F
100
AcDbEntity
  8
Main
100
AcDbCircle
 10
1925.586595898508
 20
1191.894385922596
 30
0.0
 40
237.7998108824505
100
AcDbArc
 50
176.1623269959736
 51
235.2143738774771
  0
ARC
  5
350
330
1F
100
AcDbEntity
  8
Main
100
AcDbCircle
 10
1561.32000916173
 20
1299.38720023348
 30
0.0
 40
95.68437782464993
100
AcDbArc
 50
228.4219100843031
 51
311.5780899156969
  0
LINE
  5
3C2
330
1F
100
AcDbEntity
  8
Main
100
AcDbLine
 10
1962.047693990714
 20
745.2103173753231
 30
0.0
 11
2342.047693990714
 21
745.2103173753231
 31
0.0
  0
LINE
  5
3C8
330
1F
100
AcDbEntity
  8
Main
100
AcDbLine
 10
2215.547693990714
 20
1227.810317375323
 30
0.0
 11
2279.047693990714
 21
1207.810317375323
 31
0.0
  0
LINE
  5
3C9
330
1F
100
AcDbEntity
  8
Main
100
AcDbLine
 10
2088.547693990714
 20
1227.810317375323
 30
0.0
 11
2025.047693990714
 21
1207.810317375323
 31
0.0
  0
ARC
  5
3CA
330
1F
100
AcDbEntity
  8
Main
100
AcDbCircle
 10
1787.781107253935
 20
1191.894385922596
 30
0.0
 40
237.7998108824505
100
AcDbArc
 50
317.124082529489
 51
3.837673004026379
  0
ARC
  5
3CB
330
1F
100
AcDbEntity
  8
Main
100
AcDbCircle
 10
2516.314280727493
 20
1191.894385922596
 30
0.0
 40
237.7998108824505
100
AcDbArc
 50
176.1623269959736
 51
222.875917470511
  0
ARC
  5
3CC
330
1F
100
AcDbEntity
  8
Main
100
AcDbCircle
 10
2152.047693990714
 20
1299.38720023348
 30
0.0
 40
95.68437782464993
100
AcDbArc
 50
228.4219100843031
 51
311.5780899156968
  0
LINE
  5
3CF
330
1F
100
AcDbEntity
  8
Main
100
AcDbLine
 10
1962.047693990714
 20
745.2103173753231
 30
0.0
 11
1962.047693990714
 21
1030.092325358331
 31
0.0
  0
LINE
  5
3D0
330
1F
100
AcDbEntity
  8
Main
100
AcDbLine
 10
2342.047693990714
 20
745.2103173753231
 30
0.0
 11
2342.047693990714
 21
1030.092325358331
 31
0.0
  0
LINE
  5
609
330
1F
100
AcDbEntity
  8
0
100
AcDbLine
 10
2009.722287551324
 20
1028.405933681974
 30
0.0
 11
2064.666459330465
 21
1156.018203620624
 31
0.0
  0
LINE
  5
60A
330
1F
100
AcDbEntity
  8
0
100
AcDbLine
 10
2294.373100430104
 20
1028.405933681974
 30
0.0
 11
2239.428928650963
 21
1156.018203620624
 31
0.0
  0
CIRCLE
  5
657
330
1F
100
AcDbEntity
  8
Main
100
AcDbCircle
 10
2113.120165556928
 20
972.0416303364983
 30
0.0
 40
29.91627931887009
  0
LINE
  5
658
330
1F
100
AcDbEntity
  8
Main
100
AcDbLine
 10
2099.138428464803
 20
991.310796063393
 30
0.0
 11
2097.108343785816
 21
997.3415445625345
 31
0.0
  0
LINE
  5
659
330
1F
100
AcDbEntity
  8
Main
100
AcDbLine
 10
2103.423447073767
 20
993.7847527107607
 30
0.0
 11
2099.215708009169
 21
998.5582318641681
 31
0.0
  0
ARC
  5
65A
330
1F
100
AcDbEntity
  8
Main
100
AcDbCircle
 10
2101.280937769286
 20
992.5477743870762
 30
0.0
 40
2.473956647368033
100
AcDbArc
 50
187.2087655807339
 51
52.79123441926383
  0
LINE
  5
65B
330
1F
100
AcDbEntity
  8
Main
100
AcDbLine
 10
2091.377043182666
 20
981.7383488196589
 30
0.0
 11
2086.603564029258
 21
985.9460878842573
 31
0.0
  0
LINE
  5
65C
330
1F
100
AcDbEntity
  8
Main
100
AcDbLine
 10
2093.850999830034
 20
986.0233674286227
 30
0.0
 11
2087.820251330892
 21
988.0534521076103
 31
0.0
  0
ARC
  5
65D
330
1F
100
AcDbEntity
  8
Main
100
AcDbCircle
 10
2092.61402150635
 20
983.8808581241409
 30
0.0
 40
2.473956647368033
100
AcDbArc
 50
217.2087655807346
 51
82.79123441925601
  0
LINE
  5
65E
330
1F
100
AcDbEntity
  8
Main
100
AcDbLine
 10
2089.441709981643
 20
969.5676736891306
 30
0.0
 11
2083.203886238058
 21
970.8249430348648
 31
0.0
  0
LINE
  5
65F
330
1F
100
AcDbEntity
  8
Main
100
AcDbLine
 10
2089.441709981643
 20
974.5155869838662
 30
0.0
 11
2083.203886238058
 21
973.2583176381319
 31
0.0
  0
ARC
  5
660
330
1F
100
AcDbEntity
  8
Main
100
AcDbCircle
 10
2089.441709981643
 20
972.0416303364983
 30
0.0
 40
2.473956647368033
100
AcDbArc
 50
247.2087655807529
 51
112.7912344192471
  0
LINE
  5
661
330
1F
100
AcDbEntity
  8
Main
100
AcDbLine
 10
2093.850999830035
 20
958.059893244374
 30
0.0
 11
2087.820251330893
 21
956.0298085653865
 31
0.0
  0
LINE
  5
662
330
1F
100
AcDbEntity
  8
Main
100
AcDbLine
 10
2091.377043182667
 20
962.3449118533379
 30
0.0
 11
2086.603564029259
 21
958.1371727887396
 31
0.0
  0
ARC
  5
663
330
1F
100
AcDbEntity
  8
Main
100
AcDbCircle
 10
2092.614021506351
 20
960.202402548856
 30
0.0
 40
2.473956647368033
100
AcDbArc
 50
277.208765580744
 51
142.7912344192675
  0
LINE
  5
664
330
1F
100
AcDbEntity
  8
Main
100
AcDbLine
 10
2103.423447073767
 20
950.2985079622365
 30
0.0
 11
2099.215708009169
 21
945.525028808829
 31
0.0
  0
LINE
  5
665
330
1F
100
AcDbEntity
  8
Main
100
AcDbLine
 10
2099.138428464803
 20
952.7724646096043
 30
0.0
 11
2097.108343785816
 21
946.7417161104626
 31
0.0
  0
ARC
  5
666
330
1F
100
AcDbEntity
  8
Main
100
AcDbCircle
 10
2101.280937769286
 20
951.5354862859203
 30
0.0
 40
2.473956647368033
100
AcDbArc
 50
307.2087655807377
 51
172.7912344192531
  0
LINE
  5
667
330
1F
100
AcDbEntity
  8
Main
100
AcDbLine
 10
2115.594122204296
 20
948.3631747612133
 30
0.0
 11
2114.336852858562
 21
942.125351017628
 31
0.0
  0
LINE
  5
668
330
1F
100
AcDbEntity
  8
Main
100
AcDbLine
 10
2110.64620890956
 20
948.3631747612133
 30
0.0
 11
2111.903478255294
 21
942.125351017628
 31
0.0
  0
ARC
  5
669
330
1F
100
AcDbEntity
  8
Main
100
AcDbCircle
 10
2113.120165556928
 20
948.3631747612133
 30
0.0
 40
2.473956647368033
100
AcDbArc
 50
337.2087655807436
 51
202.7912344192564
  0
LINE
  5
66A
330
1F
100
AcDbEntity
  8
Main
100
AcDbLine
 10
2127.101902649053
 20
952.7724646096046
 30
0.0
 11
2129.131987328041
 21
946.741716110463
 31
0.0
  0
LINE
  5
66B
330
1F
100
AcDbEntity
  8
Main
100
AcDbLine
 10
2122.816884040089
 20
950.2985079622368
 30
0.0
 11
2127.024623104687
 21
945.5250288088295
 31
0.0
  0
ARC
  5
66C
330
1F
100
AcDbEntity
  8
Main
100
AcDbCircle
 10
2124.959393344571
 20
951.5354862859208
 30
0.0
 40
2.473956647368033
100
AcDbArc
 50
7.208765580749543
 51
232.7912344192622
  0
LINE
  5
66D
330
1F
100
AcDbEntity
  8
Main
100
AcDbLine
 10
2134.86328793119
 20
962.3449118533376
 30
0.0
 11
2139.636767084597
 21
958.1371727887398
 31
0.0
  0
LINE
  5
66E
330
1F
100
AcDbEntity
  8
Main
100
AcDbLine
 10
2132.389331283822
 20
958.0598932443738
 30
0.0
 11
2138.420079782964
 21
956.0298085653867
 31
0.0
  0
ARC
  5
66F
330
1F
100
AcDbEntity
  8
Main
100
AcDbCircle
 10
2133.626309607506
 20
960.2024025488557
 30
0.0
 40
2.473956647368033
100
AcDbArc
 50
37.20876558073248
 51
262.7912344192456
  0
LINE
  5
670
330
1F
100
AcDbEntity
  8
Main
100
AcDbLine
 10
2136.798621132213
 20
974.515586983866
 30
0.0
 11
2143.036444875798
 21
973.2583176381316
 31
0.0
  0
LINE
  5
671
330
1F
100
AcDbEntity
  8
Main
100
AcDbLine
 10
2136.798621132213
 20
969.5676736891304
 30
0.0
 11
2143.036444875798
 21
970.8249430348645
 31
0.0
  0
ARC
  5
672
330
1F
100
AcDbEntity
  8
Main
100
AcDbCircle
 10
2136.798621132213
 20
972.0416303364981
 30
0.0
 40
2.473956647368033
100
AcDbArc
 50
67.2087655807422
 51
292.7912344192578
  0
LINE
  5
673
330
1F
100
AcDbEntity
  8
Main
100
AcDbLine
 10
2132.389331283822
 20
986.0233674286229
 30
0.0
 11
2138.420079782964
 21
988.0534521076103
 31
0.0
  0
LINE
  5
674
330
1F
100
AcDbEntity
  8
Main
100
AcDbLine
 10
2134.86328793119
 20
981.7383488196591
 30
0.0
 11
2139.636767084597
 21
985.9460878842573
 31
0.0
  0
ARC
  5
675
330
1F
100
AcDbEntity
  8
Main
100
AcDbCircle
 10
2133.626309607506
 20
983.8808581241411
 30
0.0
 40
2.473956647368033
100
AcDbArc
 50
97.20876558075443
 51
322.7912344192654
  0
LINE
  5
676
330
1F
100
AcDbEntity
  8
Main
100
AcDbLine
 10
2122.816884040089
 20
993.7847527107605
 30
0.0
 11
2127.024623104686
 21
998.5582318641679
 31
0.0
  0
LINE
  5
677
330
1F
100
AcDbEntity
  8
Main
100
AcDbLine
 10
2127.101902649052
 20
991.3107960633926
 30
0.0
 11
2129.131987328039
 21
997.3415445625343
 31
0.0
  0
ARC
  5
678
330
1F
100
AcDbEntity
  8
Main
100
AcDbCircle
 10
2124.95939334457
 20
992.5477743870766
 30
0.0
 40
2.473956647368033
100
AcDbArc
 50
127.2087655807378
 51
352.7912344192505
  0
LWPOLYLINE
  5
679
330
1F
100
AcDbEntity
  8
Main
100
AcDbPolyline
 90
        7
 70
     1
 43
0.0
 10
2154.184889483308
 20
941.1797821769887
 10
2154.184889483308
 20
999.1797821769887
 42
-0.414213562373095
 10
2155.184889483308
 20
1000.179782176989
 10
2207.184889483308
 20
1000.179782176989
 42
-0.414213562373095
 10
2208.184889483308
 20
999.1797821769887
 10
2208.184889483308
 20
940.1797821769887
 10
2155.184889483308
 20
940.1797821769887
 42
-0.414213562373095
  0
MTEXT
  5
67A
330
1F
100
AcDbEntity
  8
Main
100
AcDbMText
 10
2168.316382765516
 20
979.2389730512218
 30
0.0
 40
15.0
 41
71.08032975460128
 71
     1
 72
     5
  1
{lipo}
 73
     1
 44
1.0
1001
ACAD
1000
ACAD_MTEXT_DEFINED_HEIGHT_BEGIN
1070
    46
1040
15.24
1000
ACAD_MTEXT_DEFINED_HEIGHT_END
  0
MTEXT
  5
67B
330
1F
100
AcDbEntity
  8
Main
100
AcDbMText
 10
2092.540444656094
 20
980.0387945727426
 30
0.0
 40
15.0
 41
71.08032975460128
 71
     1
 72
     5
  1
{\H0.4x;electronics}
 73
     1
 44
1.0
1001
ACAD
1000
ACAD_MTEXT_DEFINED_HEIGHT_BEGIN
1070
    46
1040
15.096
1000
ACAD_MTEXT_DEFINED_HEIGHT_END
  0
LINE
  5
67D
330
1F
100
AcDbEntity
  8
0
100
AcDbLine
 10
2152.047693990714
 20
1023.260687084964
 30
0.0
 11
2093.358219060144
 21
1023.260687084964
 31
0.0
  0
LINE
  5
67E
330
1F
100
AcDbEntity
  8
0
100
AcDbLine
 10
2093.358219060144
 20
1023.260687084964
 30
0.0
 11
2057.356493600021
 21
985.4127192935531
 31
0.0
  0
LINE
  5
67F
330
1F
100
AcDbEntity
  8
0
100
AcDbLine
 10
2057.356493600021
 20
985.4127192935531
 30
0.0
 11
2057.356493600021
 21
925.4098435266819
 31
0.0
  0
LINE
  5
681
330
1F
100
AcDbEntity
  8
0
100
AcDbLine
 10
2057.356493600021
 20
925.4098435266819
 30
0.0
 11
2153.361094827015
 21
925.4098435266819
 31
0.0
  0
LINE
  5
682
330
1F
100
AcDbEntity
  8
0
100
AcDbLine
 10
2246.738894381407
 20
925.4098435266819
 30
0.0
 11
2150.734293154413
 21
925.4098435266819
 31
0.0
  0
LINE
  5
683
330
1F
100
AcDbEntity
  8
0
100
AcDbLine
 10
2210.737168921284
 20
1023.260687084964
 30
0.0
 11
2246.738894381407
 21
985.4127192935531
 31
0.0
  0
LINE
  5
684
330
1F
100
AcDbEntity
  8
0
100
AcDbLine
 10
2246.738894381407
 20
985.4127192935531
 30
0.0
 11
2246.738894381407
 21
925.4098435266819
 31
0.0
  0
LINE
  5
685
330
1F
100
AcDbEntity
  8
0
100
AcDbLine
 10
2152.047693990714
 20
1023.260687084964
 30
0.0
 11
2210.737168921284
 21
1023.260687084964
 31
0.0
  0
LINE
  5
6FF
330
1F
100
AcDbEntity
  8
0
100
AcDbLine
 10
2479.465478499916
 20
1018.887677499074
 30
0.0
 11
2420.776003569346
 21
1018.887677499074
 31
0.0
  0
LINE
  5
700
330
1F
100
AcDbEntity
  8
0
100
AcDbLine
 10
2420.776003569346
 20
1018.887677499074
 30
0.0
 11
2384.774278109223
 21
981.0397097076634
 31
0.0
  0
LINE
  5
701
330
1F
100
AcDbEntity
  8
0
100
AcDbLine
 10
2384.774278109223
 20
981.0397097076634
 30
0.0
 11
2384.774278109223
 21
921.0368339407922
 31
0.0
  0
LINE
  5
702
330
1F
100
AcDbEntity
  8
0
100
AcDbLine
 10
2384.774278109223
 20
921.0368339407922
 30
0.0
 11
2480.778879336217
 21
921.0368339407922
 31
0.0
  0
LINE
  5
703
330
1F
100
AcDbEntity
  8
0
100
AcDbLine
 10
2574.156678890609
 20
921.0368339407922
 30
0.0
 11
2478.152077663615
 21
921.0368339407922
 31
0.0
  0
LINE
  5
704
330
1F
100
AcDbEntity
  8
0
100
AcDbLine
 10
2538.154953430486
 20
1018.887677499074
 30
0.0
 11
2574.156678890609
 21
981.0397097076634
 31
0.0
  0
LINE
  5
705
330
1F
100
AcDbEntity
  8
0
100
AcDbLine
 10
2574.156678890609
 20
981.0397097076634
 30
0.0
 11
2574.156678890609
 21
921.0368339407922
 31
0.0
  0
LINE
  5
706
330
1F
100
AcDbEntity
  8
0
100
AcDbLine
 10
2479.465478499916
 20
1018.887677499074
 30
0.0
 11
2538.154953430486
 21
1018.887677499074
 31
0.0
  0
ENDSEC
  0
SECTION
  2
OBJECTS
  0
DICTIONARY
  5
C
330
0
100
AcDbDictionary
281
     1
  3
ACAD_DETAILVIEWSTYLE
350
B5
  3
ACAD_GROUP
350
D
  3
ACAD_IMAGE_VARS
350
6A
  3
ACAD_LAYOUT
350
1A
  3
ACAD_MLINESTYLE
350
17
  3
ACAD_PLOTSETTINGS
350
19
  3
ACAD_PLOTSTYLENAME
350
E
  3
ACAD_SCALELIST
350
40
  3
ACAD_SECTIONVIEWSTYLE
350
B6
  3
AcDbVariableDictionary
350
3D
  3
APPDATA
350
71
  3
DWGPROPS
350
70C
  0
DICTIONARY
  5
CE
330
2
100
AcDbDictionary
280
     1
281
     1
  3
ACAD_LAYERSTATES
360
CF
  3
ACLYDICTIONARY
360
D4
  0
DICTIONARY
  5
1B7
330
1B6
100
AcDbDictionary
280
     1
281
     1
  0
DICTIONARY
  5
1C6
330
1C5
100
AcDbDictionary
280
     1
281
     1
  0
DICTIONARY
  5
1D5
330
1D4
100
AcDbDictionary
280
     1
281
     1
  0
DICTIONARY
  5
1E4
330
1E3
100
AcDbDictionary
280
     1
281
     1
  0
DICTIONARY
  5
1F3
330
1F2
100
AcDbDictionary
280
     1
281
     1
  0
DICTIONARY
  5
202
330
201
100
AcDbDictionary
280
     1
281
     1
  0
DICTIONARY
  5
B5
102
{ACAD_REACTORS
330
C
102
}
330
C
100
AcDbDictionary
281
     1
  0
DICTIONARY
  5
D
102
{ACAD_REACTORS
330
C
102
}
330
C
100
AcDbDictionary
281
     1
  0
RASTERVARIABLES
  5
6A
102
{ACAD_REACTORS
330
C
102
}
330
C
100
AcDbRasterVariables
 90
        0
 70
     1
 71
     1
 72
     1
  0
DICTIONARY
  5
1A
102
{ACAD_REACTORS
330
C
102
}
330
C
100
AcDbDictionary
281
     1
  3
Model
350
22
  3
Sheet1
350
1E
  3
Sheet2
350
26
  0
DICTIONARY
  5
17
102
{ACAD_REACTORS
330
C
102
}
330
C
100
AcDbDictionary
281
     1
  3
Standard
350
18
  0
DICTIONARY
  5
19
102
{ACAD_REACTORS
330
C
102
}
330
C
100
AcDbDictionary
281
     1
  0
ACDBDICTIONARYWDFLT
  5
E
102
{ACAD_REACTORS
330
C
102
}
330
C
100
AcDbDictionary
281
     1
  3
Normal
350
F
100
AcDbDictionaryWithDefault
340
F
  0
DICTIONARY
  5
40
102
{ACAD_REACTORS
330
C
102
}
330
C
100
AcDbDictionary
281
     1
  3
A0
350
41
  3
A1
350
42
  3
A2
350
43
  3
A3
350
44
  3
A4
350
45
  3
A5
350
46
  3
A6
350
47
  3
A7
350
48
  3
A8
350
49
  3
A9
350
4A
  3
B0
350
4B
  3
B1
350
4C
  3
B2
350
4D
  3
B3
350
4E
  3
B4
350
4F
  3
B5
350
50
  3
B6
350
51
  3
B7
350
52
  3
B8
350
53
  3
B9
350
54
  3
C0
350
55
  3
C1
350
56
  3
C2
350
57
  3
C3
350
58
  3
C4
350
59
  3
C5
350
5A
  3
C6
350
5B
  3
C7
350
5C
  3
C8
350
5D
  3
C9
350
5E
  3
D0
350
5F
  3
D1
350
60
  3
D2
350
61
  0
DICTIONARY
  5
B6
102
{ACAD_REACTORS
330
C
102
}
330
C
100
AcDbDictionary
281
     1
  0
DICTIONARY
  5
3D
102
{ACAD_REACTORS
330
C
102
}
330
C
100
AcDbDictionary
281
     1
  0
DICTIONARY
  5
71
102
{ACAD_REACTORS
330
C
102
}
330
C
100
AcDbDictionary
281
     1
  0
XRECORD
  5
70C
102
{ACAD_REACTORS
330
C
102
}
330
C
100
AcDbXrecord
280
     1
  1
DWGPROPS COOKIE
  2

  3

  4

  6

  7

  8
Luis
  9

300
=
301
=
302
=
303
=
304
=
305
=
306
=
307
=
308
=
309
=
 40
0.0
 41
2455022.637359514
 42
2457428.426157164
  1

 90
        0
  0
DICTIONARY
  5
CF
102
{ACAD_REACTORS
330
CE
102
}
330
CE
100
AcDbDictionary
281
     1
  3
ARGON_LAYERP_3
350
213
  0
DICTIONARY
  5
D4
102
{ACAD_REACTORS
330
CE
102
}
330
CE
100
AcDbDictionary
281
     1
1001
ACAD
1000
<All
  0
LAYOUT
  5
22
102
{ACAD_REACTORS
330
1A
102
}
330
1A
100
AcDbPlotSettings
  1

  2
none_device
  4
ISO_A3_(420.00_x_297.00_MM)
  6

 40
7.5
 41
20.0
 42
7.5
 43
20.0
 44
420.0
 45
297.0
 46
20.78282828282826
 47
0.0
 48
0.0
 49
0.0
140
0.0
141
0.0
142
1.0
143
1.155642023346303
 70
  1204
 72
     1
 73
     0
 74
     1
  7
monochrome.ctb
 75
     0
147
0.8653198653198654
148
-134.1869158878504
149
0.0
100
AcDbLayout
  1
Model
 70
     1
 71
     0
 10
0.0
 20
0.0
 11
420.0
 21
297.0
 12
0.0
 22
0.0
 32
0.0
 14
1.000000000000000E+20
 24
1.000000000000000E+20
 34
1.000000000000000E+20
 15
-1.000000000000000E+20
 25
-1.000000000000000E+20
 35
-1.000000000000000E+20
146
0.0
 13
0.0
 23
0.0
 33
0.0
 16
1.0
 26
0.0
 36
0.0
 17
0.0
 27
1.0
 37
0.0
 76
     0
330
1F
331
29
  0
LAYOUT
  5
1E
102
{ACAD_REACTORS
330
1A
102
}
330
1A
100
AcDbPlotSettings
  1

  2
none_device
  4

  6

 40
0.0
 41
0.0
 42
0.0
 43
0.0
 44
0.0
 45
0.0
 46
0.0
 47
0.0
 48
0.0
 49
0.0
140
0.0
141
0.0
142
1.0
143
1.0
 70
   688
 72
     0
 73
     0
 74
     5
  7

 75
    16
147
1.0
148
0.0
149
0.0
100
AcDbLayout
  1
Sheet1
 70
     1
 71
     1
 10
0.0
 20
0.0
 11
420.0
 21
297.0
 12
0.0
 22
0.0
 32
0.0
 14
1.000000000000000E+20
 24
1.000000000000000E+20
 34
1.000000000000000E+20
 15
-1.000000000000000E+20
 25
-1.000000000000000E+20
 35
-1.000000000000000E+20
146
0.0
 13
0.0
 23
0.0
 33
0.0
 16
1.0
 26
0.0
 36
0.0
 17
0.0
 27
1.0
 37
0.0
 76
     0
330
1B
  0
LAYOUT
  5
26
102
{ACAD_REACTORS
330
1A
102
}
330
1A
100
AcDbPlotSettings
  1

  2
none_device
  4

  6

 40
0.0
 41
0.0
 42
0.0
 43
0.0
 44
0.0
 45
0.0
 46
0.0
 47
0.0
 48
0.0
 49
0.0
140
0.0
141
0.0
142
1.0
143
1.0
 70
   688
 72
     0
 73
     0
 74
     5
  7

 75
    16
147
1.0
148
0.0
149
0.0
100
AcDbLayout
  1
Sheet2
 70
     1
 71
     2
 10
0.0
 20
0.0
 11
0.0
 21
0.0
 12
0.0
 22
0.0
 32
0.0
 14
0.0
 24
0.0
 34
0.0
 15
0.0
 25
0.0
 35
0.0
146
0.0
 13
0.0
 23
0.0
 33
0.0
 16
1.0
 26
0.0
 36
0.0
 17
0.0
 27
1.0
 37
0.0
 76
     0
330
23
  0
MLINESTYLE
  5
18
102
{ACAD_REACTORS
330
17
102
}
330
17
100
AcDbMlineStyle
  2
Standard
 70
     0
  3

 62
   256
 51
90.0
 52
90.0
 71
     2
 49
0.5
 62
   256
  6
BYLAYER
 49
-0.5
 62
   256
  6
BYLAYER
  0
ACDBPLACEHOLDER
  5
F
102
{ACAD_REACTORS
330
E
102
}
330
E
  0
SCALE
  5
41
102
{ACAD_REACTORS
330
40
102
}
330
40
100
AcDbScale
 70
     0
300
1:1
140
1.0
141
1.0
290
     1
  0
SCALE
  5
42
102
{ACAD_REACTORS
330
40
102
}
330
40
100
AcDbScale
 70
     0
300
1:2
140
1.0
141
2.0
290
     0
  0
SCALE
  5
43
102
{ACAD_REACTORS
330
40
102
}
330
40
100
AcDbScale
 70
     0
300
1:4
140
1.0
141
4.0
290
     0
  0
SCALE
  5
44
102
{ACAD_REACTORS
330
40
102
}
330
40
100
AcDbScale
 70
     0
300
1:5
140
1.0
141
5.0
290
     0
  0
SCALE
  5
45
102
{ACAD_REACTORS
330
40
102
}
330
40
100
AcDbScale
 70
     0
300
1:8
140
1.0
141
8.0
290
     0
  0
SCALE
  5
46
102
{ACAD_REACTORS
330
40
102
}
330
40
100
AcDbScale
 70
     0
300
1:10
140
1.0
141
10.0
290
     0
  0
SCALE
  5
47
102
{ACAD_REACTORS
330
40
102
}
330
40
100
AcDbScale
 70
     0
300
1:16
140
1.0
141
16.0
290
     0
  0
SCALE
  5
48
102
{ACAD_REACTORS
330
40
102
}
330
40
100
AcDbScale
 70
     0
300
1:20
140
1.0
141
20.0
290
     0
  0
SCALE
  5
49
102
{ACAD_REACTORS
330
40
102
}
330
40
100
AcDbScale
 70
     0
300
1:30
140
1.0
141
30.0
290
     0
  0
SCALE
  5
4A
102
{ACAD_REACTORS
330
40
102
}
330
40
100
AcDbScale
 70
     0
300
1:40
140
1.0
141
40.0
290
     0
  0
SCALE
  5
4B
102
{ACAD_REACTORS
330
40
102
}
330
40
100
AcDbScale
 70
     0
300
1:50
140
1.0
141
50.0
290
     0
  0
SCALE
  5
4C
102
{ACAD_REACTORS
330
40
102
}
330
40
100
AcDbScale
 70
     0
300
1:100
140
1.0
141
100.0
290
     0
  0
SCALE
  5
4D
102
{ACAD_REACTORS
330
40
102
}
330
40
100
AcDbScale
 70
     0
300
2:1
140
2.0
141
1.0
290
     0
  0
SCALE
  5
4E
102
{ACAD_REACTORS
330
40
102
}
330
40
100
AcDbScale
 70
     0
300
4:1
140
4.0
141
1.0
290
     0
  0
SCALE
  5
4F
102
{ACAD_REACTORS
330
40
102
}
330
40
100
AcDbScale
 70
     0
300
8:1
140
8.0
141
1.0
290
     0
  0
SCALE
  5
50
102
{ACAD_REACTORS
330
40
102
}
330
40
100
AcDbScale
 70
     0
300
10:1
140
10.0
141
1.0
290
     0
  0
SCALE
  5
51
102
{ACAD_REACTORS
330
40
102
}
330
40
100
AcDbScale
 70
     0
300
100:1
140
100.0
141
1.0
290
     0
  0
SCALE
  5
52
102
{ACAD_REACTORS
330
40
102
}
330
40
100
AcDbScale
 70
     0
300
1/128" = 1'-0"
140
0.0078125
141
12.0
290
     0
  0
SCALE
  5
53
102
{ACAD_REACTORS
330
40
102
}
330
40
100
AcDbScale
 70
     0
300
1/64" = 1'-0"
140
0.015625
141
12.0
290
     0
  0
SCALE
  5
54
102
{ACAD_REACTORS
330
40
102
}
330
40
100
AcDbScale
 70
     0
300
1/32" = 1'-0"
140
0.03125
141
12.0
290
     0
  0
SCALE
  5
55
102
{ACAD_REACTORS
330
40
102
}
330
40
100
AcDbScale
 70
     0
300
1/16" = 1'-0"
140
0.0625
141
12.0
290
     0
  0
SCALE
  5
56
102
{ACAD_REACTORS
330
40
102
}
330
40
100
AcDbScale
 70
     0
300
3/32" = 1'-0"
140
0.09375
141
12.0
290
     0
  0
SCALE
  5
57
102
{ACAD_REACTORS
330
40
102
}
330
40
100
AcDbScale
 70
     0
300
1/8" = 1'-0"
140
0.125
141
12.0
290
     0
  0
SCALE
  5
58
102
{ACAD_REACTORS
330
40
102
}
330
40
100
AcDbScale
 70
     0
300
3/16" = 1'-0"
140
0.1875
141
12.0
290
     0
  0
SCALE
  5
59
102
{ACAD_REACTORS
330
40
102
}
330
40
100
AcDbScale
 70
     0
300
1/4" = 1'-0"
140
0.25
141
12.0
290
     0
  0
SCALE
  5
5A
102
{ACAD_REACTORS
330
40
102
}
330
40
100
AcDbScale
 70
     0
300
3/8" = 1'-0"
140
0.375
141
12.0
290
     0
  0
SCALE
  5
5B
102
{ACAD_REACTORS
330
40
102
}
330
40
100
AcDbScale
 70
     0
300
1/2" = 1'-0"
140
0.5
141
12.0
290
     0
  0
SCALE
  5
5C
102
{ACAD_REACTORS
330
40
102
}
330
40
100
AcDbScale
 70
     0
300
3/4" = 1'-0"
140
0.75
141
12.0
290
     0
  0
SCALE
  5
5D
102
{ACAD_REACTORS
330
40
102
}
330
40
100
AcDbScale
 70
     0
300
1" = 1'-0"
140
1.0
141
12.0
290
     0
  0
SCALE
  5
5E
102
{ACAD_REACTORS
330
40
102
}
330
40
100
AcDbScale
 70
     0
300
1-1/2" = 1'-0"
140
1.5
141
12.0
290
     0
  0
SCALE
  5
5F
102
{ACAD_REACTORS
330
40
102
}
330
40
100
AcDbScale
 70
     0
300
3" = 1'-0"
140
3.0
141
12.0
290
     0
  0
SCALE
  5
60
102
{ACAD_REACTORS
330
40
102
}
330
40
100
AcDbScale
 70
     0
300
6" = 1'-0"
140
6.0
141
12.0
290
     0
  0
SCALE
  5
61
102
{ACAD_REACTORS
330
40
102
}
330
40
100
AcDbScale
 70
     0
300
1'-0" = 1'-0"
140
12.0
141
12.0
290
     0
  0
XRECORD
  5
213
102
{ACAD_REACTORS
330
CF
102
}
330
CF
100
AcDbXrecord
280
     1
 91
     1023
301

290
     0
302
Aux
330
10
 90
        8
 62
     3
370
    -3
331
16
  1
Color_3
330
D1
 90
        8
 62
     7
370
    -3
331
16
  1
Color_7
330
D3
 90
        8
 62
     1
370
    -3
331
16
  1
Color_1
330
1B5
 90
        0
 62
     7
370
    -3
331
16
  1
Color_7
  0
ENDSEC
  0
EOF
